  0
SECTION
  2
HEADER
  9
$LIMMIN
 10
0.000000
 20
0.000000
  9
$LIMMAX
 10
840.896415
 20
594.603558
  9
$EXTMIN
 10
0.000000
 20
0.000000
  9
$EXTMAX
 10
8408.964153
 20
5946.035575
  9
$ANGBASE
 50
0.0
  9
$ANGDIR
 70
0
  9
$DIMRND
 40
0.100000
  9
$DIMSE1
 70
0
  9
$DIMSE2
 70
0
  9
$DIMTXT
 40
3.500000
  9
$LTSCALE
 40
1.000000
  9
$LUPREC
 70
0
  9
$AUPREC
 70
0
  9
$PDMODE
 70
2
  9
$PDSIZE
 40
42.044821
  0
ENDSEC
  0
SECTION
  2
TABLES
  0
TABLE
  2
VPORT
  70
1
  0
VPORT
  2
*ACTIVE
 70
0
  10
0.0
 20
0.0
 11
1.0
 21
1.0
 12
594.0
 22
420.0
 13
0.0
 23
0.0
 14
10.0
 24
10.0
 15
10.0
 25
10.0
 16
0.0
 26
0.0
 36
1.0
 17
594.0
 27
420.0
 37
100.0
 40
1000.0
 41
1.0
 42
50.0
 43
0.0
 44
0.0
 50
0.0
 51
0.0
 71
0
 72
2000
 73
1
 74
3
 75
0
 76
0
 77
0
 78
1
  0
ENDTAB
  0
TABLE
  2
LTYPE
 70
4
  0
LTYPE
  2
CONTINUOUS
 70
0
  3
Solid line
 72
65
 73
0
 40
0.0
  0
LTYPE
  2
DASHED
 70
0
  3
Dashed line
 72
65
 73
2
 40
60.000000
 49
30.000000
 49
-30.000000
  0
LTYPE
  2
CENTER
 70
0
  3
Chain line
 72
65
 73
4
 40
240.000000
 49
150.000000
 49
-30.000000
 49
30.000000
 49
-30.000000
  0
LTYPE
  2
RANDOM
 70
0
  3
Random line
 72
65
 73
4
 40
225.000000
 49
60.000000
 49
-30.000000
 49
45.000000
 49
-90.000000
  0
ENDTAB
  0
TABLE
  2
STYLE
 70
9
  0
STYLE
  2
STANDARD
 40
0
 41
1.0
 50
0.0
 71
0
 42
0
  3
simplex
  4

 70
0
  0
ENDTAB
  0
TABLE
  2
LAYER
 70
3
  0
LAYER
  2
0
 70
0
 62
7
  6
CONTINUOUS
  0
LAYER
  2
0
 62
1
  6
CONTINUOUS
 70
0
  0
LAYER
  2
BORDER
 62
1
  6
CONTINUOUS
 70
0
  0
ENDTAB
  0
ENDSEC
  0
SECTION
  2
BLOCKS
  0
BLOCK
  2
A1-SHEET
  8
0
 70
0
 10
0.0
 20
0.0
 30
0.0
  0
LINE
  8
0
  6
CONTINUOUS
 62
1
 10
0.000000
 20
0.293588
 11
0.000000
 21
570.293588
  0
LINE
  8
0
  6
CONTINUOUS
 62
1
 10
810.896415
 20
0.293588
 11
0.000000
 21
0.293588
  0
LINE
  8
0
  6
CONTINUOUS
 62
1
 10
0.000000
 20
570.293588
 11
810.896415
 21
570.293588
  0
LINE
  8
0
  6
CONTINUOUS
 62
1
 10
810.896415
 20
0.293588
 11
810.896415
 21
570.293588
  0
LINE
  8
0
  6
CONTINUOUS
 62
1
 10
405.448208
 20
570.293588
 11
405.448208
 21
573.293588
  0
LINE
  8
0
  6
CONTINUOUS
 62
1
 10
608.172311
 20
570.293588
 11
608.172311
 21
573.293588
  0
LINE
  8
0
  6
CONTINUOUS
 62
1
 10
202.724104
 20
570.293588
 11
202.724104
 21
573.293588
  0
LINE
  8
0
  6
CONTINUOUS
 62
1
 10
101.362052
 20
570.293588
 11
101.362052
 21
573.293588
  0
LINE
  8
0
  6
CONTINUOUS
 62
1
 10
304.086156
 20
570.293588
 11
304.086156
 21
569.894507
  0
LINE
  8
0
  6
CONTINUOUS
 62
1
 10
304.086156
 20
569.894507
 11
304.086156
 21
573.293588
  0
LINE
  8
0
  6
CONTINUOUS
 62
1
 10
506.810260
 20
570.293588
 11
506.810260
 21
573.293588
  0
LINE
  8
0
  6
CONTINUOUS
 62
1
 10
709.534363
 20
570.293588
 11
709.534363
 21
573.293588
  0
TEXT
  8
0
  6
CONTINUOUS
 62
2
 10
99.855229
 20
574.935709
 40
3.000000
  1
1
 50
0.000000
 41
1.000000
 51
0.000000
  7
STANDARD
  0
TEXT
  8
0
  6
CONTINUOUS
 62
2
 10
201.603454
 20
574.761780
 40
3.000000
  1
2
 50
0.000000
 41
1.000000
 51
0.000000
  7
STANDARD
  0
TEXT
  8
0
  6
CONTINUOUS
 62
2
 10
303.425760
 20
574.928387
 40
3.000000
  1
3
 50
0.000000
 41
1.000000
 51
0.000000
  7
STANDARD
  0
TEXT
  8
0
  6
CONTINUOUS
 62
2
 10
403.692370
 20
574.751238
 40
3.000000
  1
4
 50
0.000000
 41
1.000000
 51
0.000000
  7
STANDARD
  0
TEXT
  8
0
  6
CONTINUOUS
 62
2
 10
505.761611
 20
574.628257
 40
3.000000
  1
5
 50
0.000000
 41
1.000000
 51
0.000000
  7
STANDARD
  0
TEXT
  8
0
  6
CONTINUOUS
 62
2
 10
607.243575
 20
575.166148
 40
3.000000
  1
6
 50
0.000000
 41
1.000000
 51
0.000000
  7
STANDARD
  0
TEXT
  8
0
  6
CONTINUOUS
 62
2
 10
708.456940
 20
573.963183
 40
3.000000
  1
7
 50
0.000000
 41
1.000000
 51
0.000000
  7
STANDARD
  0
LINE
  8
0
  6
CONTINUOUS
 62
3
 10
405.448208
 20
570.293588
 11
405.448208
 21
565.293588
  0
LINE
  8
0
  6
CONTINUOUS
 62
1
 10
810.896415
 20
285.293588
 11
813.896415
 21
285.293588
  0
LINE
  8
0
  6
CONTINUOUS
 62
1
 10
810.896415
 20
427.793588
 11
813.896415
 21
427.793588
  0
LINE
  8
0
  6
CONTINUOUS
 62
1
 10
810.896415
 20
142.793588
 11
813.896415
 21
142.793588
  0
LINE
  8
0
  6
CONTINUOUS
 62
1
 10
810.896415
 20
499.043588
 11
813.896415
 21
499.043588
  0
LINE
  8
0
  6
CONTINUOUS
 62
1
 10
810.896415
 20
356.543588
 11
813.896415
 21
356.543588
  0
LINE
  8
0
  6
CONTINUOUS
 62
1
 10
810.896415
 20
214.043588
 11
813.896415
 21
214.043588
  0
LINE
  8
0
  6
CONTINUOUS
 62
1
 10
810.896415
 20
71.543588
 11
813.896415
 21
71.543588
  0
TEXT
  8
0
  6
CONTINUOUS
 62
2
 10
814.731259
 20
497.682453
 40
3.000000
  1
A
 50
0.000000
 41
1.000000
 51
0.000000
  7
STANDARD
  0
TEXT
  8
0
  6
CONTINUOUS
 62
2
 10
814.617524
 20
426.633648
 40
3.000000
  1
B
 50
0.000000
 41
1.000000
 51
0.000000
  7
STANDARD
  0
TEXT
  8
0
  6
CONTINUOUS
 62
2
 10
815.378220
 20
355.128239
 40
3.000000
  1
C
 50
0.000000
 41
1.000000
 51
0.000000
  7
STANDARD
  0
TEXT
  8
0
  6
CONTINUOUS
 62
2
 10
815.265962
 20
284.354684
 40
3.000000
  1
D
 50
0.000000
 41
1.000000
 51
0.000000
  7
STANDARD
  0
TEXT
  8
0
  6
CONTINUOUS
 62
2
 10
815.477184
 20
212.961533
 40
3.000000
  1
E
 50
0.000000
 41
1.000000
 51
0.000000
  7
STANDARD
  0
TEXT
  8
0
  6
CONTINUOUS
 62
2
 10
814.828747
 20
141.734274
 40
3.000000
  1
F
 50
0.000000
 41
1.000000
 51
0.000000
  7
STANDARD
  0
TEXT
  8
0
  6
CONTINUOUS
 62
2
 10
815.320614
 20
69.921633
 40
3.000000
  1
G
 50
0.000000
 41
1.000000
 51
0.000000
  7
STANDARD
  0
LINE
  8
0
  6
CONTINUOUS
 62
3
 10
810.896415
 20
285.293588
 11
807.896415
 21
285.293588
  0
LINE
  8
0
  6
CONTINUOUS
 62
1
 10
578.313470
 20
19.293588
 11
578.313470
 21
0.000000
  0
LINE
  8
0
  6
CONTINUOUS
 62
1
 10
284.611031
 20
19.293588
 11
284.611031
 21
0.293588
  0
LINE
  8
0
  6
CONTINUOUS
 62
1
 10
810.896415
 20
563.293588
 11
653.667813
 21
563.293588
  0
LINE
  8
0
  6
CONTINUOUS
 62
1
 10
107.451868
 20
563.293588
 11
0.000000
 21
563.293588
  0
LINE
  8
0
  6
CONTINUOUS
 62
1
 10
0.000000
 20
19.293588
 11
623.352368
 21
19.293588
  0
TEXT
  8
0
  6
CONTINUOUS
 62
2
 10
46.453288
 20
10.796613
 40
3.105000
  1
1998 - THIS DESIGN/DRAWING IS THE PROPERTY OF MONO EQUIPMENT AND MUST NOT BE
 50
0.000000
 41
1.000000
 51
0.000000
  7
STANDARD
  0
TEXT
  8
0
  6
CONTINUOUS
 62
2
 10
41.107749
 20
4.310541
 40
3.105000
  1
REPRODUCED, COPIED, OR ITS CONTENTS DIVULGED WITHOUT PRIOR WRITTEN PERMISSION.
 50
0.000000
 41
1.000000
 51
0.000000
  7
STANDARD
  0
CIRCLE
  8
0
  6
CONTINUOUS
 62
3
 10
42.276047
 20
14.388236
 40
2.173500
  0
TEXT
  8
0
  6
CONTINUOUS
 62
2
 10
16.991737
 20
10.697820
 40
3.105000
  1
COPYRIGHT
 50
0.000000
 41
1.000000
 51
0.000000
  7
STANDARD
  0
TEXT
  8
0
  6
CONTINUOUS
 62
2
 10
41.713660
 20
13.712616
 40
1.630125
  1
C
 50
0.000000
 41
1.000000
 51
0.000000
  7
STANDARD
  0
TEXT
  8
0
  6
CONTINUOUS
 62
3
 10
286.872128
 20
14.527338
 40
3.003000
  1
REMOVE ALL BURRS & SHARP EDGES - ON SHEET METAL PARTS
 50
0.000000
 41
1.000000
 51
0.000000
  7
STANDARD
  0
LINE
  8
0
  6
CONTINUOUS
 62
1
 10
578.313470
 20
13.293588
 11
284.611031
 21
13.293588
  0
LINE
  8
0
  6
CONTINUOUS
 62
1
 10
284.611031
 20
6.293588
 11
578.313470
 21
6.293588
  0
TEXT
  8
0
  6
CONTINUOUS
 62
3
 10
292.717676
 20
1.450699
 40
3.003000
  1
OPEN TOL,150 & BELOW -.5,OVER 150 -1.0
 50
0.000000
 41
1.000000
 51
0.000000
  7
STANDARD
  0
TEXT
  8
0
  6
CONTINUOUS
 62
3
 10
343.153184
 20
2.995429
 40
3.003000
  1
+
 50
0.000000
 41
1.000000
 51
0.000000
  7
STANDARD
  0
TEXT
  8
0
  6
CONTINUOUS
 62
3
 10
374.360063
 20
3.082114
 40
3.003000
  1
+
 50
0.000000
 41
1.000000
 51
0.000000
  7
STANDARD
  0
TEXT
  8
0
  6
CONTINUOUS
 62
3
 10
396.025848
 20
1.552562
 40
3.003000
  1
DECIMAL DIMs,75 & BELOW -.25, 75 TO 300-.4, 300 TO 600-.5, OVER 600-1.0
 50
0.000000
 41
1.000000
 51
0.000000
  7
STANDARD
  0
TEXT
  8
0
  6
CONTINUOUS
 62
3
 10
453.503115
 20
3.046556
 40
3.003000
  1
+
 50
0.000000
 41
1.000000
 51
0.000000
  7
STANDARD
  0
TEXT
  8
0
  6
CONTINUOUS
 62
3
 10
489.694740
 20
3.046556
 40
3.003000
  1
+
 50
0.000000
 41
1.000000
 51
0.000000
  7
STANDARD
  0
TEXT
  8
0
  6
CONTINUOUS
 62
3
 10
525.686413
 20
3.046556
 40
3.003000
  1
+
 50
0.000000
 41
1.000000
 51
0.000000
  7
STANDARD
  0
TEXT
  8
0
  6
CONTINUOUS
 62
3
 10
557.079149
 20
3.046556
 40
3.003000
  1
+
 50
0.000000
 41
1.000000
 51
0.000000
  7
STANDARD
  0
TEXT
  8
0
  6
CONTINUOUS
 62
3
 10
298.372755
 20
8.027002
 40
3.003000
  1
SURFACE MACHINING,         COARSE FINISH,          MEDIUM FINISH
 50
0.000000
 41
1.000000
 51
0.000000
  7
STANDARD
  0
LINE
  8
0
  6
CONTINUOUS
 62
3
 10
358.454200
 20
7.938625
 11
357.376430
 21
9.477839
  0
LINE
  8
0
  6
CONTINUOUS
 62
3
 10
355.061002
 20
7.938625
 11
361.601409
 21
7.938625
  0
LINE
  8
0
  6
CONTINUOUS
 62
3
 10
355.461530
 20
7.938625
 11
356.552531
 21
6.847623
  0
LINE
  8
0
  6
CONTINUOUS
 62
3
 10
358.675973
 20
6.847623
 11
357.584972
 21
7.938625
  0
LINE
  8
0
  6
CONTINUOUS
 62
3
 10
359.708413
 20
7.938625
 11
360.799415
 21
6.847623
  0
LINE
  8
0
  6
CONTINUOUS
 62
3
 10
357.376430
 20
9.477839
 11
359.531969
 21
9.477839
  0
TEXT
  8
0
  6
CONTINUOUS
 62
3
 10
355.059729
 20
10.350713
 40
1.911000
  1
3.2
 50
0.000000
 41
1.000000
 51
0.000000
  7
STANDARD
  0
LINE
  8
0
  6
CONTINUOUS
 62
3
 10
361.472631
 20
12.249391
 11
358.454200
 21
7.938625
  0
LINE
  8
0
  6
CONTINUOUS
 62
3
 10
415.064989
 20
7.939383
 11
413.987220
 21
9.478597
  0
LINE
  8
0
  6
CONTINUOUS
 62
3
 10
411.671791
 20
7.939383
 11
418.212199
 21
7.939383
  0
LINE
  8
0
  6
CONTINUOUS
 62
3
 10
412.072320
 20
7.939383
 11
413.163321
 21
6.848381
  0
LINE
  8
0
  6
CONTINUOUS
 62
3
 10
415.286763
 20
6.848381
 11
414.195761
 21
7.939383
  0
LINE
  8
0
  6
CONTINUOUS
 62
3
 10
416.319203
 20
7.939383
 11
417.410204
 21
6.848381
  0
LINE
  8
0
  6
CONTINUOUS
 62
3
 10
413.987220
 20
9.478597
 11
416.142758
 21
9.478597
  0
TEXT
  8
0
  6
CONTINUOUS
 62
3
 10
411.670519
 20
10.351471
 40
1.911000
  1
1.6
 50
0.000000
 41
1.000000
 51
0.000000
  7
STANDARD
  0
LINE
  8
0
  6
CONTINUOUS
 62
3
 10
418.083420
 20
12.250149
 11
415.064989
 21
7.939383
  0
TEXT
  8
0
  6
CONTINUOUS
 62
3
 10
471.656054
 20
7.835044
 40
3.003000
  1
FINE FINISH,          GROUND FINISH
 50
0.000000
 41
1.000000
 51
0.000000
  7
STANDARD
  0
LINE
  8
0
  6
CONTINUOUS
 62
3
 10
520.028258
 20
7.857540
 11
518.950489
 21
9.396754
  0
LINE
  8
0
  6
CONTINUOUS
 62
3
 10
516.635060
 20
7.857540
 11
523.175468
 21
7.857540
  0
LINE
  8
0
  6
CONTINUOUS
 62
3
 10
517.035588
 20
7.857540
 11
518.126590
 21
6.766538
  0
LINE
  8
0
  6
CONTINUOUS
 62
3
 10
520.250032
 20
6.766538
 11
519.159030
 21
7.857540
  0
LINE
  8
0
  6
CONTINUOUS
 62
3
 10
521.282472
 20
7.857540
 11
522.373473
 21
6.766538
  0
LINE
  8
0
  6
CONTINUOUS
 62
3
 10
518.950489
 20
9.396754
 11
521.106027
 21
9.396754
  0
TEXT
  8
0
  6
CONTINUOUS
 62
3
 10
516.633788
 20
10.269628
 40
1.911000
  1
0.4
 50
0.000000
 41
1.000000
 51
0.000000
  7
STANDARD
  0
LINE
  8
0
  6
CONTINUOUS
 62
3
 10
523.046689
 20
12.168306
 11
520.028258
 21
7.857540
  0
LINE
  8
0
  6
CONTINUOUS
 62
3
 10
466.978169
 20
7.991505
 11
465.900400
 21
9.530719
  0
LINE
  8
0
  6
CONTINUOUS
 62
3
 10
463.584971
 20
7.991505
 11
470.125378
 21
7.991505
  0
LINE
  8
0
  6
CONTINUOUS
 62
3
 10
463.985499
 20
7.991505
 11
465.076501
 21
6.900503
  0
LINE
  8
0
  6
CONTINUOUS
 62
3
 10
467.199942
 20
6.900503
 11
466.108941
 21
7.991505
  0
LINE
  8
0
  6
CONTINUOUS
 62
3
 10
468.232382
 20
7.991505
 11
469.323384
 21
6.900503
  0
LINE
  8
0
  6
CONTINUOUS
 62
3
 10
465.900400
 20
9.530719
 11
468.055938
 21
9.530719
  0
TEXT
  8
0
  6
CONTINUOUS
 62
3
 10
463.583698
 20
10.403593
 40
1.911000
  1
0.8
 50
0.000000
 41
1.000000
 51
0.000000
  7
STANDARD
  0
LINE
  8
0
  6
CONTINUOUS
 62
3
 10
469.996600
 20
12.302271
 11
466.978169
 21
7.991505
  0
TEXT
  8
0
  6
CONTINUOUS
 62
3
 10
417.615816
 20
14.532113
 40
3.003000
  1
EXTERNAL CORNERS TO BE SAFETY RADIUSED 2mm UNLESS STATED OTHERWISE
 50
0.000000
 41
1.000000
 51
0.000000
  7
STANDARD
  0
TEXT
  8
0
  6
CONTINUOUS
 62
3
 10
656.297578
 20
564.567124
 40
4.000000
  1
ALL DIMENSIONS IN mm UNLESS OTHERWISE STATED
 50
0.000000
 41
1.000000
 51
0.000000
  7
STANDARD
  0
LINE
  8
0
  6
CONTINUOUS
 62
1
 10
653.667813
 20
570.293588
 11
653.667813
 21
563.293588
  0
LINE
  8
0
  6
CONTINUOUS
 62
1
 10
107.451868
 20
570.293588
 11
107.451868
 21
563.293588
  0
TEXT
  8
0
  6
CONTINUOUS
 62
3
 10
3.972877
 20
564.871493
 40
4.000000
  1
DO NOT SCALE - IF IN DOUBT ASK !
 50
0.000000
 41
1.000000
 51
0.000000
  7
STANDARD
  0
LINE
  8
0
  6
CONTINUOUS
 62
1
 10
587.525727
 20
13.926050
 11
596.525727
 21
16.337592
  0
LINE
  8
0
  6
CONTINUOUS
 62
1
 10
587.525727
 20
10.249192
 11
596.525727
 21
7.837650
  0
LINE
  8
0
  6
CONTINUOUS
 62
1
 10
587.525727
 20
10.249192
 11
587.525727
 21
13.926050
  0
LINE
  8
0
  6
CONTINUOUS
 62
1
 10
596.525727
 20
16.337592
 11
596.525727
 21
7.837650
  0
CIRCLE
  8
0
  6
CONTINUOUS
 62
1
 10
607.775727
 20
12.087621
 40
4.500000
  0
CIRCLE
  8
0
  6
CONTINUOUS
 62
1
 10
607.775727
 20
12.087621
 40
1.838429
  0
LINE
  8
0
  6
CENTER
 62
3
 10
585.650727
 20
12.087621
 11
598.400727
 21
12.087621
  0
LINE
  8
0
  6
CENTER
 62
3
 10
602.150727
 20
12.087621
 11
613.400727
 21
12.087621
  0
LINE
  8
0
  6
CENTER
 62
3
 10
607.775727
 20
6.462621
 11
607.775727
 21
17.712621
  0
TEXT
  8
0
  6
CONTINUOUS
 62
3
 10
592.291645
 20
1.750190
 40
2.500000
  1
1st ANGLE
 50
0.000000
 41
1.000000
 51
0.000000
  7
STANDARD
  0
LINE
  8
0
  6
CONTINUOUS
 62
1
 10
623.352368
 20
0.293588
 11
623.352368
 21
62.274256
  0
LINE
  8
0
  6
CONTINUOUS
 62
1
 10
623.352368
 20
0.293588
 11
810.896415
 21
0.293588
  0
LINE
  8
0
  6
CONTINUOUS
 62
1
 10
727.208958
 20
33.293588
 11
727.208958
 21
0.293588
  0
TEXT
  8
0
  6
CONTINUOUS
 62
3
 10
727.766174
 20
10.487504
 40
2.500000
  1
DRAWING NO.
 50
0.000000
 41
1.000000
 51
0.000000
  7
STANDARD
  0
TEXT
  8
0
  6
CONTINUOUS
 62
3
 10
800.510911
 20
10.225253
 40
2.500000
  1
REV:
 50
0.000000
 41
1.000000
 51
0.000000
  7
STANDARD
  0
LINE
  8
0
  6
CONTINUOUS
 62
1
 10
798.482467
 20
14.293588
 11
798.482467
 21
0.293588
  0
LINE
  8
0
  6
CONTINUOUS
 62
1
 10
633.753828
 20
71.698567
 11
633.753828
 21
62.274256
  0
LINE
  8
0
  6
CONTINUOUS
 62
1
 10
791.352368
 20
62.274256
 11
727.208958
 21
62.274256
  0
LINE
  8
0
  6
CONTINUOUS
 62
1
 10
810.896415
 20
62.274256
 11
623.352368
 21
62.274256
  0
LINE
  8
0
  6
CONTINUOUS
 62
1
 10
633.753828
 20
77.604799
 11
633.753828
 21
62.274256
  0
LINE
  8
0
  6
CONTINUOUS
 62
1
 10
623.352368
 20
69.274256
 11
810.896415
 21
69.274256
  0
LINE
  8
0
  6
CONTINUOUS
 62
1
 10
793.896415
 20
69.274256
 11
793.896415
 21
62.274256
  0
LINE
  8
0
  6
CONTINUOUS
 62
1
 10
623.352368
 20
62.274256
 11
623.352368
 21
77.604799
  0
TEXT
  8
0
  6
CONTINUOUS
 62
3
 10
718.950436
 20
64.569995
 40
2.500000
  1
REVISION
 50
0.000000
 41
1.000000
 51
0.000000
  7
STANDARD
  0
TEXT
  8
0
  6
CONTINUOUS
 62
3
 10
795.462895
 20
64.646654
 40
2.500000
  1
ECN NO.
 50
0.000000
 41
1.000000
 51
0.000000
  7
STANDARD
  0
LINE
  8
0
  6
CONTINUOUS
 62
1
 10
764.317856
 20
14.293588
 11
764.317856
 21
33.293588
  0
LINE
  8
0
  6
CONTINUOUS
 62
1
 10
623.352368
 20
14.293588
 11
623.352368
 21
0.293588
  0
LINE
  8
0
  6
CONTINUOUS
 62
1
 10
623.352368
 20
16.727379
 11
623.352368
 21
2.727379
  0
LINE
  8
0
  6
CONTINUOUS
 62
1
 10
646.753828
 20
77.604799
 11
646.753828
 21
62.274256
  0
LINE
  8
0
  6
CONTINUOUS
 62
1
 10
670.486609
 20
77.604799
 11
670.486609
 21
62.274256
  0
TEXT
  8
0
  6
CONTINUOUS
 62
3
 10
636.962453
 20
64.332177
 40
2.500000
  1
SIG
 50
0.000000
 41
1.000000
 51
0.000000
  7
STANDARD
  0
TEXT
  8
0
  6
CONTINUOUS
 62
3
 10
624.865220
 20
64.110210
 40
2.500000
  1
REV
 50
0.000000
 41
1.000000
 51
0.000000
  7
STANDARD
  0
TEXT
  8
0
  6
CONTINUOUS
 62
3
 10
653.166086
 20
64.110210
 40
2.500000
  1
DATE
 50
0.000000
 41
1.000000
 51
0.000000
  7
STANDARD
  0
LINE
  8
0
  6
CONTINUOUS
 62
1
 10
810.896415
 20
14.293588
 11
727.208958
 21
14.293588
  0
LINE
  8
0
  6
CONTINUOUS
 62
1
 10
810.896415
 20
0.293588
 11
810.896415
 21
570.293588
  0
LINE
  8
0
  6
CONTINUOUS
 62
1
 10
700.168430
 20
0.293588
 11
700.168430
 21
62.274256
  0
LINE
  8
0
  6
CONTINUOUS
 62
1
 10
810.896415
 20
33.293588
 11
700.168430
 21
33.293588
  0
LINE
  8
0
  6
CONTINUOUS
 62
1
 10
700.168430
 20
22.293588
 11
727.208958
 21
22.293588
  0
LINE
  8
0
  6
CONTINUOUS
 62
1
 10
727.208958
 20
11.293588
 11
700.168430
 21
11.293588
  0
TEXT
  8
0
  6
CONTINUOUS
 62
3
 10
701.350188
 20
29.612613
 40
2.500000
  1
DRAWN:
 50
0.000000
 41
1.000000
 51
0.000000
  7
STANDARD
  0
TEXT
  8
0
  6
CONTINUOUS
 62
3
 10
701.350188
 20
18.637009
 40
2.500000
  1
DATE:
 50
0.000000
 41
1.000000
 51
0.000000
  7
STANDARD
  0
TEXT
  8
0
  6
CONTINUOUS
 62
3
 10
701.111588
 20
7.661404
 40
2.500000
  1
SCALE:
 50
0.000000
 41
1.000000
 51
0.000000
  7
STANDARD
  0
TEXT
  8
0
  6
CONTINUOUS
 62
2
 10
772.768519
 20
28.719478
 40
2.500000
  1
WORKS ORDER NO.
 50
0.000000
 41
1.000000
 51
0.000000
  7
STANDARD
  0
TEXT
  8
0
  6
CONTINUOUS
 62
2
 10
728.589229
 20
28.541629
 40
2.500000
  1
PURCHASE ORDER NO.
 50
0.000000
 41
1.000000
 51
0.000000
  7
STANDARD
  0
LINE
  8
0
  6
CONTINUOUS
 62
1
 10
700.168430
 20
33.293588
 11
623.352368
 21
33.293588
  0
LINE
  8
0
  6
CONTINUOUS
 62
1
 10
700.168430
 20
22.293588
 11
623.352368
 21
22.293588
  0
LINE
  8
0
  6
CONTINUOUS
 62
1
 10
700.168430
 20
11.293588
 11
623.352368
 21
11.293588
  0
TEXT
  8
0
  6
CONTINUOUS
 62
3
 10
624.026517
 20
29.753879
 40
2.500000
  1
MAT'L:
 50
0.000000
 41
1.000000
 51
0.000000
  7
STANDARD
  0
LINE
  8
0
  6
CONTINUOUS
 62
1
 10
661.760399
 20
11.293588
 11
661.760399
 21
22.293588
  0
TEXT
  8
0
  6
CONTINUOUS
 62
3
 10
623.981266
 20
19.055406
 40
2.500000
  1
MAT'L
 50
0.000000
 41
1.000000
 51
0.000000
  7
STANDARD
  0
TEXT
  8
0
  6
CONTINUOUS
 62
3
 10
624.092805
 20
15.374627
 40
2.500000
  1
QTY:
 50
0.000000
 41
1.000000
 51
0.000000
  7
STANDARD
  0
TEXT
  8
0
  6
CONTINUOUS
 62
3
 10
662.350599
 20
15.263088
 40
2.500000
  1
REQ:
 50
0.000000
 41
1.000000
 51
0.000000
  7
STANDARD
  0
TEXT
  8
0
  6
CONTINUOUS
 62
3
 10
662.573677
 20
18.832329
 40
2.500000
  1
NO.
 50
0.000000
 41
1.000000
 51
0.000000
  7
STANDARD
  0
TEXT
  8
0
  6
CONTINUOUS
 62
3
 10
623.981266
 20
7.678453
 40
2.500000
  1
FINISH:
 50
0.000000
 41
1.000000
 51
0.000000
  7
STANDARD
  0
TEXT
  8
0
  6
CONTINUOUS
 62
4
 10
651.498402
 20
48.650078
 40
2.475000
  1
SWANSEA WEST IND PARK
 50
0.000000
 41
1.000000
 51
0.000000
  7
STANDARD
  0
TEXT
  8
0
  6
CONTINUOUS
 62
4
 10
651.517078
 20
44.988659
 40
2.475000
  1
SWANSEA.
 50
0.000000
 41
1.000000
 51
0.000000
  7
STANDARD
  0
TEXT
  8
0
  6
CONTINUOUS
 62
4
 10
651.481443
 20
38.080873
 40
2.300000
  1
TEL: (01792) 561234
 50
0.000000
 41
1.000000
 51
0.000000
  7
STANDARD
  0
TEXT
  8
0
  6
CONTINUOUS
 62
4
 10
651.498402
 20
34.324330
 40
2.300000
  1
FAX: (01792) 561016
 50
0.000000
 41
1.000000
 51
0.000000
  7
STANDARD
  0
TEXT
  8
0
  6
CONTINUOUS
 62
5
 10
651.490386
 20
56.703235
 40
3.000000
  1
MONO EQUIPMENT
 50
0.000000
 41
1.000000
 51
0.000000
  7
STANDARD
  0
TEXT
  8
0
  6
CONTINUOUS
 62
4
 10
651.517078
 20
52.286738
 40
2.475000
  1
QUEENSWAY
 50
0.000000
 41
1.000000
 51
0.000000
  7
STANDARD
  0
TEXT
  8
0
  6
CONTINUOUS
 62
3
 10
701.350188
 20
58.593282
 40
2.500000
  1
TITLE:
 50
0.000000
 41
1.000000
 51
0.000000
  7
STANDARD
  0
TEXT
  8
0
  6
CONTINUOUS
 62
3
 10
681.570971
 20
7.556337
 40
2.500000
  1
DRAWING
 50
0.000000
 41
1.000000
 51
0.000000
  7
STANDARD
  0
TEXT
  8
0
  6
CONTINUOUS
 62
3
 10
681.570971
 20
2.802509
 40
2.500000
  1
SIZE
 50
0.000000
 41
1.000000
 51
0.000000
  7
STANDARD
  0
TEXT
  8
0
  6
CONTINUOUS
 62
3
 10
691.816292
 20
2.802509
 40
3.250000
  1
A1
 50
0.000000
 41
1.000000
 51
0.000000
  7
STANDARD
  0
LINE
  8
0
  6
CONTINUOUS
 62
1
 10
680.669383
 20
0.293588
 11
680.669383
 21
11.293588
  0
TEXT
  8
0
  6
CONTINUOUS
 62
4
 10
651.498402
 20
41.547751
 40
2.475000
  1
SA5 4EB.
 50
0.000000
 41
1.000000
 51
0.000000
  7
STANDARD
  0
INSERT
  2
MONO-LOGO
  8
0
 10
637.541247
 20
48.776781
 41
0.500000
 42
0.500000
 50
0.000000
  0
ENDBLK
  0
BLOCK
  2
MONO-LOGO
  8
0
 70
0
 10
0.0
 20
0.0
 30
0.0
  0
LINE
  8
0
  6
CONTINUOUS
 62
2
 10
-19.875000
 20
-11.812500
 11
19.875000
 21
-11.812500
  0
LINE
  8
0
  6
CONTINUOUS
 62
2
 10
19.875000
 20
-11.812500
 11
19.875000
 21
-9.562500
  0
LINE
  8
0
  6
CONTINUOUS
 62
2
 10
-19.875000
 20
-9.562500
 11
-19.875000
 21
-11.812500
  0
LINE
  8
0
  6
CONTINUOUS
 62
2
 10
-19.875000
 20
-9.562500
 11
-19.875000
 21
-0.562500
  0
LINE
  8
0
  6
CONTINUOUS
 62
2
 10
19.875000
 20
-4.312500
 11
19.875000
 21
-5.812500
  0
LINE
  8
0
  6
CONTINUOUS
 62
2
 10
-19.875000
 20
1.687500
 11
19.875000
 21
1.687500
  0
LINE
  8
0
  6
CONTINUOUS
 62
2
 10
19.875000
 20
1.687500
 11
19.875000
 21
3.562500
  0
LINE
  8
0
  6
CONTINUOUS
 62
2
 10
19.875000
 20
3.562500
 11
-19.875000
 21
3.562500
  0
LINE
  8
0
  6
CONTINUOUS
 62
2
 10
-19.875000
 20
3.562500
 11
-19.875000
 21
1.687500
  0
LINE
  8
0
  6
CONTINUOUS
 62
2
 10
-19.875000
 20
5.812500
 11
19.875000
 21
5.812500
  0
LINE
  8
0
  6
CONTINUOUS
 62
2
 10
19.875000
 20
5.812500
 11
19.875000
 21
7.312500
  0
LINE
  8
0
  6
CONTINUOUS
 62
2
 10
19.875000
 20
7.312500
 11
-19.875000
 21
7.312500
  0
LINE
  8
0
  6
CONTINUOUS
 62
2
 10
-19.875000
 20
7.312500
 11
-19.875000
 21
5.812500
  0
LINE
  8
0
  6
CONTINUOUS
 62
2
 10
-19.875000
 20
9.562500
 11
19.875000
 21
9.562500
  0
LINE
  8
0
  6
CONTINUOUS
 62
2
 10
19.875000
 20
9.562500
 11
19.875000
 21
10.687500
  0
LINE
  8
0
  6
CONTINUOUS
 62
2
 10
19.875000
 20
10.687500
 11
-19.875000
 21
10.687500
  0
LINE
  8
0
  6
CONTINUOUS
 62
2
 10
-19.875000
 20
10.687500
 11
-19.875000
 21
9.562500
  0
LINE
  8
0
  6
CONTINUOUS
 62
2
 10
-19.875000
 20
12.937500
 11
19.875000
 21
12.937500
  0
LINE
  8
0
  6
CONTINUOUS
 62
2
 10
19.875000
 20
12.937500
 11
19.875000
 21
13.687500
  0
LINE
  8
0
  6
CONTINUOUS
 62
2
 10
19.875000
 20
13.687500
 11
-19.875000
 21
13.687500
  0
LINE
  8
0
  6
CONTINUOUS
 62
2
 10
-19.875000
 20
13.687500
 11
-19.875000
 21
12.937500
  0
LINE
  8
0
  6
CONTINUOUS
 62
2
 10
-19.875000
 20
15.937500
 11
19.875000
 21
15.937500
  0
LINE
  8
0
  6
CONTINUOUS
 62
2
 10
19.875000
 20
15.937500
 11
19.875000
 21
16.312500
  0
LINE
  8
0
  6
CONTINUOUS
 62
2
 10
19.875000
 20
16.312500
 11
-19.875000
 21
16.312500
  0
LINE
  8
0
  6
CONTINUOUS
 62
2
 10
-19.875000
 20
16.312500
 11
-19.875000
 21
15.937500
  0
LINE
  8
0
  6
CONTINUOUS
 62
2
 10
-10.125000
 20
-0.562500
 11
-10.125000
 21
-9.562500
  0
LINE
  8
0
  6
CONTINUOUS
 62
2
 10
10.125000
 20
-5.812500
 11
10.125000
 21
-4.312500
  0
LINE
  8
0
  6
CONTINUOUS
 62
2
 10
17.250000
 20
-5.437500
 11
17.250000
 21
-4.687500
  0
LINE
  8
0
  6
CONTINUOUS
 62
2
 10
12.750000
 20
-4.687500
 11
12.750000
 21
-5.437500
  0
ARC
  8
0
  6
CONTINUOUS
 62
2
 10
15.000000
 20
-4.687500
 40
2.250000
 50
0.000000
 51
90.000000
  0
ARC
  8
0
  6
CONTINUOUS
 62
2
 10
15.000000
 20
-4.687500
 40
2.250000
 50
90.000000
 51
180.000000
  0
ARC
  8
0
  6
CONTINUOUS
 62
2
 10
15.000000
 20
-5.437500
 40
2.250000
 50
180.000000
 51
270.000000
  0
ARC
  8
0
  6
CONTINUOUS
 62
2
 10
15.000000
 20
-5.437500
 40
2.250000
 50
270.000000
 51
0.000000
  0
LINE
  8
0
  6
CONTINUOUS
 62
2
 10
13.875000
 20
-0.562500
 11
16.125000
 21
-0.562500
  0
ARC
  8
0
  6
CONTINUOUS
 62
2
 10
16.125000
 20
-4.312500
 40
3.750000
 50
0.000000
 51
90.000000
  0
ARC
  8
0
  6
CONTINUOUS
 62
2
 10
16.125000
 20
-5.812500
 40
3.750000
 50
270.000000
 51
0.000000
  0
ARC
  8
0
  6
CONTINUOUS
 62
2
 10
13.875000
 20
-5.812500
 40
3.750000
 50
180.000000
 51
270.000000
  0
ARC
  8
0
  6
CONTINUOUS
 62
2
 10
13.875000
 20
-4.312500
 40
3.750000
 50
90.000000
 51
180.000000
  0
LINE
  8
0
  6
CONTINUOUS
 62
2
 10
0.208130
 20
-4.293740
 11
0.208130
 21
-5.793740
  0
LINE
  8
0
  6
CONTINUOUS
 62
2
 10
-9.541870
 20
-5.793740
 11
-9.541870
 21
-4.293740
  0
LINE
  8
0
  6
CONTINUOUS
 62
2
 10
-2.416870
 20
-5.418740
 11
-2.416870
 21
-4.668740
  0
LINE
  8
0
  6
CONTINUOUS
 62
2
 10
-6.916870
 20
-4.668740
 11
-6.916870
 21
-5.418740
  0
ARC
  8
0
  6
CONTINUOUS
 62
2
 10
-4.666870
 20
-4.668740
 40
2.250000
 50
0.000000
 51
90.000000
  0
ARC
  8
0
  6
CONTINUOUS
 62
2
 10
-4.666870
 20
-4.668740
 40
2.250000
 50
90.000000
 51
180.000000
  0
ARC
  8
0
  6
CONTINUOUS
 62
2
 10
-4.666870
 20
-5.418740
 40
2.250000
 50
180.000000
 51
270.000000
  0
ARC
  8
0
  6
CONTINUOUS
 62
2
 10
-4.666870
 20
-5.418740
 40
2.250000
 50
270.000000
 51
0.000000
  0
LINE
  8
0
  6
CONTINUOUS
 62
2
 10
-5.791870
 20
-0.543740
 11
-3.541870
 21
-0.543740
  0
ARC
  8
0
  6
CONTINUOUS
 62
2
 10
-3.541870
 20
-4.293740
 40
3.750000
 50
0.000000
 51
90.000000
  0
ARC
  8
0
  6
CONTINUOUS
 62
2
 10
-3.541870
 20
-5.793740
 40
3.750000
 50
270.000000
 51
0.000000
  0
ARC
  8
0
  6
CONTINUOUS
 62
2
 10
-5.791870
 20
-5.793740
 40
3.750000
 50
180.000000
 51
270.000000
  0
LINE
  8
0
  6
CONTINUOUS
 62
2
 10
0.900000
 20
-0.562500
 11
0.900000
 21
-9.562500
  0
LINE
  8
0
  6
CONTINUOUS
 62
2
 10
9.525000
 20
-9.562500
 11
9.525000
 21
-0.562500
  0
LINE
  8
0
  6
CONTINUOUS
 62
2
 10
-17.625000
 20
-3.937500
 11
-17.625000
 21
-9.562500
  0
LINE
  8
0
  6
CONTINUOUS
 62
2
 10
-17.625000
 20
-3.937500
 11
-15.750000
 21
-9.562500
  0
LINE
  8
0
  6
CONTINUOUS
 62
2
 10
-12.375000
 20
-9.562500
 11
-12.375000
 21
-3.937500
  0
LINE
  8
0
  6
CONTINUOUS
 62
2
 10
-14.250000
 20
-9.562500
 11
-12.375000
 21
-3.937500
  0
LINE
  8
0
  6
CONTINUOUS
 62
2
 10
-13.875000
 20
-0.562500
 11
-15.000000
 21
-3.937500
  0
LINE
  8
0
  6
CONTINUOUS
 62
2
 10
-15.000000
 20
-3.937500
 11
-16.125000
 21
-0.562500
  0
LINE
  8
0
  6
CONTINUOUS
 62
2
 10
-10.125000
 20
-0.562500
 11
-13.875000
 21
-0.562500
  0
LINE
  8
0
  6
CONTINUOUS
 62
2
 10
-16.125000
 20
-0.562500
 11
-19.875000
 21
-0.562500
  0
LINE
  8
0
  6
CONTINUOUS
 62
2
 10
-15.750000
 20
-9.562500
 11
-17.625000
 21
-9.562500
  0
LINE
  8
0
  6
CONTINUOUS
 62
2
 10
19.875000
 20
-9.562500
 11
16.125000
 21
-9.562500
  0
LINE
  8
0
  6
CONTINUOUS
 62
2
 10
3.525000
 20
-9.562500
 11
3.525000
 21
-4.687500
  0
LINE
  8
0
  6
CONTINUOUS
 62
2
 10
6.900000
 20
-0.562500
 11
6.900000
 21
-5.437500
  0
LINE
  8
0
  6
CONTINUOUS
 62
2
 10
3.525000
 20
-0.562500
 11
6.900000
 21
-5.437500
  0
LINE
  8
0
  6
CONTINUOUS
 62
2
 10
6.900000
 20
-9.562500
 11
3.525000
 21
-4.687500
  0
LINE
  8
0
  6
CONTINUOUS
 62
2
 10
0.900000
 20
-0.562500
 11
3.525000
 21
-0.562500
  0
LINE
  8
0
  6
CONTINUOUS
 62
2
 10
6.900000
 20
-0.562500
 11
9.525000
 21
-0.562500
  0
LINE
  8
0
  6
CONTINUOUS
 62
2
 10
-3.541870
 20
-9.543740
 11
0.900000
 21
-9.562500
  0
LINE
  8
0
  6
CONTINUOUS
 62
2
 10
3.525000
 20
-9.562500
 11
6.900000
 21
-9.562500
  0
LINE
  8
0
  6
CONTINUOUS
 62
2
 10
9.525000
 20
-9.562500
 11
13.875000
 21
-9.562500
  0
LINE
  8
0
  6
CONTINUOUS
 62
2
 10
-5.791870
 20
-9.562500
 11
-10.125000
 21
-9.562500
  0
LINE
  8
0
  6
CONTINUOUS
 62
2
 10
-12.375000
 20
-9.562500
 11
-14.250000
 21
-9.562500
  0
ARC
  8
0
  6
CONTINUOUS
 62
2
 10
-5.791870
 20
-4.293740
 40
3.750000
 50
90.000000
 51
180.000000
  0
LINE
  8
0
  6
CONTINUOUS
 62
2
 10
-5.791870
 20
-9.543740
 11
-5.791870
 21
-9.562500
  0
LINE
  8
0
  6
CONTINUOUS
 62
2
 10
-19.875000
 20
-11.756886
 11
19.875000
 21
-11.756886
  0
LINE
  8
0
  6
CONTINUOUS
 62
2
 10
-19.875000
 20
-11.456886
 11
19.875000
 21
-11.456886
  0
LINE
  8
0
  6
CONTINUOUS
 62
2
 10
-19.875000
 20
-11.156886
 11
19.875000
 21
-11.156886
  0
LINE
  8
0
  6
CONTINUOUS
 62
2
 10
-19.875000
 20
-10.856886
 11
19.875000
 21
-10.856886
  0
LINE
  8
0
  6
CONTINUOUS
 62
2
 10
-19.875000
 20
-10.556886
 11
19.875000
 21
-10.556886
  0
LINE
  8
0
  6
CONTINUOUS
 62
2
 10
-19.875000
 20
-10.256886
 11
19.875000
 21
-10.256886
  0
LINE
  8
0
  6
CONTINUOUS
 62
2
 10
-19.875000
 20
-9.956886
 11
19.875000
 21
-9.956886
  0
LINE
  8
0
  6
CONTINUOUS
 62
2
 10
-19.875000
 20
-9.656886
 11
19.875000
 21
-9.656886
  0
LINE
  8
0
  6
CONTINUOUS
 62
2
 10
-19.875000
 20
-9.356886
 11
-17.625000
 21
-9.356886
  0
LINE
  8
0
  6
CONTINUOUS
 62
2
 10
-15.818538
 20
-9.356886
 11
-14.181462
 21
-9.356886
  0
LINE
  8
0
  6
CONTINUOUS
 62
2
 10
-12.375000
 20
-9.356886
 11
-10.125000
 21
-9.356886
  0
LINE
  8
0
  6
CONTINUOUS
 62
2
 10
-6.960842
 20
-9.356886
 11
-2.372899
 21
-9.356886
  0
LINE
  8
0
  6
CONTINUOUS
 62
2
 10
0.900000
 20
-9.356886
 11
3.525000
 21
-9.356886
  0
LINE
  8
0
  6
CONTINUOUS
 62
2
 10
6.757652
 20
-9.356886
 11
9.525000
 21
-9.356886
  0
LINE
  8
0
  6
CONTINUOUS
 62
2
 10
12.650325
 20
-9.356886
 11
17.349675
 21
-9.356886
  0
LINE
  8
0
  6
CONTINUOUS
 62
2
 10
-19.875000
 20
-9.056886
 11
-17.625000
 21
-9.056886
  0
LINE
  8
0
  6
CONTINUOUS
 62
2
 10
-15.918538
 20
-9.056886
 11
-14.081462
 21
-9.056886
  0
LINE
  8
0
  6
CONTINUOUS
 62
2
 10
-12.375000
 20
-9.056886
 11
-10.125000
 21
-9.056886
  0
LINE
  8
0
  6
CONTINUOUS
 62
2
 10
-7.639675
 20
-9.056886
 11
-1.694066
 21
-9.056886
  0
LINE
  8
0
  6
CONTINUOUS
 62
2
 10
0.900000
 20
-9.056886
 11
3.525000
 21
-9.056886
  0
LINE
  8
0
  6
CONTINUOUS
 62
2
 10
6.549959
 20
-9.056886
 11
9.525000
 21
-9.056886
  0
LINE
  8
0
  6
CONTINUOUS
 62
2
 10
11.994452
 20
-9.056886
 11
18.005548
 21
-9.056886
  0
LINE
  8
0
  6
CONTINUOUS
 62
2
 10
-19.875000
 20
-8.756886
 11
-17.625000
 21
-8.756886
  0
LINE
  8
0
  6
CONTINUOUS
 62
2
 10
-16.018538
 20
-8.756886
 11
-13.981462
 21
-8.756886
  0
LINE
  8
0
  6
CONTINUOUS
 62
2
 10
-12.375000
 20
-8.756886
 11
-10.125000
 21
-8.756886
  0
LINE
  8
0
  6
CONTINUOUS
 62
2
 10
-8.090189
 20
-8.756886
 11
-1.243552
 21
-8.756886
  0
LINE
  8
0
  6
CONTINUOUS
 62
2
 10
0.900000
 20
-8.756886
 11
3.525000
 21
-8.756886
  0
LINE
  8
0
  6
CONTINUOUS
 62
2
 10
6.342267
 20
-8.756886
 11
9.525000
 21
-8.756886
  0
LINE
  8
0
  6
CONTINUOUS
 62
2
 10
11.552697
 20
-8.756886
 11
18.447303
 21
-8.756886
  0
LINE
  8
0
  6
CONTINUOUS
 62
2
 10
-19.875000
 20
-8.456886
 11
-17.625000
 21
-8.456886
  0
LINE
  8
0
  6
CONTINUOUS
 62
2
 10
-16.118538
 20
-8.456886
 11
-13.881462
 21
-8.456886
  0
LINE
  8
0
  6
CONTINUOUS
 62
2
 10
-12.375000
 20
-8.456886
 11
-10.125000
 21
-8.456886
  0
LINE
  8
0
  6
CONTINUOUS
 62
2
 10
-8.431976
 20
-8.456886
 11
-0.901765
 21
-8.456886
  0
LINE
  8
0
  6
CONTINUOUS
 62
2
 10
0.900000
 20
-8.456886
 11
3.525000
 21
-8.456886
  0
LINE
  8
0
  6
CONTINUOUS
 62
2
 10
6.134575
 20
-8.456886
 11
9.525000
 21
-8.456886
  0
LINE
  8
0
  6
CONTINUOUS
 62
2
 10
11.216105
 20
-8.456886
 11
18.783895
 21
-8.456886
  0
LINE
  8
0
  6
CONTINUOUS
 62
2
 10
-19.875000
 20
-8.156886
 11
-17.625000
 21
-8.156886
  0
LINE
  8
0
  6
CONTINUOUS
 62
2
 10
-16.218538
 20
-8.156886
 11
-13.781462
 21
-8.156886
  0
LINE
  8
0
  6
CONTINUOUS
 62
2
 10
-12.375000
 20
-8.156886
 11
-10.125000
 21
-8.156886
  0
LINE
  8
0
  6
CONTINUOUS
 62
2
 10
-8.703578
 20
-8.156886
 11
-0.630162
 21
-8.156886
  0
LINE
  8
0
  6
CONTINUOUS
 62
2
 10
0.900000
 20
-8.156886
 11
3.525000
 21
-8.156886
  0
LINE
  8
0
  6
CONTINUOUS
 62
2
 10
5.926882
 20
-8.156886
 11
9.525000
 21
-8.156886
  0
LINE
  8
0
  6
CONTINUOUS
 62
2
 10
10.948166
 20
-8.156886
 11
19.051834
 21
-8.156886
  0
LINE
  8
0
  6
CONTINUOUS
 62
2
 10
-19.875000
 20
-7.856886
 11
-17.625000
 21
-7.856886
  0
LINE
  8
0
  6
CONTINUOUS
 62
2
 10
-16.318538
 20
-7.856886
 11
-13.681462
 21
-7.856886
  0
LINE
  8
0
  6
CONTINUOUS
 62
2
 10
-12.375000
 20
-7.856886
 11
-10.125000
 21
-7.856886
  0
LINE
  8
0
  6
CONTINUOUS
 62
2
 10
-8.923313
 20
-7.856886
 11
-0.410428
 21
-7.856886
  0
LINE
  8
0
  6
CONTINUOUS
 62
2
 10
0.900000
 20
-7.856886
 11
3.525000
 21
-7.856886
  0
LINE
  8
0
  6
CONTINUOUS
 62
2
 10
5.719190
 20
-7.856886
 11
9.525000
 21
-7.856886
  0
LINE
  8
0
  6
CONTINUOUS
 62
2
 10
10.731278
 20
-7.856886
 11
19.268722
 21
-7.856886
  0
LINE
  8
0
  6
CONTINUOUS
 62
2
 10
-19.875000
 20
-7.556886
 11
-17.625000
 21
-7.556886
  0
LINE
  8
0
  6
CONTINUOUS
 62
2
 10
-16.418538
 20
-7.556886
 11
-13.581462
 21
-7.556886
  0
LINE
  8
0
  6
CONTINUOUS
 62
2
 10
-12.375000
 20
-7.556886
 11
-10.125000
 21
-7.556886
  0
LINE
  8
0
  6
CONTINUOUS
 62
2
 10
-9.101526
 20
-7.556886
 11
-5.367466
 21
-7.556886
  0
LINE
  8
0
  6
CONTINUOUS
 62
2
 10
-3.966275
 20
-7.556886
 11
-0.232215
 21
-7.556886
  0
LINE
  8
0
  6
CONTINUOUS
 62
2
 10
0.900000
 20
-7.556886
 11
3.525000
 21
-7.556886
  0
LINE
  8
0
  6
CONTINUOUS
 62
2
 10
5.511498
 20
-7.556886
 11
9.525000
 21
-7.556886
  0
LINE
  8
0
  6
CONTINUOUS
 62
2
 10
10.555419
 20
-7.556886
 11
14.244551
 21
-7.556886
  0
LINE
  8
0
  6
CONTINUOUS
 62
2
 10
15.755449
 20
-7.556886
 11
19.444581
 21
-7.556886
  0
LINE
  8
0
  6
CONTINUOUS
 62
2
 10
-19.875000
 20
-7.256886
 11
-17.625000
 21
-7.256886
  0
LINE
  8
0
  6
CONTINUOUS
 62
2
 10
-16.518538
 20
-7.256886
 11
-13.481462
 21
-7.256886
  0
LINE
  8
0
  6
CONTINUOUS
 62
2
 10
-12.375000
 20
-7.256886
 11
-10.125000
 21
-7.256886
  0
LINE
  8
0
  6
CONTINUOUS
 62
2
 10
-9.244653
 20
-7.256886
 11
-5.964453
 21
-7.256886
  0
LINE
  8
0
  6
CONTINUOUS
 62
2
 10
-3.369288
 20
-7.256886
 11
-0.089088
 21
-7.256886
  0
LINE
  8
0
  6
CONTINUOUS
 62
2
 10
0.900000
 20
-7.256886
 11
3.525000
 21
-7.256886
  0
LINE
  8
0
  6
CONTINUOUS
 62
2
 10
5.303806
 20
-7.256886
 11
9.525000
 21
-7.256886
  0
LINE
  8
0
  6
CONTINUOUS
 62
2
 10
10.414328
 20
-7.256886
 11
13.676242
 21
-7.256886
  0
LINE
  8
0
  6
CONTINUOUS
 62
2
 10
16.323758
 20
-7.256886
 11
19.585672
 21
-7.256886
  0
LINE
  8
0
  6
CONTINUOUS
 62
2
 10
-19.875000
 20
-6.956886
 11
-17.625000
 21
-6.956886
  0
LINE
  8
0
  6
CONTINUOUS
 62
2
 10
-16.618538
 20
-6.956886
 11
-13.381462
 21
-6.956886
  0
LINE
  8
0
  6
CONTINUOUS
 62
2
 10
-12.375000
 20
-6.956886
 11
-10.125000
 21
-6.956886
  0
LINE
  8
0
  6
CONTINUOUS
 62
2
 10
-9.356922
 20
-6.956886
 11
-6.309006
 21
-6.956886
  0
LINE
  8
0
  6
CONTINUOUS
 62
2
 10
-3.024735
 20
-6.956886
 11
0.023181
 21
-6.956886
  0
LINE
  8
0
  6
CONTINUOUS
 62
2
 10
0.900000
 20
-6.956886
 11
3.525000
 21
-6.956886
  0
LINE
  8
0
  6
CONTINUOUS
 62
2
 10
5.096113
 20
-6.956886
 11
9.525000
 21
-6.956886
  0
LINE
  8
0
  6
CONTINUOUS
 62
2
 10
10.303882
 20
-6.956886
 11
13.340492
 21
-6.956886
  0
LINE
  8
0
  6
CONTINUOUS
 62
2
 10
16.659508
 20
-6.956886
 11
19.696118
 21
-6.956886
  0
LINE
  8
0
  6
CONTINUOUS
 62
2
 10
-19.875000
 20
-6.656886
 11
-17.625000
 21
-6.656886
  0
LINE
  8
0
  6
CONTINUOUS
 62
2
 10
-16.718538
 20
-6.656886
 11
-13.281462
 21
-6.656886
  0
LINE
  8
0
  6
CONTINUOUS
 62
2
 10
-12.375000
 20
-6.656886
 11
-10.125000
 21
-6.656886
  0
LINE
  8
0
  6
CONTINUOUS
 62
2
 10
-9.441183
 20
-6.656886
 11
-6.545566
 21
-6.656886
  0
LINE
  8
0
  6
CONTINUOUS
 62
2
 10
-2.788175
 20
-6.656886
 11
0.107442
 21
-6.656886
  0
LINE
  8
0
  6
CONTINUOUS
 62
2
 10
0.900000
 20
-6.656886
 11
3.525000
 21
-6.656886
  0
LINE
  8
0
  6
CONTINUOUS
 62
2
 10
4.888421
 20
-6.656886
 11
9.525000
 21
-6.656886
  0
LINE
  8
0
  6
CONTINUOUS
 62
2
 10
10.221302
 20
-6.656886
 11
13.109075
 21
-6.656886
  0
LINE
  8
0
  6
CONTINUOUS
 62
2
 10
16.890925
 20
-6.656886
 11
19.778698
 21
-6.656886
  0
LINE
  8
0
  6
CONTINUOUS
 62
2
 10
-19.875000
 20
-6.356886
 11
-17.625000
 21
-6.356886
  0
LINE
  8
0
  6
CONTINUOUS
 62
2
 10
-16.818538
 20
-6.356886
 11
-13.181462
 21
-6.356886
  0
LINE
  8
0
  6
CONTINUOUS
 62
2
 10
-12.375000
 20
-6.356886
 11
-10.125000
 21
-6.356886
  0
LINE
  8
0
  6
CONTINUOUS
 62
2
 10
-9.499345
 20
-6.356886
 11
-6.711958
 21
-6.356886
  0
LINE
  8
0
  6
CONTINUOUS
 62
2
 10
-2.621783
 20
-6.356886
 11
0.165604
 21
-6.356886
  0
LINE
  8
0
  6
CONTINUOUS
 62
2
 10
0.900000
 20
-6.356886
 11
3.525000
 21
-6.356886
  0
LINE
  8
0
  6
CONTINUOUS
 62
2
 10
4.680729
 20
-6.356886
 11
9.525000
 21
-6.356886
  0
LINE
  8
0
  6
CONTINUOUS
 62
2
 10
10.164725
 20
-6.356886
 11
12.946411
 21
-6.356886
  0
LINE
  8
0
  6
CONTINUOUS
 62
2
 10
17.053589
 20
-6.356886
 11
19.835275
 21
-6.356886
  0
LINE
  8
0
  6
CONTINUOUS
 62
2
 10
-19.875000
 20
-6.056886
 11
-17.625000
 21
-6.056886
  0
LINE
  8
0
  6
CONTINUOUS
 62
2
 10
-16.918538
 20
-6.056886
 11
-13.081462
 21
-6.056886
  0
LINE
  8
0
  6
CONTINUOUS
 62
2
 10
-12.375000
 20
-6.056886
 11
-10.125000
 21
-6.056886
  0
LINE
  8
0
  6
CONTINUOUS
 62
2
 10
-9.532626
 20
-6.056886
 11
-6.824478
 21
-6.056886
  0
LINE
  8
0
  6
CONTINUOUS
 62
2
 10
-2.509263
 20
-6.056886
 11
0.198885
 21
-6.056886
  0
LINE
  8
0
  6
CONTINUOUS
 62
2
 10
0.900000
 20
-6.056886
 11
3.525000
 21
-6.056886
  0
LINE
  8
0
  6
CONTINUOUS
 62
2
 10
4.473036
 20
-6.056886
 11
9.525000
 21
-6.056886
  0
LINE
  8
0
  6
CONTINUOUS
 62
2
 10
10.132972
 20
-6.056886
 11
12.836932
 21
-6.056886
  0
LINE
  8
0
  6
CONTINUOUS
 62
2
 10
17.163068
 20
-6.056886
 11
19.867028
 21
-6.056886
  0
LINE
  8
0
  6
CONTINUOUS
 62
2
 10
-19.875000
 20
-5.756886
 11
-17.625000
 21
-5.756886
  0
LINE
  8
0
  6
CONTINUOUS
 62
2
 10
-17.018538
 20
-5.756886
 11
-12.981462
 21
-5.756886
  0
LINE
  8
0
  6
CONTINUOUS
 62
2
 10
-12.375000
 20
-5.756886
 11
-10.125000
 21
-5.756886
  0
LINE
  8
0
  6
CONTINUOUS
 62
2
 10
-9.541870
 20
-5.756886
 11
-6.891316
 21
-5.756886
  0
LINE
  8
0
  6
CONTINUOUS
 62
2
 10
-2.442425
 20
-5.756886
 11
0.208130
 21
-5.756886
  0
LINE
  8
0
  6
CONTINUOUS
 62
2
 10
0.900000
 20
-5.756886
 11
3.525000
 21
-5.756886
  0
LINE
  8
0
  6
CONTINUOUS
 62
2
 10
4.265344
 20
-5.756886
 11
9.525000
 21
-5.756886
  0
LINE
  8
0
  6
CONTINUOUS
 62
2
 10
10.125000
 20
-5.756886
 11
12.772784
 21
-5.756886
  0
LINE
  8
0
  6
CONTINUOUS
 62
2
 10
17.227216
 20
-5.756886
 11
19.875000
 21
-5.756886
  0
LINE
  8
0
  6
CONTINUOUS
 62
2
 10
-19.875000
 20
-5.456886
 11
-17.625000
 21
-5.456886
  0
LINE
  8
0
  6
CONTINUOUS
 62
2
 10
-17.118538
 20
-5.456886
 11
-12.881462
 21
-5.456886
  0
LINE
  8
0
  6
CONTINUOUS
 62
2
 10
-12.375000
 20
-5.456886
 11
-10.125000
 21
-5.456886
  0
LINE
  8
0
  6
CONTINUOUS
 62
2
 10
-9.541870
 20
-5.456886
 11
-6.916547
 21
-5.456886
  0
LINE
  8
0
  6
CONTINUOUS
 62
2
 10
-2.417194
 20
-5.456886
 11
0.208130
 21
-5.456886
  0
LINE
  8
0
  6
CONTINUOUS
 62
2
 10
0.900000
 20
-5.456886
 11
3.525000
 21
-5.456886
  0
LINE
  8
0
  6
CONTINUOUS
 62
2
 10
4.057652
 20
-5.456886
 11
9.525000
 21
-5.456886
  0
LINE
  8
0
  6
CONTINUOUS
 62
2
 10
10.125000
 20
-5.456886
 11
12.750084
 21
-5.456886
  0
LINE
  8
0
  6
CONTINUOUS
 62
2
 10
17.249916
 20
-5.456886
 11
19.875000
 21
-5.456886
  0
LINE
  8
0
  6
CONTINUOUS
 62
2
 10
-19.875000
 20
-5.156886
 11
-17.625000
 21
-5.156886
  0
LINE
  8
0
  6
CONTINUOUS
 62
2
 10
-17.218538
 20
-5.156886
 11
-12.781462
 21
-5.156886
  0
LINE
  8
0
  6
CONTINUOUS
 62
2
 10
-12.375000
 20
-5.156886
 11
-10.125000
 21
-5.156886
  0
LINE
  8
0
  6
CONTINUOUS
 62
2
 10
-9.541870
 20
-5.156886
 11
-6.916870
 21
-5.156886
  0
LINE
  8
0
  6
CONTINUOUS
 62
2
 10
-2.416870
 20
-5.156886
 11
0.208130
 21
-5.156886
  0
LINE
  8
0
  6
CONTINUOUS
 62
2
 10
0.900000
 20
-5.156886
 11
3.525000
 21
-5.156886
  0
LINE
  8
0
  6
CONTINUOUS
 62
2
 10
3.849959
 20
-5.156886
 11
6.705729
 21
-5.156886
  0
LINE
  8
0
  6
CONTINUOUS
 62
2
 10
6.900000
 20
-5.156886
 11
9.525000
 21
-5.156886
  0
LINE
  8
0
  6
CONTINUOUS
 62
2
 10
10.125000
 20
-5.156886
 11
12.750000
 21
-5.156886
  0
LINE
  8
0
  6
CONTINUOUS
 62
2
 10
17.250000
 20
-5.156886
 11
19.875000
 21
-5.156886
  0
LINE
  8
0
  6
CONTINUOUS
 62
2
 10
-19.875000
 20
-4.856886
 11
-17.625000
 21
-4.856886
  0
LINE
  8
0
  6
CONTINUOUS
 62
2
 10
-17.318538
 20
-4.856886
 11
-12.681462
 21
-4.856886
  0
LINE
  8
0
  6
CONTINUOUS
 62
2
 10
-12.375000
 20
-4.856886
 11
-10.125000
 21
-4.856886
  0
LINE
  8
0
  6
CONTINUOUS
 62
2
 10
-9.541870
 20
-4.856886
 11
-6.916870
 21
-4.856886
  0
LINE
  8
0
  6
CONTINUOUS
 62
2
 10
-2.416870
 20
-4.856886
 11
0.208130
 21
-4.856886
  0
LINE
  8
0
  6
CONTINUOUS
 62
2
 10
0.900000
 20
-4.856886
 11
3.525000
 21
-4.856886
  0
LINE
  8
0
  6
CONTINUOUS
 62
2
 10
3.642267
 20
-4.856886
 11
6.498036
 21
-4.856886
  0
LINE
  8
0
  6
CONTINUOUS
 62
2
 10
6.900000
 20
-4.856886
 11
9.525000
 21
-4.856886
  0
LINE
  8
0
  6
CONTINUOUS
 62
2
 10
10.125000
 20
-4.856886
 11
12.750000
 21
-4.856886
  0
LINE
  8
0
  6
CONTINUOUS
 62
2
 10
17.250000
 20
-4.856886
 11
19.875000
 21
-4.856886
  0
LINE
  8
0
  6
CONTINUOUS
 62
2
 10
-19.875000
 20
-4.556886
 11
-17.625000
 21
-4.556886
  0
LINE
  8
0
  6
CONTINUOUS
 62
2
 10
-17.418538
 20
-4.556886
 11
-12.581462
 21
-4.556886
  0
LINE
  8
0
  6
CONTINUOUS
 62
2
 10
-12.375000
 20
-4.556886
 11
-10.125000
 21
-4.556886
  0
LINE
  8
0
  6
CONTINUOUS
 62
2
 10
-9.541870
 20
-4.556886
 11
-6.914088
 21
-4.556886
  0
LINE
  8
0
  6
CONTINUOUS
 62
2
 10
-2.419652
 20
-4.556886
 11
0.208130
 21
-4.556886
  0
LINE
  8
0
  6
CONTINUOUS
 62
2
 10
0.900000
 20
-4.556886
 11
6.290344
 21
-4.556886
  0
LINE
  8
0
  6
CONTINUOUS
 62
2
 10
6.900000
 20
-4.556886
 11
9.525000
 21
-4.556886
  0
LINE
  8
0
  6
CONTINUOUS
 62
2
 10
10.125000
 20
-4.556886
 11
12.753794
 21
-4.556886
  0
LINE
  8
0
  6
CONTINUOUS
 62
2
 10
17.246206
 20
-4.556886
 11
19.875000
 21
-4.556886
  0
LINE
  8
0
  6
CONTINUOUS
 62
2
 10
-19.875000
 20
-4.256886
 11
-17.625000
 21
-4.256886
  0
LINE
  8
0
  6
CONTINUOUS
 62
2
 10
-17.518538
 20
-4.256886
 11
-12.481462
 21
-4.256886
  0
LINE
  8
0
  6
CONTINUOUS
 62
2
 10
-12.375000
 20
-4.256886
 11
-10.125000
 21
-4.256886
  0
LINE
  8
0
  6
CONTINUOUS
 62
2
 10
-9.541689
 20
-4.256886
 11
-6.878855
 21
-4.256886
  0
LINE
  8
0
  6
CONTINUOUS
 62
2
 10
-2.454886
 20
-4.256886
 11
0.207948
 21
-4.256886
  0
LINE
  8
0
  6
CONTINUOUS
 62
2
 10
0.900000
 20
-4.256886
 11
6.082652
 21
-4.256886
  0
LINE
  8
0
  6
CONTINUOUS
 62
2
 10
6.900000
 20
-4.256886
 11
9.525000
 21
-4.256886
  0
LINE
  8
0
  6
CONTINUOUS
 62
2
 10
10.125412
 20
-4.256886
 11
12.791591
 21
-4.256886
  0
LINE
  8
0
  6
CONTINUOUS
 62
2
 10
17.208409
 20
-4.256886
 11
19.874588
 21
-4.256886
  0
LINE
  8
0
  6
CONTINUOUS
 62
2
 10
-19.875000
 20
-3.956886
 11
-17.625000
 21
-3.956886
  0
LINE
  8
0
  6
CONTINUOUS
 62
2
 10
-17.618538
 20
-3.956886
 11
-12.381462
 21
-3.956886
  0
LINE
  8
0
  6
CONTINUOUS
 62
2
 10
-12.375000
 20
-3.956886
 11
-10.125000
 21
-3.956886
  0
LINE
  8
0
  6
CONTINUOUS
 62
2
 10
-9.526710
 20
-3.956886
 11
-6.801294
 21
-3.956886
  0
LINE
  8
0
  6
CONTINUOUS
 62
2
 10
-2.532447
 20
-3.956886
 11
0.192969
 21
-3.956886
  0
LINE
  8
0
  6
CONTINUOUS
 62
2
 10
0.900000
 20
-3.956886
 11
5.874959
 21
-3.956886
  0
LINE
  8
0
  6
CONTINUOUS
 62
2
 10
6.900000
 20
-3.956886
 11
9.525000
 21
-3.956886
  0
LINE
  8
0
  6
CONTINUOUS
 62
2
 10
10.141900
 20
-3.956886
 11
12.871925
 21
-3.956886
  0
LINE
  8
0
  6
CONTINUOUS
 62
2
 10
17.128075
 20
-3.956886
 11
19.858100
 21
-3.956886
  0
LINE
  8
0
  6
CONTINUOUS
 62
2
 10
-19.875000
 20
-3.656886
 11
-15.093538
 21
-3.656886
  0
LINE
  8
0
  6
CONTINUOUS
 62
2
 10
-14.906462
 20
-3.656886
 11
-10.125000
 21
-3.656886
  0
LINE
  8
0
  6
CONTINUOUS
 62
2
 10
-9.487397
 20
-3.656886
 11
-6.676510
 21
-3.656886
  0
LINE
  8
0
  6
CONTINUOUS
 62
2
 10
-2.657231
 20
-3.656886
 11
0.153656
 21
-3.656886
  0
LINE
  8
0
  6
CONTINUOUS
 62
2
 10
0.900000
 20
-3.656886
 11
5.667267
 21
-3.656886
  0
LINE
  8
0
  6
CONTINUOUS
 62
2
 10
6.900000
 20
-3.656886
 11
9.525000
 21
-3.656886
  0
LINE
  8
0
  6
CONTINUOUS
 62
2
 10
10.182755
 20
-3.656886
 11
12.999916
 21
-3.656886
  0
LINE
  8
0
  6
CONTINUOUS
 62
2
 10
17.000084
 20
-3.656886
 11
19.817245
 21
-3.656886
  0
LINE
  8
0
  6
CONTINUOUS
 62
2
 10
-19.875000
 20
-3.356886
 11
-15.193538
 21
-3.356886
  0
LINE
  8
0
  6
CONTINUOUS
 62
2
 10
-14.806462
 20
-3.356886
 11
-10.125000
 21
-3.356886
  0
LINE
  8
0
  6
CONTINUOUS
 62
2
 10
-9.422959
 20
-3.356886
 11
-6.494858
 21
-3.356886
  0
LINE
  8
0
  6
CONTINUOUS
 62
2
 10
-2.838883
 20
-3.356886
 11
0.089218
 21
-3.356886
  0
LINE
  8
0
  6
CONTINUOUS
 62
2
 10
0.900000
 20
-3.356886
 11
5.459575
 21
-3.356886
  0
LINE
  8
0
  6
CONTINUOUS
 62
2
 10
6.900000
 20
-3.356886
 11
9.525000
 21
-3.356886
  0
LINE
  8
0
  6
CONTINUOUS
 62
2
 10
10.248803
 20
-3.356886
 11
13.185622
 21
-3.356886
  0
LINE
  8
0
  6
CONTINUOUS
 62
2
 10
16.814378
 20
-3.356886
 11
19.751197
 21
-3.356886
  0
LINE
  8
0
  6
CONTINUOUS
 62
2
 10
-19.875000
 20
-3.056886
 11
-15.293538
 21
-3.056886
  0
LINE
  8
0
  6
CONTINUOUS
 62
2
 10
-14.706462
 20
-3.056886
 11
-10.125000
 21
-3.056886
  0
LINE
  8
0
  6
CONTINUOUS
 62
2
 10
-9.332025
 20
-3.056886
 11
-6.236719
 21
-3.056886
  0
LINE
  8
0
  6
CONTINUOUS
 62
2
 10
-3.097022
 20
-3.056886
 11
-0.001716
 21
-3.056886
  0
LINE
  8
0
  6
CONTINUOUS
 62
2
 10
0.900000
 20
-3.056886
 11
5.251882
 21
-3.056886
  0
LINE
  8
0
  6
CONTINUOUS
 62
2
 10
6.900000
 20
-3.056886
 11
9.525000
 21
-3.056886
  0
LINE
  8
0
  6
CONTINUOUS
 62
2
 10
10.341456
 20
-3.056886
 11
13.449646
 21
-3.056886
  0
LINE
  8
0
  6
CONTINUOUS
 62
2
 10
16.550354
 20
-3.056886
 11
19.658544
 21
-3.056886
  0
LINE
  8
0
  6
CONTINUOUS
 62
2
 10
-19.875000
 20
-2.756886
 11
-15.393538
 21
-2.756886
  0
LINE
  8
0
  6
CONTINUOUS
 62
2
 10
-14.606462
 20
-2.756886
 11
-10.125000
 21
-2.756886
  0
LINE
  8
0
  6
CONTINUOUS
 62
2
 10
-9.212481
 20
-2.756886
 11
-5.853172
 21
-2.756886
  0
LINE
  8
0
  6
CONTINUOUS
 62
2
 10
-3.480568
 20
-2.756886
 11
-0.121260
 21
-2.756886
  0
LINE
  8
0
  6
CONTINUOUS
 62
2
 10
0.900000
 20
-2.756886
 11
5.044190
 21
-2.756886
  0
LINE
  8
0
  6
CONTINUOUS
 62
2
 10
6.900000
 20
-2.756886
 11
9.525000
 21
-2.756886
  0
LINE
  8
0
  6
CONTINUOUS
 62
2
 10
10.462880
 20
-2.756886
 11
13.844479
 21
-2.756886
  0
LINE
  8
0
  6
CONTINUOUS
 62
2
 10
16.155521
 20
-2.756886
 11
19.537120
 21
-2.756886
  0
LINE
  8
0
  6
CONTINUOUS
 62
2
 10
-19.875000
 20
-2.456886
 11
-15.493538
 21
-2.456886
  0
LINE
  8
0
  6
CONTINUOUS
 62
2
 10
-14.506462
 20
-2.456886
 11
-10.125000
 21
-2.456886
  0
LINE
  8
0
  6
CONTINUOUS
 62
2
 10
-9.061192
 20
-2.456886
 11
-5.079423
 21
-2.456886
  0
LINE
  8
0
  6
CONTINUOUS
 62
2
 10
-4.254318
 20
-2.456886
 11
-0.272549
 21
-2.456886
  0
LINE
  8
0
  6
CONTINUOUS
 62
2
 10
0.900000
 20
-2.456886
 11
4.836498
 21
-2.456886
  0
LINE
  8
0
  6
CONTINUOUS
 62
2
 10
6.900000
 20
-2.456886
 11
9.525000
 21
-2.456886
  0
LINE
  8
0
  6
CONTINUOUS
 62
2
 10
10.616289
 20
-2.456886
 11
14.705279
 21
-2.456886
  0
LINE
  8
0
  6
CONTINUOUS
 62
2
 10
15.294721
 20
-2.456886
 11
19.383711
 21
-2.456886
  0
LINE
  8
0
  6
CONTINUOUS
 62
2
 10
-19.875000
 20
-2.156886
 11
-15.593538
 21
-2.156886
  0
LINE
  8
0
  6
CONTINUOUS
 62
2
 10
-14.406462
 20
-2.156886
 11
-10.125000
 21
-2.156886
  0
LINE
  8
0
  6
CONTINUOUS
 62
2
 10
-8.873486
 20
-2.156886
 11
-0.460255
 21
-2.156886
  0
LINE
  8
0
  6
CONTINUOUS
 62
2
 10
0.900000
 20
-2.156886
 11
4.628806
 21
-2.156886
  0
LINE
  8
0
  6
CONTINUOUS
 62
2
 10
6.900000
 20
-2.156886
 11
9.525000
 21
-2.156886
  0
LINE
  8
0
  6
CONTINUOUS
 62
2
 10
10.806478
 20
-2.156886
 11
19.193522
 21
-2.156886
  0
LINE
  8
0
  6
CONTINUOUS
 62
2
 10
-19.875000
 20
-1.856886
 11
-15.693538
 21
-1.856886
  0
LINE
  8
0
  6
CONTINUOUS
 62
2
 10
-14.306462
 20
-1.856886
 11
-10.125000
 21
-1.856886
  0
LINE
  8
0
  6
CONTINUOUS
 62
2
 10
-8.642176
 20
-1.856886
 11
-0.691565
 21
-1.856886
  0
LINE
  8
0
  6
CONTINUOUS
 62
2
 10
0.900000
 20
-1.856886
 11
4.421113
 21
-1.856886
  0
LINE
  8
0
  6
CONTINUOUS
 62
2
 10
6.900000
 20
-1.856886
 11
9.525000
 21
-1.856886
  0
LINE
  8
0
  6
CONTINUOUS
 62
2
 10
11.040841
 20
-1.856886
 11
18.959159
 21
-1.856886
  0
LINE
  8
0
  6
CONTINUOUS
 62
2
 10
-19.875000
 20
-1.556886
 11
-15.793538
 21
-1.556886
  0
LINE
  8
0
  6
CONTINUOUS
 62
2
 10
-14.206462
 20
-1.556886
 11
-10.125000
 21
-1.556886
  0
LINE
  8
0
  6
CONTINUOUS
 62
2
 10
-8.355487
 20
-1.556886
 11
-0.978254
 21
-1.556886
  0
LINE
  8
0
  6
CONTINUOUS
 62
2
 10
0.900000
 20
-1.556886
 11
4.213421
 21
-1.556886
  0
LINE
  8
0
  6
CONTINUOUS
 62
2
 10
6.900000
 20
-1.556886
 11
9.525000
 21
-1.556886
  0
LINE
  8
0
  6
CONTINUOUS
 62
2
 10
11.331559
 20
-1.556886
 11
18.668441
 21
-1.556886
  0
LINE
  8
0
  6
CONTINUOUS
 62
2
 10
-19.875000
 20
-1.256886
 11
-15.893538
 21
-1.256886
  0
LINE
  8
0
  6
CONTINUOUS
 62
2
 10
-14.106462
 20
-1.256886
 11
-10.125000
 21
-1.256886
  0
LINE
  8
0
  6
CONTINUOUS
 62
2
 10
-7.991874
 20
-1.256886
 11
-1.341867
 21
-1.256886
  0
LINE
  8
0
  6
CONTINUOUS
 62
2
 10
0.900000
 20
-1.256886
 11
4.005729
 21
-1.256886
  0
LINE
  8
0
  6
CONTINUOUS
 62
2
 10
6.900000
 20
-1.256886
 11
9.525000
 21
-1.256886
  0
LINE
  8
0
  6
CONTINUOUS
 62
2
 10
11.701127
 20
-1.256886
 11
18.298873
 21
-1.256886
  0
LINE
  8
0
  6
CONTINUOUS
 62
2
 10
-19.875000
 20
-0.956886
 11
-15.993538
 21
-0.956886
  0
LINE
  8
0
  6
CONTINUOUS
 62
2
 10
-14.006462
 20
-0.956886
 11
-10.125000
 21
-0.956886
  0
LINE
  8
0
  6
CONTINUOUS
 62
2
 10
-7.502982
 20
-0.956886
 11
-1.830759
 21
-0.956886
  0
LINE
  8
0
  6
CONTINUOUS
 62
2
 10
0.900000
 20
-0.956886
 11
3.798036
 21
-0.956886
  0
LINE
  8
0
  6
CONTINUOUS
 62
2
 10
6.900000
 20
-0.956886
 11
9.525000
 21
-0.956886
  0
LINE
  8
0
  6
CONTINUOUS
 62
2
 10
12.200977
 20
-0.956886
 11
17.799023
 21
-0.956886
  0
LINE
  8
0
  6
CONTINUOUS
 62
2
 10
-19.875000
 20
-0.656886
 11
-16.093538
 21
-0.656886
  0
LINE
  8
0
  6
CONTINUOUS
 62
2
 10
-13.906462
 20
-0.656886
 11
-10.125000
 21
-0.656886
  0
LINE
  8
0
  6
CONTINUOUS
 62
2
 10
-6.706086
 20
-0.656886
 11
-2.627655
 21
-0.656886
  0
LINE
  8
0
  6
CONTINUOUS
 62
2
 10
0.900000
 20
-0.656886
 11
3.590344
 21
-0.656886
  0
LINE
  8
0
  6
CONTINUOUS
 62
2
 10
6.900000
 20
-0.656886
 11
9.525000
 21
-0.656886
  0
LINE
  8
0
  6
CONTINUOUS
 62
2
 10
13.038947
 20
-0.656886
 11
16.961053
 21
-0.656886
  0
LINE
  8
0
  6
CONTINUOUS
 62
2
 10
-19.875000
 20
1.743114
 11
19.875000
 21
1.743114
  0
LINE
  8
0
  6
CONTINUOUS
 62
2
 10
-19.875000
 20
2.043114
 11
19.875000
 21
2.043114
  0
LINE
  8
0
  6
CONTINUOUS
 62
2
 10
-19.875000
 20
2.343114
 11
19.875000
 21
2.343114
  0
LINE
  8
0
  6
CONTINUOUS
 62
2
 10
-19.875000
 20
2.643114
 11
19.875000
 21
2.643114
  0
LINE
  8
0
  6
CONTINUOUS
 62
2
 10
-19.875000
 20
2.943114
 11
19.875000
 21
2.943114
  0
LINE
  8
0
  6
CONTINUOUS
 62
2
 10
-19.875000
 20
3.243114
 11
19.875000
 21
3.243114
  0
LINE
  8
0
  6
CONTINUOUS
 62
2
 10
-19.875000
 20
3.543114
 11
19.875000
 21
3.543114
  0
LINE
  8
0
  6
CONTINUOUS
 62
2
 10
-19.875000
 20
5.943114
 11
19.875000
 21
5.943114
  0
LINE
  8
0
  6
CONTINUOUS
 62
2
 10
-19.875000
 20
6.243114
 11
19.875000
 21
6.243114
  0
LINE
  8
0
  6
CONTINUOUS
 62
2
 10
-19.875000
 20
6.543114
 11
19.875000
 21
6.543114
  0
LINE
  8
0
  6
CONTINUOUS
 62
2
 10
-19.875000
 20
6.843114
 11
19.875000
 21
6.843114
  0
LINE
  8
0
  6
CONTINUOUS
 62
2
 10
-19.875000
 20
7.143114
 11
19.875000
 21
7.143114
  0
LINE
  8
0
  6
CONTINUOUS
 62
2
 10
-19.875000
 20
9.843114
 11
19.875000
 21
9.843114
  0
LINE
  8
0
  6
CONTINUOUS
 62
2
 10
-19.875000
 20
10.143114
 11
19.875000
 21
10.143114
  0
LINE
  8
0
  6
CONTINUOUS
 62
2
 10
-19.875000
 20
10.443114
 11
19.875000
 21
10.443114
  0
LINE
  8
0
  6
CONTINUOUS
 62
2
 10
-19.875000
 20
13.143114
 11
19.875000
 21
13.143114
  0
LINE
  8
0
  6
CONTINUOUS
 62
2
 10
-19.875000
 20
13.443114
 11
19.875000
 21
13.443114
  0
LINE
  8
0
  6
CONTINUOUS
 62
2
 10
-19.875000
 20
16.143114
 11
19.875000
 21
16.143114
  0
ENDBLK
  0
BLOCK
  2
*D1
  8
0
 70
1
 10
0.0
 20
0.0
  0
LINE
  8
0
  6
CONTINUOUS
 62
1
 10
3422.802901
 20
4195.186793
 11
3422.802901
 21
4409.603050
  0
LINE
  8
0
  6
CONTINUOUS
 62
1
 10
3422.802901
 20
4379.603050
 11
4458.802901
 21
4379.603050
  0
LINE
  8
0
  6
CONTINUOUS
 62
1
 10
3422.802901
 20
4379.603050
 11
3457.802901
 21
4374.603050
  0
LINE
  8
0
  6
CONTINUOUS
 62
1
 10
3457.802901
 20
4374.603050
 11
3457.802901
 21
4382.103050
  0
LINE
  8
0
  6
CONTINUOUS
 62
1
 10
3457.802901
 20
4382.103050
 11
3437.802901
 21
4379.603050
  0
LINE
  8
0
  6
CONTINUOUS
 62
1
 10
3437.802901
 20
4379.603050
 11
3457.802901
 21
4377.103050
  0
LINE
  8
0
  6
CONTINUOUS
 62
1
 10
3457.802901
 20
4377.103050
 11
3457.802901
 21
4384.603050
  0
LINE
  8
0
  6
CONTINUOUS
 62
1
 10
3457.802901
 20
4384.603050
 11
3422.802901
 21
4379.603050
  0
LINE
  8
0
  6
CONTINUOUS
 62
1
 10
4458.802901
 20
4379.603050
 11
4423.802901
 21
4384.603050
  0
LINE
  8
0
  6
CONTINUOUS
 62
1
 10
4423.802901
 20
4384.603050
 11
4423.802901
 21
4377.103050
  0
LINE
  8
0
  6
CONTINUOUS
 62
1
 10
4423.802901
 20
4377.103050
 11
4443.802901
 21
4379.603050
  0
LINE
  8
0
  6
CONTINUOUS
 62
1
 10
4443.802901
 20
4379.603050
 11
4423.802901
 21
4382.103050
  0
LINE
  8
0
  6
CONTINUOUS
 62
1
 10
4423.802901
 20
4382.103050
 11
4423.802901
 21
4374.603050
  0
LINE
  8
0
  6
CONTINUOUS
 62
1
 10
4423.802901
 20
4374.603050
 11
4458.802901
 21
4379.603050
  0
LINE
  8
0
  6
CONTINUOUS
 62
1
 10
4458.802901
 20
4409.603050
 11
4458.802901
 21
4195.186793
  0
TEXT
  8
0
  6
CONTINUOUS
 62
1
 10
3862.052901
 20
4397.103050
 40
35.000000
  1
1036.0
 50
0.000000
 41
1.000000
 51
0.000000
  7
STANDARD
  0
ENDBLK
  0
BLOCK
  2
*D2
  8
0
 70
1
 10
0.0
 20
0.0
  0
LINE
  8
0
  6
CONTINUOUS
 62
1
 10
3525.552901
 20
4223.399189
 11
3187.322932
 21
4223.399189
  0
LINE
  8
0
  6
CONTINUOUS
 62
1
 10
3217.322932
 20
4223.399189
 11
3217.322932
 21
2909.713185
  0
LINE
  8
0
  6
CONTINUOUS
 62
1
 10
3217.322932
 20
4223.399189
 11
3212.322932
 21
4188.399189
  0
LINE
  8
0
  6
CONTINUOUS
 62
1
 10
3212.322932
 20
4188.399189
 11
3219.822932
 21
4188.399189
  0
LINE
  8
0
  6
CONTINUOUS
 62
1
 10
3219.822932
 20
4188.399189
 11
3217.322932
 21
4208.399189
  0
LINE
  8
0
  6
CONTINUOUS
 62
1
 10
3217.322932
 20
4208.399189
 11
3214.822932
 21
4188.399189
  0
LINE
  8
0
  6
CONTINUOUS
 62
1
 10
3214.822932
 20
4188.399189
 11
3222.322932
 21
4188.399189
  0
LINE
  8
0
  6
CONTINUOUS
 62
1
 10
3222.322932
 20
4188.399189
 11
3217.322932
 21
4223.399189
  0
LINE
  8
0
  6
CONTINUOUS
 62
1
 10
3217.322932
 20
2909.713185
 11
3222.322932
 21
2944.713185
  0
LINE
  8
0
  6
CONTINUOUS
 62
1
 10
3222.322932
 20
2944.713185
 11
3214.822932
 21
2944.713185
  0
LINE
  8
0
  6
CONTINUOUS
 62
1
 10
3214.822932
 20
2944.713185
 11
3217.322932
 21
2924.713185
  0
LINE
  8
0
  6
CONTINUOUS
 62
1
 10
3217.322932
 20
2924.713185
 11
3219.822932
 21
2944.713185
  0
LINE
  8
0
  6
CONTINUOUS
 62
1
 10
3219.822932
 20
2944.713185
 11
3212.322932
 21
2944.713185
  0
LINE
  8
0
  6
CONTINUOUS
 62
1
 10
3212.322932
 20
2944.713185
 11
3217.322932
 21
2909.713185
  0
LINE
  8
0
  6
CONTINUOUS
 62
1
 10
3187.322932
 20
2909.713185
 11
3574.602901
 21
2909.713185
  0
TEXT
  8
0
  6
CONTINUOUS
 62
1
 10
3199.822932
 20
3487.806187
 40
35.000000
  1
1313.7
 50
90.000000
 41
1.000000
 51
0.000000
  7
STANDARD
  0
ENDBLK
  0
ENDSEC
  0
SECTION
  2
ENTITIES
  0
LINE
  8
0
  6
CONTINUOUS
 62
3
 10
4350.802901
 20
3242.816793
 11
4422.802901
 21
3242.816793
  0
LINE
  8
0
  6
CONTINUOUS
 62
3
 10
4357.802901
 20
3245.816793
 11
4422.802901
 21
3245.816793
  0
LINE
  8
0
  6
CONTINUOUS
 62
3
 10
4427.802901
 20
3245.816793
 11
4427.802901
 21
3242.816793
  0
LINE
  8
0
  6
CONTINUOUS
 62
3
 10
4422.802901
 20
3245.816793
 11
4427.802901
 21
3245.816793
  0
LINE
  8
0
  6
CONTINUOUS
 62
3
 10
4345.802901
 20
3245.816793
 11
4345.802901
 21
3242.816793
  0
LINE
  8
0
  6
CONTINUOUS
 62
3
 10
4345.802901
 20
3242.816793
 11
4350.802901
 21
3242.816793
  0
LINE
  8
0
  6
CONTINUOUS
 62
3
 10
3543.802901
 20
3477.815715
 11
3542.802901
 21
3477.815715
  0
LINE
  8
0
  6
CONTINUOUS
 62
3
 10
4332.102901
 20
3411.669793
 11
4332.302901
 21
3411.669793
  0
LINE
  8
0
  6
CONTINUOUS
 62
3
 10
4360.802901
 20
3513.380793
 11
4367.202901
 21
3513.380793
  0
LINE
  8
0
  6
CONTINUOUS
 62
3
 10
4390.802901
 20
4171.686793
 11
4390.802901
 21
4168.686793
  0
LINE
  8
0
  6
CONTINUOUS
 62
3
 10
3510.802901
 20
4171.686793
 11
3510.802901
 21
4168.686793
  0
LINE
  8
0
  6
CONTINUOUS
 62
3
 10
3550.802901
 20
4171.686793
 11
4304.052901
 21
4171.686793
  0
LINE
  8
0
  6
CONTINUOUS
 62
3
 10
4350.802901
 20
4170.686793
 11
4350.802901
 21
4171.686793
  0
LINE
  8
0
  6
CONTINUOUS
 62
3
 10
4381.302901
 20
4168.686793
 11
4357.802901
 21
4168.686793
  0
LINE
  8
0
  6
CONTINUOUS
 62
3
 10
3543.802901
 20
4168.686793
 11
3520.302901
 21
4168.686793
  0
LINE
  8
0
  6
CONTINUOUS
 62
3
 10
3550.802901
 20
4170.686793
 11
3550.802901
 21
4171.686793
  0
ARC
  8
0
  6
CONTINUOUS
 62
3
 10
3547.802901
 20
4173.686793
 40
3.000000
 50
0.000000
 51
90.000000
  0
LINE
  8
0
  6
CONTINUOUS
 62
3
 10
3547.802901
 20
4176.686793
 11
3513.802901
 21
4176.686793
  0
ARC
  8
0
  6
CONTINUOUS
 62
3
 10
3513.802901
 20
4173.686793
 40
3.000000
 50
90.000000
 51
180.000000
  0
LINE
  8
0
  6
CONTINUOUS
 62
3
 10
3510.802901
 20
4171.686793
 11
3510.802901
 21
4173.686793
  0
LINE
  8
0
  6
CONTINUOUS
 62
3
 10
3550.802901
 20
4171.686793
 11
3550.802901
 21
4173.686793
  0
ARC
  8
0
  6
CONTINUOUS
 62
3
 10
4387.802901
 20
4173.686793
 40
3.000000
 50
0.000000
 51
90.000000
  0
LINE
  8
0
  6
CONTINUOUS
 62
3
 10
4387.802901
 20
4176.686793
 11
4353.802901
 21
4176.686793
  0
ARC
  8
0
  6
CONTINUOUS
 62
3
 10
4353.802901
 20
4173.686793
 40
3.000000
 50
90.000000
 51
180.000000
  0
LINE
  8
0
  6
CONTINUOUS
 62
3
 10
4350.802901
 20
4171.686793
 11
4350.802901
 21
4173.686793
  0
LINE
  8
0
  6
CONTINUOUS
 62
3
 10
4390.802901
 20
4171.686793
 11
4390.802901
 21
4173.686793
  0
LINE
  8
0
  6
CONTINUOUS
 62
3
 10
4357.802901
 20
3826.094997
 11
4357.802901
 21
3815.488395
  0
LINE
  8
0
  6
CONTINUOUS
 62
3
 10
4357.802901
 20
3250.210191
 11
4357.802901
 21
3245.816793
  0
LINE
  8
0
  6
CONTINUOUS
 62
3
 10
4357.802901
 20
4170.686793
 11
4357.802901
 21
4155.686793
  0
LINE
  8
0
  6
CONTINUOUS
 62
3
 10
4345.802901
 20
3815.488395
 11
4345.802901
 21
3826.094997
  0
LINE
  8
0
  6
CONTINUOUS
 62
3
 10
4357.802901
 20
3250.210191
 11
4345.802901
 21
3250.210191
  0
LINE
  8
0
  6
CONTINUOUS
 62
3
 10
4345.802901
 20
4155.686793
 11
4345.802901
 21
4170.686793
  0
LINE
  8
0
  6
CONTINUOUS
 62
3
 10
4345.802901
 20
3245.816793
 11
4345.802901
 21
3250.210191
  0
LINE
  8
0
  6
CONTINUOUS
 62
3
 10
4345.802901
 20
3245.816793
 11
4357.802901
 21
3245.816793
  0
LINE
  8
0
  6
CONTINUOUS
 62
3
 10
4357.802901
 20
4170.686793
 11
4345.802901
 21
4170.686793
  0
LINE
  8
0
  6
CONTINUOUS
 62
3
 10
4357.802901
 20
3815.488395
 11
4357.802901
 21
3511.196723
  0
LINE
  8
0
  6
CONTINUOUS
 62
3
 10
4357.802901
 20
3363.264500
 11
4357.802901
 21
3250.210191
  0
LINE
  8
0
  6
CONTINUOUS
 62
3
 10
4345.802901
 20
3250.210191
 11
4345.802901
 21
3815.488395
  0
LINE
  8
0
  6
CONTINUOUS
 62
3
 10
4357.802901
 20
3826.094997
 11
4357.802901
 21
4155.686793
  0
LINE
  8
0
  6
CONTINUOUS
 62
3
 10
4345.802901
 20
4155.686793
 11
4345.802901
 21
3826.094997
  0
LINE
  8
0
  6
CONTINUOUS
 62
3
 10
3555.802901
 20
3826.094997
 11
3555.802901
 21
3815.488395
  0
LINE
  8
0
  6
CONTINUOUS
 62
3
 10
3555.802901
 20
3467.169590
 11
3555.802901
 21
3477.776191
  0
LINE
  8
0
  6
CONTINUOUS
 62
3
 10
3555.802901
 20
3303.200997
 11
3555.802901
 21
3292.594395
  0
LINE
  8
0
  6
CONTINUOUS
 62
3
 10
3555.802901
 20
3250.210191
 11
3555.802901
 21
3245.816793
  0
LINE
  8
0
  6
CONTINUOUS
 62
3
 10
3555.802901
 20
4170.686793
 11
3555.802901
 21
4155.686793
  0
LINE
  8
0
  6
CONTINUOUS
 62
3
 10
3543.802901
 20
3815.488395
 11
3543.802901
 21
3826.094997
  0
LINE
  8
0
  6
CONTINUOUS
 62
3
 10
3543.802901
 20
4155.686793
 11
3543.802901
 21
4170.686793
  0
LINE
  8
0
  6
CONTINUOUS
 62
3
 10
3543.802901
 20
3245.816793
 11
3543.802901
 21
3250.210191
  0
LINE
  8
0
  6
CONTINUOUS
 62
3
 10
3543.802901
 20
3292.594395
 11
3543.802901
 21
3303.200997
  0
LINE
  8
0
  6
CONTINUOUS
 62
3
 10
3543.802901
 20
3477.776191
 11
3543.802901
 21
3467.169590
  0
LINE
  8
0
  6
CONTINUOUS
 62
3
 10
3543.802901
 20
3245.816793
 11
3555.802901
 21
3245.816793
  0
LINE
  8
0
  6
CONTINUOUS
 62
3
 10
3555.802901
 20
4170.686793
 11
3543.802901
 21
4170.686793
  0
LINE
  8
0
  6
CONTINUOUS
 62
3
 10
3555.802901
 20
3815.488395
 11
3555.802901
 21
3477.776191
  0
LINE
  8
0
  6
CONTINUOUS
 62
3
 10
3555.802901
 20
3467.169590
 11
3555.802901
 21
3303.200997
  0
LINE
  8
0
  6
CONTINUOUS
 62
3
 10
3555.802901
 20
3292.594395
 11
3555.802901
 21
3250.210191
  0
LINE
  8
0
  6
CONTINUOUS
 62
3
 10
3543.802901
 20
3250.210191
 11
3543.802901
 21
3292.594395
  0
LINE
  8
0
  6
CONTINUOUS
 62
3
 10
3543.802901
 20
3303.200997
 11
3543.802901
 21
3467.169590
  0
LINE
  8
0
  6
CONTINUOUS
 62
3
 10
3543.802901
 20
3477.776191
 11
3543.802901
 21
3815.488395
  0
LINE
  8
0
  6
CONTINUOUS
 62
3
 10
3555.802901
 20
3826.094997
 11
3555.802901
 21
4155.686793
  0
LINE
  8
0
  6
CONTINUOUS
 62
3
 10
3543.802901
 20
4155.686793
 11
3543.802901
 21
3826.094997
  0
POLYLINE
  8
0
  6
CONTINUOUS
 62
3
 66
1
 70
2
  0
VERTEX
  8
0
 10
4385.291860
 20
3363.562344
 70
0
 42
0.009328
  0
VERTEX
  8
0
 10
4385.293096
 20
3363.521313
 70
0
  0
SEQEND
  0
LINE
  8
0
  6
CONTINUOUS
 62
3
 10
4383.897368
 20
3378.267788
 11
4385.291860
 21
3363.562344
  0
POLYLINE
  8
0
  6
CONTINUOUS
 62
3
 66
1
 70
2
  0
VERTEX
  8
0
 10
4383.897368
 20
3378.267788
 70
0
 42
0.020775
  0
VERTEX
  8
0
 10
4383.902192
 20
3378.176779
 70
0
  0
SEQEND
  0
LINE
  8
0
  6
CONTINUOUS
 62
3
 10
4383.896453
 20
3378.280850
 11
4383.897323
 21
3378.271671
  0
LINE
  8
0
  6
CONTINUOUS
 62
3
 10
4383.903170
 20
3377.696016
 11
4383.896453
 21
3378.280850
  0
LINE
  8
0
  6
CONTINUOUS
 62
3
 10
4383.947436
 20
3377.699657
 11
4383.903170
 21
3377.696016
  0
LINE
  8
0
  6
CONTINUOUS
 62
3
 10
4385.292685
 20
3363.557048
 11
4385.299403
 21
3362.972215
  0
LINE
  8
0
  6
CONTINUOUS
 62
3
 10
4385.291815
 20
3363.566227
 11
4385.292685
 21
3363.557048
  0
LINE
  8
0
  6
CONTINUOUS
 62
3
 10
4383.902191
 20
3378.176780
 11
4385.293255
 21
3363.507494
  0
LINE
  8
0
  6
CONTINUOUS
 62
3
 10
4383.897323
 20
3378.271671
 11
4383.897368
 21
3378.267788
  0
LINE
  8
0
  6
CONTINUOUS
 62
3
 10
4385.291860
 20
3363.562344
 11
4385.291815
 21
3363.566227
  0
LINE
  8
0
  6
CONTINUOUS
 62
3
 10
4385.299403
 20
3362.972215
 11
4385.677997
 21
3358.979799
  0
LINE
  8
0
  6
CONTINUOUS
 62
3
 10
4383.419601
 20
3382.795438
 11
4383.903170
 21
3377.696016
  0
LINE
  8
0
  6
CONTINUOUS
 62
3
 10
4388.666581
 20
3366.873653
 11
4387.212023
 21
3382.795438
  0
LINE
  8
0
  6
CONTINUOUS
 62
3
 10
4388.666581
 20
3366.873653
 11
4388.709420
 21
3366.551658
  0
LINE
  8
0
  6
CONTINUOUS
 62
3
 10
4388.709420
 20
3366.551658
 11
4388.778607
 21
3366.234383
  0
LINE
  8
0
  6
CONTINUOUS
 62
3
 10
4388.778607
 20
3366.234383
 11
4388.873382
 21
3365.923603
  0
LINE
  8
0
  6
CONTINUOUS
 62
3
 10
4388.873382
 20
3365.923603
 11
4388.992984
 21
3365.621093
  0
LINE
  8
0
  6
CONTINUOUS
 62
3
 10
4388.992984
 20
3365.621093
 11
4389.136649
 21
3365.328629
  0
LINE
  8
0
  6
CONTINUOUS
 62
3
 10
4389.136649
 20
3365.328629
 11
4389.303617
 21
3365.047985
  0
LINE
  8
0
  6
CONTINUOUS
 62
3
 10
4389.303617
 20
3365.047985
 11
4389.493127
 21
3364.780937
  0
LINE
  8
0
  6
CONTINUOUS
 62
3
 10
4389.493127
 20
3364.780937
 11
4389.704323
 21
3364.529220
  0
LINE
  8
0
  6
CONTINUOUS
 62
3
 10
4389.704323
 20
3364.529220
 11
4389.817559
 21
3364.409550
  0
LINE
  8
0
  6
CONTINUOUS
 62
3
 10
4389.817559
 20
3364.409550
 11
4389.935624
 21
3364.294226
  0
LINE
  8
0
  6
CONTINUOUS
 62
3
 10
4389.935624
 20
3364.294226
 11
4390.058336
 21
3364.183420
  0
LINE
  8
0
  6
CONTINUOUS
 62
3
 10
4390.058336
 20
3364.183420
 11
4390.185512
 21
3364.077305
  0
LINE
  8
0
  6
CONTINUOUS
 62
3
 10
4390.185512
 20
3364.077305
 11
4390.316979
 21
3363.976069
  0
LINE
  8
0
  6
CONTINUOUS
 62
3
 10
4390.316979
 20
3363.976069
 11
4390.452531
 21
3363.879864
  0
LINE
  8
0
  6
CONTINUOUS
 62
3
 10
4390.452531
 20
3363.879864
 11
4390.591940
 21
3363.788804
  0
LINE
  8
0
  6
CONTINUOUS
 62
3
 10
4390.591940
 20
3363.788804
 11
4390.734978
 21
3363.703003
  0
LINE
  8
0
  6
CONTINUOUS
 62
3
 10
4390.734978
 20
3363.703003
 11
4390.881418
 21
3363.622575
  0
LINE
  8
0
  6
CONTINUOUS
 62
3
 10
4390.881418
 20
3363.622575
 11
4391.031033
 21
3363.547634
  0
LINE
  8
0
  6
CONTINUOUS
 62
3
 10
4391.031033
 20
3363.547634
 11
4391.183593
 21
3363.478295
  0
LINE
  8
0
  6
CONTINUOUS
 62
3
 10
4391.183593
 20
3363.478295
 11
4391.338872
 21
3363.414671
  0
LINE
  8
0
  6
CONTINUOUS
 62
3
 10
4391.338872
 20
3363.414671
 11
4391.496643
 21
3363.356877
  0
LINE
  8
0
  6
CONTINUOUS
 62
3
 10
4391.496643
 20
3363.356877
 11
4391.656676
 21
3363.305026
  0
LINE
  8
0
  6
CONTINUOUS
 62
3
 10
4391.656676
 20
3363.305026
 11
4391.818727
 21
3363.259222
  0
LINE
  8
0
  6
CONTINUOUS
 62
3
 10
4391.818727
 20
3363.259222
 11
4391.982530
 21
3363.219507
  0
LINE
  8
0
  6
CONTINUOUS
 62
3
 10
4391.982530
 20
3363.219507
 11
4392.147825
 21
3363.185902
  0
LINE
  8
0
  6
CONTINUOUS
 62
3
 10
4392.147825
 20
3363.185902
 11
4392.314355
 21
3363.158432
  0
LINE
  8
0
  6
CONTINUOUS
 62
3
 10
4392.314355
 20
3363.158432
 11
4392.398002
 21
3363.147005
  0
LINE
  8
0
  6
CONTINUOUS
 62
3
 10
4392.398002
 20
3363.147005
 11
4392.481861
 21
3363.137119
  0
LINE
  8
0
  6
CONTINUOUS
 62
3
 10
4392.481861
 20
3363.137119
 11
4392.650085
 21
3363.121986
  0
LINE
  8
0
  6
CONTINUOUS
 62
3
 10
4392.650085
 20
3363.121986
 11
4392.734385
 21
3363.116744
  0
LINE
  8
0
  6
CONTINUOUS
 62
3
 10
4392.734385
 20
3363.116744
 11
4392.818768
 21
3363.113055
  0
LINE
  8
0
  6
CONTINUOUS
 62
3
 10
4392.818768
 20
3363.113055
 11
4392.987652
 21
3363.110350
  0
LINE
  8
0
  6
CONTINUOUS
 62
3
 10
4392.987652
 20
3363.110350
 11
4393.072082
 21
3363.111339
  0
LINE
  8
0
  6
CONTINUOUS
 62
3
 10
4393.072082
 20
3363.111339
 11
4393.156471
 21
3363.113893
  0
LINE
  8
0
  6
CONTINUOUS
 62
3
 10
4393.156471
 20
3363.113893
 11
4393.324982
 21
3363.123707
  0
LINE
  8
0
  6
CONTINUOUS
 62
3
 10
4390.801509
 20
3353.084849
 11
4390.392117
 21
3353.214439
  0
LINE
  8
0
  6
CONTINUOUS
 62
3
 10
4390.392117
 20
3353.214439
 11
4389.991765
 21
3353.366587
  0
LINE
  8
0
  6
CONTINUOUS
 62
3
 10
4389.991765
 20
3353.366587
 11
4389.601781
 21
3353.540593
  0
LINE
  8
0
  6
CONTINUOUS
 62
3
 10
4389.601781
 20
3353.540593
 11
4389.223492
 21
3353.735758
  0
LINE
  8
0
  6
CONTINUOUS
 62
3
 10
4389.223492
 20
3353.735758
 11
4388.858225
 21
3353.951382
  0
LINE
  8
0
  6
CONTINUOUS
 62
3
 10
4388.858225
 20
3353.951382
 11
4388.507308
 21
3354.186765
  0
LINE
  8
0
  6
CONTINUOUS
 62
3
 10
4388.507308
 20
3354.186765
 11
4388.172064
 21
3354.441198
  0
LINE
  8
0
  6
CONTINUOUS
 62
3
 10
4388.172064
 20
3354.441198
 11
4387.853655
 21
3354.713730
  0
LINE
  8
0
  6
CONTINUOUS
 62
3
 10
4387.853655
 20
3354.713730
 11
4387.701090
 21
3354.856445
  0
LINE
  8
0
  6
CONTINUOUS
 62
3
 10
4387.701090
 20
3354.856445
 11
4387.553128
 21
3355.003287
  0
LINE
  8
0
  6
CONTINUOUS
 62
3
 10
4387.553128
 20
3355.003287
 11
4387.409901
 21
3355.154127
  0
LINE
  8
0
  6
CONTINUOUS
 62
3
 10
4387.409901
 20
3355.154127
 11
4387.271542
 21
3355.308835
  0
LINE
  8
0
  6
CONTINUOUS
 62
3
 10
4387.271542
 20
3355.308835
 11
4387.138235
 21
3355.467301
  0
LINE
  8
0
  6
CONTINUOUS
 62
3
 10
4387.138235
 20
3355.467301
 11
4387.010156
 21
3355.629402
  0
LINE
  8
0
  6
CONTINUOUS
 62
3
 10
4387.010156
 20
3355.629402
 11
4386.887376
 21
3355.794974
  0
LINE
  8
0
  6
CONTINUOUS
 62
3
 10
4386.887376
 20
3355.794974
 11
4386.769964
 21
3355.963850
  0
LINE
  8
0
  6
CONTINUOUS
 62
3
 10
4386.769964
 20
3355.963850
 11
4386.657989
 21
3356.135865
  0
LINE
  8
0
  6
CONTINUOUS
 62
3
 10
4386.657989
 20
3356.135865
 11
4386.551521
 21
3356.310852
  0
LINE
  8
0
  6
CONTINUOUS
 62
3
 10
4386.551521
 20
3356.310852
 11
4386.450628
 21
3356.488645
  0
LINE
  8
0
  6
CONTINUOUS
 62
3
 10
4386.450628
 20
3356.488645
 11
4386.355381
 21
3356.669078
  0
LINE
  8
0
  6
CONTINUOUS
 62
3
 10
4386.355381
 20
3356.669078
 11
4386.265848
 21
3356.851986
  0
LINE
  8
0
  6
CONTINUOUS
 62
3
 10
4386.265848
 20
3356.851986
 11
4386.182100
 21
3357.037202
  0
LINE
  8
0
  6
CONTINUOUS
 62
3
 10
4386.182100
 20
3357.037202
 11
4386.104205
 21
3357.224560
  0
LINE
  8
0
  6
CONTINUOUS
 62
3
 10
4386.104205
 20
3357.224560
 11
4386.032232
 21
3357.413895
  0
LINE
  8
0
  6
CONTINUOUS
 62
3
 10
4386.032232
 20
3357.413895
 11
4385.966252
 21
3357.605040
  0
LINE
  8
0
  6
CONTINUOUS
 62
3
 10
4385.966252
 20
3357.605040
 11
4385.906333
 21
3357.797829
  0
LINE
  8
0
  6
CONTINUOUS
 62
3
 10
4385.906333
 20
3357.797829
 11
4385.878669
 21
3357.894788
  0
LINE
  8
0
  6
CONTINUOUS
 62
3
 10
4385.878669
 20
3357.894788
 11
4385.852546
 21
3357.992097
  0
LINE
  8
0
  6
CONTINUOUS
 62
3
 10
4385.852546
 20
3357.992097
 11
4385.804958
 21
3358.187676
  0
LINE
  8
0
  6
CONTINUOUS
 62
3
 10
4385.804958
 20
3358.187676
 11
4385.783511
 21
3358.285907
  0
LINE
  8
0
  6
CONTINUOUS
 62
3
 10
4385.783511
 20
3358.285907
 11
4385.763640
 21
3358.384403
  0
LINE
  8
0
  6
CONTINUOUS
 62
3
 10
4385.763640
 20
3358.384403
 11
4385.728661
 21
3358.582109
  0
LINE
  8
0
  6
CONTINUOUS
 62
3
 10
4385.728661
 20
3358.582109
 11
4385.713572
 21
3358.681268
  0
LINE
  8
0
  6
CONTINUOUS
 62
3
 10
4385.713572
 20
3358.681268
 11
4385.700092
 21
3358.780619
  0
LINE
  8
0
  6
CONTINUOUS
 62
3
 10
4385.700092
 20
3358.780619
 11
4385.677998
 21
3358.979789
  0
POLYLINE
  8
0
  6
CONTINUOUS
 62
3
 66
1
 70
2
  0
VERTEX
  8
0
 10
4410.952170
 20
3360.943022
 70
0
 42
0.281414
  0
VERTEX
  8
0
 10
4399.999494
 20
3363.672686
 70
0
  0
SEQEND
  0
LINE
  8
0
  6
CONTINUOUS
 62
3
 10
4410.952169
 20
3360.943022
 11
4411.157800
 21
3358.733362
  0
LINE
  8
0
  6
CONTINUOUS
 62
3
 10
4393.324988
 20
3363.123708
 11
4399.999493
 21
3363.672691
  0
LINE
  8
0
  6
CONTINUOUS
 62
3
 10
4431.280444
 20
3358.564629
 11
4429.885952
 21
3374.433488
  0
POLYLINE
  8
0
  6
CONTINUOUS
 62
3
 66
1
 70
2
  0
VERTEX
  8
0
 10
4435.583260
 20
3359.395721
 70
0
 42
0.100334
  0
VERTEX
  8
0
 10
4431.280444
 20
3358.564630
 70
0
  0
SEQEND
  0
LINE
  8
0
  6
CONTINUOUS
 62
3
 10
4429.885907
 20
3374.432416
 11
4429.885037
 21
3374.442321
  0
LINE
  8
0
  6
CONTINUOUS
 62
3
 10
4429.885037
 20
3374.442321
 11
4429.891755
 21
3374.603801
  0
LINE
  8
0
  6
CONTINUOUS
 62
3
 10
4431.282201
 20
3358.576041
 11
4431.281269
 21
3358.553652
  0
LINE
  8
0
  6
CONTINUOUS
 62
3
 10
4431.281269
 20
3358.553652
 11
4431.280399
 21
3358.563557
  0
LINE
  8
0
  6
CONTINUOUS
 62
3
 10
4435.583260
 20
3359.395720
 11
4441.261569
 21
3359.886287
  0
LINE
  8
0
  6
CONTINUOUS
 62
3
 10
4441.261569
 20
3359.886287
 11
4441.274950
 21
3360.207925
  0
LINE
  8
0
  6
CONTINUOUS
 62
3
 10
4429.885952
 20
3374.433488
 11
4429.885907
 21
3374.432416
  0
LINE
  8
0
  6
CONTINUOUS
 62
3
 10
4431.280399
 20
3358.563557
 11
4431.280444
 21
3358.564629
  0
LINE
  8
0
  6
CONTINUOUS
 62
3
 10
4428.677997
 20
3350.608391
 11
4426.406624
 21
3376.034510
  0
LINE
  8
0
  6
CONTINUOUS
 62
3
 10
4429.766030
 20
3376.034510
 11
4429.891755
 21
3374.603801
  0
LINE
  8
0
  6
CONTINUOUS
 62
3
 10
4431.297644
 20
3358.605241
 11
4431.666581
 21
3354.406858
  0
LINE
  8
0
  6
CONTINUOUS
 62
3
 10
4431.666581
 20
3350.866584
 11
4431.666581
 21
3354.406858
  0
LINE
  8
0
  6
CONTINUOUS
 62
3
 10
4436.324988
 20
3347.041428
 11
4436.324988
 21
3350.512179
  0
LINE
  8
0
  6
CONTINUOUS
 62
3
 10
4431.666581
 20
3350.866584
 11
4431.709420
 21
3350.539629
  0
LINE
  8
0
  6
CONTINUOUS
 62
3
 10
4431.709420
 20
3350.539629
 11
4431.778607
 21
3350.216774
  0
LINE
  8
0
  6
CONTINUOUS
 62
3
 10
4431.778607
 20
3350.216774
 11
4431.873382
 21
3349.899928
  0
LINE
  8
0
  6
CONTINUOUS
 62
3
 10
4431.873382
 20
3349.899928
 11
4431.992984
 21
3349.591003
  0
LINE
  8
0
  6
CONTINUOUS
 62
3
 10
4431.992984
 20
3349.591003
 11
4432.136649
 21
3349.291907
  0
LINE
  8
0
  6
CONTINUOUS
 62
3
 10
4432.136649
 20
3349.291907
 11
4432.303617
 21
3349.004550
  0
LINE
  8
0
  6
CONTINUOUS
 62
3
 10
4432.303617
 20
3349.004550
 11
4432.493127
 21
3348.730842
  0
LINE
  8
0
  6
CONTINUOUS
 62
3
 10
4432.493127
 20
3348.730842
 11
4432.704323
 21
3348.472651
  0
LINE
  8
0
  6
CONTINUOUS
 62
3
 10
4432.704323
 20
3348.472651
 11
4432.817559
 21
3348.349849
  0
LINE
  8
0
  6
CONTINUOUS
 62
3
 10
4432.817559
 20
3348.349849
 11
4432.935624
 21
3348.231482
  0
LINE
  8
0
  6
CONTINUOUS
 62
3
 10
4432.935624
 20
3348.231482
 11
4433.058336
 21
3348.117738
  0
LINE
  8
0
  6
CONTINUOUS
 62
3
 10
4433.058336
 20
3348.117738
 11
4433.185512
 21
3348.008801
  0
LINE
  8
0
  6
CONTINUOUS
 62
3
 10
4433.185512
 20
3348.008801
 11
4433.316979
 21
3347.904877
  0
LINE
  8
0
  6
CONTINUOUS
 62
3
 10
4433.316979
 20
3347.904877
 11
4433.452531
 21
3347.806130
  0
LINE
  8
0
  6
CONTINUOUS
 62
3
 10
4433.452531
 20
3347.806130
 11
4433.591940
 21
3347.712685
  0
LINE
  8
0
  6
CONTINUOUS
 62
3
 10
4433.591940
 20
3347.712685
 11
4433.734978
 21
3347.624668
  0
LINE
  8
0
  6
CONTINUOUS
 62
3
 10
4433.734978
 20
3347.624668
 11
4433.881418
 21
3347.542204
  0
LINE
  8
0
  6
CONTINUOUS
 62
3
 10
4433.881418
 20
3347.542204
 11
4434.031033
 21
3347.465419
  0
LINE
  8
0
  6
CONTINUOUS
 62
3
 10
4434.031033
 20
3347.465419
 11
4434.183593
 21
3347.394439
  0
LINE
  8
0
  6
CONTINUOUS
 62
3
 10
4434.183593
 20
3347.394439
 11
4434.338872
 21
3347.329388
  0
LINE
  8
0
  6
CONTINUOUS
 62
3
 10
4434.338872
 20
3347.329388
 11
4434.496643
 21
3347.270393
  0
LINE
  8
0
  6
CONTINUOUS
 62
3
 10
4434.496643
 20
3347.270393
 11
4434.656676
 21
3347.217579
  0
LINE
  8
0
  6
CONTINUOUS
 62
3
 10
4434.656676
 20
3347.217579
 11
4434.818727
 21
3347.171060
  0
LINE
  8
0
  6
CONTINUOUS
 62
3
 10
4434.818727
 20
3347.171060
 11
4434.982530
 21
3347.130884
  0
LINE
  8
0
  6
CONTINUOUS
 62
3
 10
4434.982530
 20
3347.130884
 11
4435.147825
 21
3347.097083
  0
LINE
  8
0
  6
CONTINUOUS
 62
3
 10
4435.147825
 20
3347.097083
 11
4435.314355
 21
3347.069685
  0
LINE
  8
0
  6
CONTINUOUS
 62
3
 10
4435.314355
 20
3347.069685
 11
4435.398002
 21
3347.058396
  0
LINE
  8
0
  6
CONTINUOUS
 62
3
 10
4435.398002
 20
3347.058396
 11
4435.481861
 21
3347.048720
  0
LINE
  8
0
  6
CONTINUOUS
 62
3
 10
4435.481861
 20
3347.048720
 11
4435.650085
 21
3347.034217
  0
LINE
  8
0
  6
CONTINUOUS
 62
3
 10
4435.650085
 20
3347.034217
 11
4435.734385
 21
3347.029399
  0
LINE
  8
0
  6
CONTINUOUS
 62
3
 10
4435.734385
 20
3347.029399
 11
4435.818768
 21
3347.026207
  0
LINE
  8
0
  6
CONTINUOUS
 62
3
 10
4435.818768
 20
3347.026207
 11
4435.987652
 21
3347.024719
  0
LINE
  8
0
  6
CONTINUOUS
 62
3
 10
4435.987652
 20
3347.024719
 11
4436.072082
 21
3347.026430
  0
LINE
  8
0
  6
CONTINUOUS
 62
3
 10
4436.072082
 20
3347.026430
 11
4436.156471
 21
3347.029783
  0
LINE
  8
0
  6
CONTINUOUS
 62
3
 10
4436.156471
 20
3347.029783
 11
4436.324982
 21
3347.041427
  0
LINE
  8
0
  6
CONTINUOUS
 62
3
 10
4430.330684
 20
3350.751172
 11
4431.666581
 21
3350.866584
  0
LINE
  8
0
  6
CONTINUOUS
 62
3
 10
4428.677997
 20
3350.608391
 11
4430.330684
 21
3350.751172
  0
LINE
  8
0
  6
CONTINUOUS
 62
3
 10
4436.586456
 20
3344.090269
 11
4436.013768
 21
3344.062475
  0
LINE
  8
0
  6
CONTINUOUS
 62
3
 10
4436.013768
 20
3344.062475
 11
4435.440690
 21
3344.079181
  0
LINE
  8
0
  6
CONTINUOUS
 62
3
 10
4435.440690
 20
3344.079181
 11
4434.870729
 21
3344.139993
  0
LINE
  8
0
  6
CONTINUOUS
 62
3
 10
4434.870729
 20
3344.139993
 11
4434.307398
 21
3344.244520
  0
LINE
  8
0
  6
CONTINUOUS
 62
3
 10
4434.307398
 20
3344.244520
 11
4433.754204
 21
3344.392368
  0
LINE
  8
0
  6
CONTINUOUS
 62
3
 10
4433.754204
 20
3344.392368
 11
4433.482520
 21
3344.482381
  0
LINE
  8
0
  6
CONTINUOUS
 62
3
 10
4433.482520
 20
3344.482381
 11
4433.214677
 21
3344.582900
  0
LINE
  8
0
  6
CONTINUOUS
 62
3
 10
4433.214677
 20
3344.582900
 11
4432.951064
 21
3344.693714
  0
LINE
  8
0
  6
CONTINUOUS
 62
3
 10
4432.951064
 20
3344.693714
 11
4432.692066
 21
3344.814611
  0
LINE
  8
0
  6
CONTINUOUS
 62
3
 10
4432.692066
 20
3344.814611
 11
4432.438069
 21
3344.945378
  0
LINE
  8
0
  6
CONTINUOUS
 62
3
 10
4432.438069
 20
3344.945378
 11
4432.189462
 21
3345.085805
  0
LINE
  8
0
  6
CONTINUOUS
 62
3
 10
4432.189462
 20
3345.085805
 11
4431.946629
 21
3345.235679
  0
LINE
  8
0
  6
CONTINUOUS
 62
3
 10
4431.946629
 20
3345.235679
 11
4431.709958
 21
3345.394787
  0
LINE
  8
0
  6
CONTINUOUS
 62
3
 10
4431.709958
 20
3345.394787
 11
4431.594054
 21
3345.477739
  0
LINE
  8
0
  6
CONTINUOUS
 62
3
 10
4431.594054
 20
3345.477739
 11
4431.479835
 21
3345.562919
  0
LINE
  8
0
  6
CONTINUOUS
 62
3
 10
4431.479835
 20
3345.562919
 11
4431.256647
 21
3345.739863
  0
LINE
  8
0
  6
CONTINUOUS
 62
3
 10
4431.256647
 20
3345.739863
 11
4431.147767
 21
3345.831558
  0
LINE
  8
0
  6
CONTINUOUS
 62
3
 10
4431.147767
 20
3345.831558
 11
4431.040743
 21
3345.925340
  0
LINE
  8
0
  6
CONTINUOUS
 62
3
 10
4431.040743
 20
3345.925340
 11
4430.832419
 21
3346.119005
  0
LINE
  8
0
  6
CONTINUOUS
 62
3
 10
4430.832419
 20
3346.119005
 11
4430.731195
 21
3346.218810
  0
LINE
  8
0
  6
CONTINUOUS
 62
3
 10
4430.731195
 20
3346.218810
 11
4430.631983
 21
3346.320543
  0
LINE
  8
0
  6
CONTINUOUS
 62
3
 10
4430.631983
 20
3346.320543
 11
4430.439745
 21
3346.529639
  0
LINE
  8
0
  6
CONTINUOUS
 62
3
 10
4430.439745
 20
3346.529639
 11
4430.346796
 21
3346.636923
  0
LINE
  8
0
  6
CONTINUOUS
 62
3
 10
4430.346796
 20
3346.636923
 11
4430.256012
 21
3346.745979
  0
LINE
  8
0
  6
CONTINUOUS
 62
3
 10
4430.256012
 20
3346.745979
 11
4430.081203
 21
3346.969287
  0
LINE
  8
0
  6
CONTINUOUS
 62
3
 10
4430.081203
 20
3346.969287
 11
4429.997254
 21
3347.083454
  0
LINE
  8
0
  6
CONTINUOUS
 62
3
 10
4429.997254
 20
3347.083454
 11
4429.915637
 21
3347.199229
  0
LINE
  8
0
  6
CONTINUOUS
 62
3
 10
4429.915637
 20
3347.199229
 11
4429.759477
 21
3347.435403
  0
LINE
  8
0
  6
CONTINUOUS
 62
3
 10
4429.759477
 20
3347.435403
 11
4429.684974
 21
3347.555700
  0
LINE
  8
0
  6
CONTINUOUS
 62
3
 10
4429.684974
 20
3347.555700
 11
4429.612884
 21
3347.677403
  0
LINE
  8
0
  6
CONTINUOUS
 62
3
 10
4429.612884
 20
3347.677403
 11
4429.476019
 21
3347.924825
  0
LINE
  8
0
  6
CONTINUOUS
 62
3
 10
4429.476019
 20
3347.924825
 11
4429.411285
 21
3348.050443
  0
LINE
  8
0
  6
CONTINUOUS
 62
3
 10
4429.411285
 20
3348.050443
 11
4429.349045
 21
3348.177265
  0
LINE
  8
0
  6
CONTINUOUS
 62
3
 10
4429.349045
 20
3348.177265
 11
4429.232122
 21
3348.434321
  0
LINE
  8
0
  6
CONTINUOUS
 62
3
 10
4429.232122
 20
3348.434321
 11
4429.177480
 21
3348.564452
  0
LINE
  8
0
  6
CONTINUOUS
 62
3
 10
4429.177480
 20
3348.564452
 11
4429.125412
 21
3348.695586
  0
LINE
  8
0
  6
CONTINUOUS
 62
3
 10
4429.125412
 20
3348.695586
 11
4429.029078
 21
3348.960657
  0
LINE
  8
0
  6
CONTINUOUS
 62
3
 10
4429.029078
 20
3348.960657
 11
4428.984852
 21
3349.094494
  0
LINE
  8
0
  6
CONTINUOUS
 62
3
 10
4428.984852
 20
3349.094494
 11
4428.943280
 21
3349.229131
  0
LINE
  8
0
  6
CONTINUOUS
 62
3
 10
4428.943280
 20
3349.229131
 11
4428.868181
 21
3349.500603
  0
LINE
  8
0
  6
CONTINUOUS
 62
3
 10
4428.868181
 20
3349.500603
 11
4428.834693
 21
3349.637337
  0
LINE
  8
0
  6
CONTINUOUS
 62
3
 10
4428.834693
 20
3349.637337
 11
4428.803941
 21
3349.774669
  0
LINE
  8
0
  6
CONTINUOUS
 62
3
 10
4428.803941
 20
3349.774669
 11
4428.750723
 21
3350.050925
  0
LINE
  8
0
  6
CONTINUOUS
 62
3
 10
4428.750723
 20
3350.050925
 11
4428.728299
 21
3350.189737
  0
LINE
  8
0
  6
CONTINUOUS
 62
3
 10
4428.728299
 20
3350.189737
 11
4428.708689
 21
3350.328956
  0
LINE
  8
0
  6
CONTINUOUS
 62
3
 10
4428.708689
 20
3350.328956
 11
4428.677998
 21
3350.608380
  0
LINE
  8
0
  6
CONTINUOUS
 62
3
 10
4431.666581
 20
3354.406858
 11
4431.709420
 21
3354.073017
  0
LINE
  8
0
  6
CONTINUOUS
 62
3
 10
4431.709420
 20
3354.073017
 11
4431.778607
 21
3353.743800
  0
LINE
  8
0
  6
CONTINUOUS
 62
3
 10
4431.778607
 20
3353.743800
 11
4431.873382
 21
3353.421090
  0
LINE
  8
0
  6
CONTINUOUS
 62
3
 10
4431.873382
 20
3353.421090
 11
4431.992984
 21
3353.106769
  0
LINE
  8
0
  6
CONTINUOUS
 62
3
 10
4431.992984
 20
3353.106769
 11
4432.136649
 21
3352.802720
  0
LINE
  8
0
  6
CONTINUOUS
 62
3
 10
4432.136649
 20
3352.802720
 11
4432.303617
 21
3352.510823
  0
LINE
  8
0
  6
CONTINUOUS
 62
3
 10
4432.303617
 20
3352.510823
 11
4432.493127
 21
3352.232962
  0
LINE
  8
0
  6
CONTINUOUS
 62
3
 10
4432.493127
 20
3352.232962
 11
4432.704323
 21
3351.970977
  0
LINE
  8
0
  6
CONTINUOUS
 62
3
 10
4432.704323
 20
3351.970977
 11
4432.817559
 21
3351.846403
  0
LINE
  8
0
  6
CONTINUOUS
 62
3
 10
4432.817559
 20
3351.846403
 11
4432.935624
 21
3351.726345
  0
LINE
  8
0
  6
CONTINUOUS
 62
3
 10
4432.935624
 20
3351.726345
 11
4433.058336
 21
3351.610984
  0
LINE
  8
0
  6
CONTINUOUS
 62
3
 10
4433.058336
 20
3351.610984
 11
4433.185512
 21
3351.500504
  0
LINE
  8
0
  6
CONTINUOUS
 62
3
 10
4433.185512
 20
3351.500504
 11
4433.316979
 21
3351.395106
  0
LINE
  8
0
  6
CONTINUOUS
 62
3
 10
4433.316979
 20
3351.395106
 11
4433.452531
 21
3351.294950
  0
LINE
  8
0
  6
CONTINUOUS
 62
3
 10
4433.452531
 20
3351.294950
 11
4433.591940
 21
3351.200159
  0
LINE
  8
0
  6
CONTINUOUS
 62
3
 10
4433.591940
 20
3351.200159
 11
4433.734978
 21
3351.110854
  0
LINE
  8
0
  6
CONTINUOUS
 62
3
 10
4433.734978
 20
3351.110854
 11
4433.881418
 21
3351.027157
  0
LINE
  8
0
  6
CONTINUOUS
 62
3
 10
4433.881418
 20
3351.027157
 11
4434.031033
 21
3350.949192
  0
LINE
  8
0
  6
CONTINUOUS
 62
3
 10
4434.031033
 20
3350.949192
 11
4434.183593
 21
3350.877079
  0
LINE
  8
0
  6
CONTINUOUS
 62
3
 10
4434.183593
 20
3350.877079
 11
4434.338872
 21
3350.810941
  0
LINE
  8
0
  6
CONTINUOUS
 62
3
 10
4434.338872
 20
3350.810941
 11
4434.496643
 21
3350.750900
  0
LINE
  8
0
  6
CONTINUOUS
 62
3
 10
4434.496643
 20
3350.750900
 11
4434.656676
 21
3350.697078
  0
LINE
  8
0
  6
CONTINUOUS
 62
3
 10
4434.656676
 20
3350.697078
 11
4434.818727
 21
3350.649585
  0
LINE
  8
0
  6
CONTINUOUS
 62
3
 10
4434.818727
 20
3350.649585
 11
4434.982530
 21
3350.608467
  0
LINE
  8
0
  6
CONTINUOUS
 62
3
 10
4434.982530
 20
3350.608467
 11
4435.065007
 21
3350.590307
  0
LINE
  8
0
  6
CONTINUOUS
 62
3
 10
4435.065007
 20
3350.590307
 11
4435.147825
 21
3350.573751
  0
LINE
  8
0
  6
CONTINUOUS
 62
3
 10
4435.147825
 20
3350.573751
 11
4435.314355
 21
3350.545462
  0
LINE
  8
0
  6
CONTINUOUS
 62
3
 10
4435.314355
 20
3350.545462
 11
4435.398002
 21
3350.533737
  0
LINE
  8
0
  6
CONTINUOUS
 62
3
 10
4435.398002
 20
3350.533737
 11
4435.481861
 21
3350.523628
  0
LINE
  8
0
  6
CONTINUOUS
 62
3
 10
4435.481861
 20
3350.523628
 11
4435.650085
 21
3350.508273
  0
LINE
  8
0
  6
CONTINUOUS
 62
3
 10
4435.650085
 20
3350.508273
 11
4435.734385
 21
3350.503034
  0
LINE
  8
0
  6
CONTINUOUS
 62
3
 10
4435.734385
 20
3350.503034
 11
4435.818768
 21
3350.499425
  0
LINE
  8
0
  6
CONTINUOUS
 62
3
 10
4435.818768
 20
3350.499425
 11
4435.987652
 21
3350.497109
  0
LINE
  8
0
  6
CONTINUOUS
 62
3
 10
4435.987652
 20
3350.497109
 11
4436.072082
 21
3350.498409
  0
LINE
  8
0
  6
CONTINUOUS
 62
3
 10
4436.072082
 20
3350.498409
 11
4436.156471
 21
3350.501351
  0
LINE
  8
0
  6
CONTINUOUS
 62
3
 10
4436.156471
 20
3350.501351
 11
4436.324982
 21
3350.512178
  0
POLYLINE
  8
0
  6
CONTINUOUS
 62
3
 66
1
 70
2
  0
VERTEX
  8
0
 10
4442.999493
 20
3347.618060
 70
0
 42
0.144736
  0
VERTEX
  8
0
 10
4453.957635
 20
3350.300142
 70
0
 42
0.155492
  0
VERTEX
  8
0
 10
4442.999493
 20
3351.088809
 70
0
  0
SEQEND
  0
POLYLINE
  8
0
  6
CONTINUOUS
 62
3
 66
1
 70
2
  0
VERTEX
  8
0
 10
4443.260960
 20
3344.666901
 70
0
 42
0.149243
  0
VERTEX
  8
0
 10
4454.218040
 20
3347.373052
 70
0
  0
SEQEND
  0
LINE
  8
0
  6
CONTINUOUS
 62
3
 10
4453.956572
 20
3350.324211
 11
4454.218039
 21
3347.373052
  0
LINE
  8
0
  6
CONTINUOUS
 62
3
 10
4436.324988
 20
3347.041428
 11
4442.999493
 21
3347.618059
  0
LINE
  8
0
  6
CONTINUOUS
 62
3
 10
4436.586455
 20
3344.090269
 11
4443.260960
 21
3344.666900
  0
LINE
  8
0
  6
CONTINUOUS
 62
3
 10
4442.999493
 20
3351.088810
 11
4436.324988
 21
3350.512179
  0
LINE
  8
0
  6
CONTINUOUS
 62
3
 10
4419.802901
 20
3376.034510
 11
4419.802901
 21
3361.264500
  0
LINE
  8
0
  6
CONTINUOUS
 62
3
 10
4419.802901
 20
3371.389315
 11
4426.821590
 21
3371.389315
  0
LINE
  8
0
  6
CONTINUOUS
 62
3
 10
4426.993276
 20
3369.467438
 11
4419.802901
 21
3369.467438
  0
LINE
  8
0
  6
CONTINUOUS
 62
3
 10
4399.901183
 20
3363.664605
 11
4399.901183
 21
3363.757725
  0
LINE
  8
0
  6
CONTINUOUS
 62
3
 10
4376.802901
 20
3382.795438
 11
4376.802901
 21
3361.264500
  0
LINE
  8
0
  6
CONTINUOUS
 62
3
 10
4384.728083
 20
3369.467438
 11
4376.802901
 21
3369.467438
  0
LINE
  8
0
  6
CONTINUOUS
 62
3
 10
4455.802901
 20
3396.306231
 11
4455.802901
 21
3361.264500
  0
LINE
  8
0
  6
CONTINUOUS
 62
3
 10
4426.406624
 20
3376.034510
 11
4419.802901
 21
3376.034510
  0
LINE
  8
0
  6
CONTINUOUS
 62
3
 10
4360.802901
 20
3361.264500
 11
4360.802901
 21
3396.306231
  0
LINE
  8
0
  6
CONTINUOUS
 62
3
 10
4455.802901
 20
3396.306231
 11
4360.802901
 21
3396.306231
  0
LINE
  8
0
  6
CONTINUOUS
 62
3
 10
4455.802901
 20
3361.264500
 11
4442.901183
 21
3361.264500
  0
LINE
  8
0
  6
CONTINUOUS
 62
3
 10
4419.802901
 20
3361.264500
 11
4410.879877
 21
3361.264500
  0
LINE
  8
0
  6
CONTINUOUS
 62
3
 10
4376.802901
 20
3361.264500
 11
4360.802901
 21
3361.264500
  0
LINE
  8
0
  6
CONTINUOUS
 62
3
 10
4453.302901
 20
3399.100181
 11
4360.802901
 21
3399.100181
  0
LINE
  8
0
  6
CONTINUOUS
 62
3
 10
4360.802901
 20
3513.359028
 11
4453.302901
 21
3513.359028
  0
LINE
  8
0
  6
CONTINUOUS
 62
3
 10
4453.302901
 20
3513.359028
 11
4453.302901
 21
3399.100181
  0
LINE
  8
0
  6
CONTINUOUS
 62
3
 10
4457.802901
 20
3509.972835
 11
4457.802901
 21
3396.588241
  0
LINE
  8
0
  6
CONTINUOUS
 62
3
 10
4453.302901
 20
3513.359028
 11
4453.914426
 21
3513.284886
  0
LINE
  8
0
  6
CONTINUOUS
 62
3
 10
4453.914426
 20
3513.284886
 11
4454.506948
 21
3513.156019
  0
LINE
  8
0
  6
CONTINUOUS
 62
3
 10
4454.506948
 20
3513.156019
 11
4455.072410
 21
3512.977300
  0
LINE
  8
0
  6
CONTINUOUS
 62
3
 10
4455.072410
 20
3512.977300
 11
4455.602756
 21
3512.753601
  0
LINE
  8
0
  6
CONTINUOUS
 62
3
 10
4455.602756
 20
3512.753601
 11
4455.852244
 21
3512.626408
  0
LINE
  8
0
  6
CONTINUOUS
 62
3
 10
4455.852244
 20
3512.626408
 11
4456.089932
 21
3512.489796
  0
LINE
  8
0
  6
CONTINUOUS
 62
3
 10
4456.089932
 20
3512.489796
 11
4456.314813
 21
3512.344377
  0
LINE
  8
0
  6
CONTINUOUS
 62
3
 10
4456.314813
 20
3512.344377
 11
4456.525881
 21
3512.190758
  0
LINE
  8
0
  6
CONTINUOUS
 62
3
 10
4456.525881
 20
3512.190758
 11
4456.722277
 21
3512.029621
  0
LINE
  8
0
  6
CONTINUOUS
 62
3
 10
4456.722277
 20
3512.029621
 11
4456.903565
 21
3511.861729
  0
LINE
  8
0
  6
CONTINUOUS
 62
3
 10
4456.903565
 20
3511.861729
 11
4457.069370
 21
3511.687818
  0
LINE
  8
0
  6
CONTINUOUS
 62
3
 10
4457.069370
 20
3511.687818
 11
4457.219316
 21
3511.508620
  0
LINE
  8
0
  6
CONTINUOUS
 62
3
 10
4457.219316
 20
3511.508620
 11
4457.288224
 21
3511.417268
  0
LINE
  8
0
  6
CONTINUOUS
 62
3
 10
4457.288224
 20
3511.417268
 11
4457.353027
 21
3511.324870
  0
LINE
  8
0
  6
CONTINUOUS
 62
3
 10
4457.353027
 20
3511.324870
 11
4457.470129
 21
3511.137303
  0
LINE
  8
0
  6
CONTINUOUS
 62
3
 10
4457.470129
 20
3511.137303
 11
4457.522333
 21
3511.042317
  0
LINE
  8
0
  6
CONTINUOUS
 62
3
 10
4457.522333
 20
3511.042317
 11
4457.570244
 21
3510.946652
  0
LINE
  8
0
  6
CONTINUOUS
 62
3
 10
4457.570244
 20
3510.946652
 11
4457.653000
 21
3510.753651
  0
LINE
  8
0
  6
CONTINUOUS
 62
3
 10
4457.653000
 20
3510.753651
 11
4457.687749
 21
3510.656499
  0
LINE
  8
0
  6
CONTINUOUS
 62
3
 10
4457.687749
 20
3510.656499
 11
4457.718018
 21
3510.559035
  0
LINE
  8
0
  6
CONTINUOUS
 62
3
 10
4457.718018
 20
3510.559035
 11
4457.764925
 21
3510.363538
  0
LINE
  8
0
  6
CONTINUOUS
 62
3
 10
4457.764925
 20
3510.363538
 11
4457.781468
 21
3510.265692
  0
LINE
  8
0
  6
CONTINUOUS
 62
3
 10
4457.781468
 20
3510.265692
 11
4457.793344
 21
3510.167898
  0
LINE
  8
0
  6
CONTINUOUS
 62
3
 10
4457.793344
 20
3510.167898
 11
4457.802901
 21
3509.972840
  0
LINE
  8
0
  6
CONTINUOUS
 62
3
 10
4457.802901
 20
3396.588241
 11
4457.802901
 21
3363.264500
  0
LINE
  8
0
  6
CONTINUOUS
 62
3
 10
4357.802901
 20
3511.196723
 11
4357.802901
 21
3397.972500
  0
LINE
  8
0
  6
CONTINUOUS
 62
3
 10
4357.802901
 20
3363.264500
 11
4357.802901
 21
3397.972500
  0
LINE
  8
0
  6
CONTINUOUS
 62
3
 10
4066.302901
 20
3400.428996
 11
4075.802901
 21
3400.428996
  0
LINE
  8
0
  6
CONTINUOUS
 62
3
 10
4332.302901
 20
3409.381098
 11
4332.102901
 21
3409.380735
  0
LINE
  8
0
  6
CONTINUOUS
 62
3
 10
3542.802901
 20
3822.208113
 11
3542.802901
 21
3821.147453
  0
LINE
  8
0
  6
CONTINUOUS
 62
3
 10
3542.802901
 20
3584.266682
 11
3542.802901
 21
3821.147453
  0
LINE
  8
0
  6
CONTINUOUS
 62
3
 10
3542.802901
 20
3477.601007
 11
3542.802901
 21
3584.266682
  0
LINE
  8
0
  6
CONTINUOUS
 62
3
 10
3426.302901
 20
3822.208113
 11
3426.302901
 21
3821.147453
  0
LINE
  8
0
  6
CONTINUOUS
 62
3
 10
3426.302901
 20
3477.601007
 11
3426.302901
 21
3821.147453
  0
LINE
  8
0
  6
CONTINUOUS
 62
3
 10
3424.302901
 20
3478.044871
 11
3424.302901
 21
3477.601007
  0
LINE
  8
0
  6
CONTINUOUS
 62
3
 10
3422.802901
 20
3476.186793
 11
3422.802901
 21
3478.661667
  0
LINE
  8
0
  6
CONTINUOUS
 62
3
 10
3422.802901
 20
3478.661667
 11
3422.802901
 21
3480.075880
  0
LINE
  8
0
  6
CONTINUOUS
 62
3
 10
3422.802901
 20
3480.075880
 11
3422.802901
 21
3823.136541
  0
POLYLINE
  8
0
  6
CONTINUOUS
 62
3
 66
1
 70
2
  0
VERTEX
  8
0
 10
3422.802901
 20
3480.075880
 70
0
 42
0.397078
  0
VERTEX
  8
0
 10
3426.302901
 20
3477.601006
 70
0
  0
SEQEND
  0
LINE
  8
0
  6
CONTINUOUS
 62
3
 10
3542.802901
 20
3822.449535
 11
3542.802901
 21
3822.208113
  0
LINE
  8
0
  6
CONTINUOUS
 62
3
 10
3426.302901
 20
3822.208113
 11
3426.302901
 21
3822.449535
  0
ARC
  8
0
  6
CONTINUOUS
 62
3
 10
3525.902901
 20
4152.786793
 40
3.600000
 50
180.000000
 51
270.000000
  0
LINE
  8
0
  6
CONTINUOUS
 62
3
 10
3542.802901
 20
4149.186793
 11
3525.902901
 21
4149.186793
  0
LINE
  8
0
  6
CONTINUOUS
 62
3
 10
3522.302901
 20
4152.786793
 11
3522.302901
 21
4167.086793
  0
LINE
  8
0
  6
CONTINUOUS
 62
3
 10
3542.802901
 20
3822.449535
 11
3542.802901
 21
4149.186793
  0
LINE
  8
0
  6
CONTINUOUS
 62
3
 10
3426.302901
 20
4167.086793
 11
3522.302901
 21
4167.086793
  0
LINE
  8
0
  6
CONTINUOUS
 62
3
 10
3542.802901
 20
3822.449535
 11
3426.302901
 21
3822.449535
  0
LINE
  8
0
  6
CONTINUOUS
 62
3
 10
3426.302901
 20
3822.449535
 11
3426.302901
 21
4167.086793
  0
LINE
  8
0
  6
CONTINUOUS
 62
3
 10
3426.302901
 20
4167.086793
 11
3425.846413
 21
4166.928460
  0
LINE
  8
0
  6
CONTINUOUS
 62
3
 10
3425.846413
 20
4166.928460
 11
3425.398006
 21
4166.770127
  0
LINE
  8
0
  6
CONTINUOUS
 62
3
 10
3425.398006
 20
4166.770127
 11
3424.964823
 21
4166.611793
  0
LINE
  8
0
  6
CONTINUOUS
 62
3
 10
3424.964823
 20
4166.611793
 11
3424.554004
 21
4166.453460
  0
LINE
  8
0
  6
CONTINUOUS
 62
3
 10
3424.554004
 20
4166.453460
 11
3424.172692
 21
4166.295127
  0
LINE
  8
0
  6
CONTINUOUS
 62
3
 10
3424.172692
 20
4166.295127
 11
3423.828027
 21
4166.136793
  0
LINE
  8
0
  6
CONTINUOUS
 62
3
 10
3423.828027
 20
4166.136793
 11
3423.527120
 21
4165.978460
  0
LINE
  8
0
  6
CONTINUOUS
 62
3
 10
3423.527120
 20
4165.978460
 11
3423.274289
 21
4165.820127
  0
LINE
  8
0
  6
CONTINUOUS
 62
3
 10
3423.274289
 20
4165.820127
 11
3423.072494
 21
4165.661793
  0
LINE
  8
0
  6
CONTINUOUS
 62
3
 10
3423.072494
 20
4165.661793
 11
3422.924692
 21
4165.503460
  0
LINE
  8
0
  6
CONTINUOUS
 62
3
 10
3422.924692
 20
4165.503460
 11
3422.871963
 21
4165.424293
  0
LINE
  8
0
  6
CONTINUOUS
 62
3
 10
3422.871963
 20
4165.424293
 11
3422.833842
 21
4165.345127
  0
LINE
  8
0
  6
CONTINUOUS
 62
3
 10
3422.833842
 20
4165.345127
 11
3422.810698
 21
4165.265962
  0
LINE
  8
0
  6
CONTINUOUS
 62
3
 10
3422.810698
 20
4165.265962
 11
3422.802901
 21
4165.186795
  0
LINE
  8
0
  6
CONTINUOUS
 62
3
 10
3422.802901
 20
3823.136541
 11
3422.802901
 21
4165.186793
  0
LINE
  8
0
  6
CONTINUOUS
 62
3
 10
3422.802901
 20
3823.136541
 11
3422.833842
 21
3823.079290
  0
LINE
  8
0
  6
CONTINUOUS
 62
3
 10
3422.833842
 20
3823.079290
 11
3422.924692
 21
3823.022040
  0
LINE
  8
0
  6
CONTINUOUS
 62
3
 10
3422.924692
 20
3823.022040
 11
3423.072494
 21
3822.964789
  0
LINE
  8
0
  6
CONTINUOUS
 62
3
 10
3423.072494
 20
3822.964789
 11
3423.274289
 21
3822.907539
  0
LINE
  8
0
  6
CONTINUOUS
 62
3
 10
3423.274289
 20
3822.907539
 11
3423.527120
 21
3822.850288
  0
LINE
  8
0
  6
CONTINUOUS
 62
3
 10
3423.527120
 20
3822.850288
 11
3423.828027
 21
3822.793038
  0
LINE
  8
0
  6
CONTINUOUS
 62
3
 10
3423.828027
 20
3822.793038
 11
3424.172692
 21
3822.735787
  0
LINE
  8
0
  6
CONTINUOUS
 62
3
 10
3424.172692
 20
3822.735787
 11
3424.554004
 21
3822.678537
  0
LINE
  8
0
  6
CONTINUOUS
 62
3
 10
3424.554004
 20
3822.678537
 11
3424.964823
 21
3822.621287
  0
LINE
  8
0
  6
CONTINUOUS
 62
3
 10
3424.964823
 20
3822.621287
 11
3425.398006
 21
3822.564036
  0
LINE
  8
0
  6
CONTINUOUS
 62
3
 10
3425.398006
 20
3822.564036
 11
3425.846413
 21
3822.506786
  0
LINE
  8
0
  6
CONTINUOUS
 62
3
 10
3425.846413
 20
3822.506786
 11
3426.302895
 21
3822.449536
  0
LINE
  8
0
  6
CONTINUOUS
 62
3
 10
3520.302901
 20
4168.686793
 11
3426.302901
 21
4168.686793
  0
LINE
  8
0
  6
CONTINUOUS
 62
3
 10
3422.802901
 20
4165.186793
 11
3422.833842
 21
4165.643282
  0
LINE
  8
0
  6
CONTINUOUS
 62
3
 10
3422.833842
 20
4165.643282
 11
3422.924692
 21
4166.091688
  0
LINE
  8
0
  6
CONTINUOUS
 62
3
 10
3422.924692
 20
4166.091688
 11
3423.072494
 21
4166.524872
  0
LINE
  8
0
  6
CONTINUOUS
 62
3
 10
3423.072494
 20
4166.524872
 11
3423.166827
 21
4166.733523
  0
LINE
  8
0
  6
CONTINUOUS
 62
3
 10
3423.166827
 20
4166.733523
 11
3423.274289
 21
4166.935690
  0
LINE
  8
0
  6
CONTINUOUS
 62
3
 10
3423.274289
 20
4166.935690
 11
3423.394510
 21
4167.130481
  0
LINE
  8
0
  6
CONTINUOUS
 62
3
 10
3423.394510
 20
4167.130481
 11
3423.527120
 21
4167.317003
  0
LINE
  8
0
  6
CONTINUOUS
 62
3
 10
3423.527120
 20
4167.317003
 11
3423.671749
 21
4167.494362
  0
LINE
  8
0
  6
CONTINUOUS
 62
3
 10
3423.671749
 20
4167.494362
 11
3423.828027
 21
4167.661667
  0
LINE
  8
0
  6
CONTINUOUS
 62
3
 10
3423.828027
 20
4167.661667
 11
3423.995332
 21
4167.817946
  0
LINE
  8
0
  6
CONTINUOUS
 62
3
 10
3423.995332
 20
4167.817946
 11
3424.172692
 21
4167.962575
  0
LINE
  8
0
  6
CONTINUOUS
 62
3
 10
3424.172692
 20
4167.962575
 11
3424.264863
 21
4168.030405
  0
LINE
  8
0
  6
CONTINUOUS
 62
3
 10
3424.264863
 20
4168.030405
 11
3424.359213
 21
4168.095185
  0
LINE
  8
0
  6
CONTINUOUS
 62
3
 10
3424.359213
 20
4168.095185
 11
3424.554004
 21
4168.215405
  0
LINE
  8
0
  6
CONTINUOUS
 62
3
 10
3424.554004
 20
4168.215405
 11
3424.654221
 21
4168.270754
  0
LINE
  8
0
  6
CONTINUOUS
 62
3
 10
3424.654221
 20
4168.270754
 11
3424.756171
 21
4168.322867
  0
LINE
  8
0
  6
CONTINUOUS
 62
3
 10
3424.756171
 20
4168.322867
 11
3424.964823
 21
4168.417200
  0
LINE
  8
0
  6
CONTINUOUS
 62
3
 10
3424.964823
 20
4168.417200
 11
3425.071301
 21
4168.459328
  0
LINE
  8
0
  6
CONTINUOUS
 62
3
 10
3425.071301
 20
4168.459328
 11
3425.179065
 21
4168.498035
  0
LINE
  8
0
  6
CONTINUOUS
 62
3
 10
3425.179065
 20
4168.498035
 11
3425.398006
 21
4168.565002
  0
LINE
  8
0
  6
CONTINUOUS
 62
3
 10
3425.398006
 20
4168.565002
 11
3425.508959
 21
4168.593170
  0
LINE
  8
0
  6
CONTINUOUS
 62
3
 10
3425.508959
 20
4168.593170
 11
3425.620753
 21
4168.617731
  0
LINE
  8
0
  6
CONTINUOUS
 62
3
 10
3425.620753
 20
4168.617731
 11
3425.846413
 21
4168.655853
  0
LINE
  8
0
  6
CONTINUOUS
 62
3
 10
3425.846413
 20
4168.655853
 11
3425.960050
 21
4168.669319
  0
LINE
  8
0
  6
CONTINUOUS
 62
3
 10
3425.960050
 20
4168.669319
 11
3426.074087
 21
4168.678996
  0
LINE
  8
0
  6
CONTINUOUS
 62
3
 10
3426.074087
 20
4168.678996
 11
3426.302895
 21
4168.686793
  0
LINE
  8
0
  6
CONTINUOUS
 62
3
 10
3422.802901
 20
3252.186793
 11
3422.802901
 21
3302.136541
  0
LINE
  8
0
  6
CONTINUOUS
 62
3
 10
3422.802901
 20
3302.136541
 11
3422.808928
 21
3301.872415
  0
LINE
  8
0
  6
CONTINUOUS
 62
3
 10
3422.808928
 20
3301.872415
 11
3422.826920
 21
3301.607850
  0
LINE
  8
0
  6
CONTINUOUS
 62
3
 10
3422.826920
 20
3301.607850
 11
3422.856743
 21
3301.343444
  0
LINE
  8
0
  6
CONTINUOUS
 62
3
 10
3422.856743
 20
3301.343444
 11
3422.898261
 21
3301.079796
  0
LINE
  8
0
  6
CONTINUOUS
 62
3
 10
3422.898261
 20
3301.079796
 11
3422.951340
 21
3300.817505
  0
LINE
  8
0
  6
CONTINUOUS
 62
3
 10
3422.951340
 20
3300.817505
 11
3423.015846
 21
3300.557169
  0
LINE
  8
0
  6
CONTINUOUS
 62
3
 10
3423.015846
 20
3300.557169
 11
3423.091644
 21
3300.299387
  0
LINE
  8
0
  6
CONTINUOUS
 62
3
 10
3423.091644
 20
3300.299387
 11
3423.178599
 21
3300.044756
  0
LINE
  8
0
  6
CONTINUOUS
 62
3
 10
3423.178599
 20
3300.044756
 11
3423.276578
 21
3299.793875
  0
LINE
  8
0
  6
CONTINUOUS
 62
3
 10
3423.276578
 20
3299.793875
 11
3423.385826
 21
3299.547426
  0
LINE
  8
0
  6
CONTINUOUS
 62
3
 10
3423.385826
 20
3299.547426
 11
3423.506902
 21
3299.306255
  0
LINE
  8
0
  6
CONTINUOUS
 62
3
 10
3423.506902
 20
3299.306255
 11
3423.640154
 21
3299.071211
  0
LINE
  8
0
  6
CONTINUOUS
 62
3
 10
3423.640154
 20
3299.071211
 11
3423.785987
 21
3298.843068
  0
LINE
  8
0
  6
CONTINUOUS
 62
3
 10
3423.785987
 20
3298.843068
 11
3423.944828
 21
3298.622928
  0
LINE
  8
0
  6
CONTINUOUS
 62
3
 10
3423.944828
 20
3298.622928
 11
3424.117049
 21
3298.412124
  0
LINE
  8
0
  6
CONTINUOUS
 62
3
 10
3424.117049
 20
3298.412124
 11
3424.208290
 21
3298.310645
  0
LINE
  8
0
  6
CONTINUOUS
 62
3
 10
3424.208290
 20
3298.310645
 11
3424.303021
 21
3298.211995
  0
LINE
  8
0
  6
CONTINUOUS
 62
3
 10
3424.417934
 20
3298.100776
 11
3424.544797
 21
3297.987861
  0
LINE
  8
0
  6
CONTINUOUS
 62
3
 10
3424.544797
 20
3297.987861
 11
3424.677203
 21
3297.880118
  0
LINE
  8
0
  6
CONTINUOUS
 62
3
 10
3424.677203
 20
3297.880118
 11
3424.815289
 21
3297.777869
  0
LINE
  8
0
  6
CONTINUOUS
 62
3
 10
3424.815289
 20
3297.777869
 11
3424.959163
 21
3297.681554
  0
LINE
  8
0
  6
CONTINUOUS
 62
3
 10
3424.959163
 20
3297.681554
 11
3425.108700
 21
3297.591688
  0
LINE
  8
0
  6
CONTINUOUS
 62
3
 10
3425.108700
 20
3297.591688
 11
3425.263769
 21
3297.508791
  0
LINE
  8
0
  6
CONTINUOUS
 62
3
 10
3425.263769
 20
3297.508791
 11
3425.424237
 21
3297.433382
  0
LINE
  8
0
  6
CONTINUOUS
 62
3
 10
3425.424237
 20
3297.433382
 11
3425.589970
 21
3297.365978
  0
LINE
  8
0
  6
CONTINUOUS
 62
3
 10
3425.589970
 20
3297.365978
 11
3425.760835
 21
3297.307099
  0
LINE
  8
0
  6
CONTINUOUS
 62
3
 10
3425.760835
 20
3297.307099
 11
3425.936701
 21
3297.257263
  0
LINE
  8
0
  6
CONTINUOUS
 62
3
 10
3425.936701
 20
3297.257263
 11
3426.117434
 21
3297.216988
  0
LINE
  8
0
  6
CONTINUOUS
 62
3
 10
3426.117434
 20
3297.216988
 11
3426.302894
 21
3297.186794
  0
LINE
  8
0
  6
CONTINUOUS
 62
3
 10
3422.802901
 20
3302.136541
 11
3422.802901
 21
3476.186793
  0
LINE
  8
0
  6
CONTINUOUS
 62
3
 10
3426.302901
 20
3248.686793
 11
3542.802901
 21
3248.686793
  0
LINE
  8
0
  6
CONTINUOUS
 62
3
 10
3426.302901
 20
3249.226133
 11
3426.302901
 21
3248.686795
  0
LINE
  8
0
  6
CONTINUOUS
 62
3
 10
3542.802901
 20
3249.226133
 11
3542.802901
 21
3248.686793
  0
LINE
  8
0
  6
CONTINUOUS
 62
3
 10
3426.302901
 20
3248.686793
 11
3425.846413
 21
3248.717734
  0
LINE
  8
0
  6
CONTINUOUS
 62
3
 10
3425.846413
 20
3248.717734
 11
3425.398006
 21
3248.808585
  0
LINE
  8
0
  6
CONTINUOUS
 62
3
 10
3425.398006
 20
3248.808585
 11
3424.964823
 21
3248.956386
  0
LINE
  8
0
  6
CONTINUOUS
 62
3
 10
3424.964823
 20
3248.956386
 11
3424.756171
 21
3249.050720
  0
LINE
  8
0
  6
CONTINUOUS
 62
3
 10
3424.756171
 20
3249.050720
 11
3424.554004
 21
3249.158182
  0
LINE
  8
0
  6
CONTINUOUS
 62
3
 10
3424.554004
 20
3249.158182
 11
3424.359213
 21
3249.278402
  0
LINE
  8
0
  6
CONTINUOUS
 62
3
 10
3424.359213
 20
3249.278402
 11
3424.172692
 21
3249.411012
  0
LINE
  8
0
  6
CONTINUOUS
 62
3
 10
3424.172692
 20
3249.411012
 11
3423.995332
 21
3249.555641
  0
LINE
  8
0
  6
CONTINUOUS
 62
3
 10
3423.995332
 20
3249.555641
 11
3423.828027
 21
3249.711920
  0
LINE
  8
0
  6
CONTINUOUS
 62
3
 10
3423.828027
 20
3249.711920
 11
3423.671749
 21
3249.879225
  0
LINE
  8
0
  6
CONTINUOUS
 62
3
 10
3423.671749
 20
3249.879225
 11
3423.527120
 21
3250.056584
  0
LINE
  8
0
  6
CONTINUOUS
 62
3
 10
3423.527120
 20
3250.056584
 11
3423.459289
 21
3250.148756
  0
LINE
  8
0
  6
CONTINUOUS
 62
3
 10
3423.459289
 20
3250.148756
 11
3423.394510
 21
3250.243106
  0
LINE
  8
0
  6
CONTINUOUS
 62
3
 10
3423.394510
 20
3250.243106
 11
3423.274289
 21
3250.437896
  0
LINE
  8
0
  6
CONTINUOUS
 62
3
 10
3423.274289
 20
3250.437896
 11
3423.218940
 21
3250.538114
  0
LINE
  8
0
  6
CONTINUOUS
 62
3
 10
3423.218940
 20
3250.538114
 11
3423.166827
 21
3250.640064
  0
LINE
  8
0
  6
CONTINUOUS
 62
3
 10
3423.166827
 20
3250.640064
 11
3423.072494
 21
3250.848715
  0
LINE
  8
0
  6
CONTINUOUS
 62
3
 10
3423.072494
 20
3250.848715
 11
3423.030366
 21
3250.955193
  0
LINE
  8
0
  6
CONTINUOUS
 62
3
 10
3423.030366
 20
3250.955193
 11
3422.991659
 21
3251.062957
  0
LINE
  8
0
  6
CONTINUOUS
 62
3
 10
3422.991659
 20
3251.062957
 11
3422.924692
 21
3251.281898
  0
LINE
  8
0
  6
CONTINUOUS
 62
3
 10
3422.924692
 20
3251.281898
 11
3422.896525
 21
3251.392852
  0
LINE
  8
0
  6
CONTINUOUS
 62
3
 10
3422.896525
 20
3251.392852
 11
3422.871963
 21
3251.504645
  0
LINE
  8
0
  6
CONTINUOUS
 62
3
 10
3422.871963
 20
3251.504645
 11
3422.833842
 21
3251.730305
  0
LINE
  8
0
  6
CONTINUOUS
 62
3
 10
3422.833842
 20
3251.730305
 11
3422.820375
 21
3251.843943
  0
LINE
  8
0
  6
CONTINUOUS
 62
3
 10
3422.820375
 20
3251.843943
 11
3422.810698
 21
3251.957980
  0
LINE
  8
0
  6
CONTINUOUS
 62
3
 10
3422.810698
 20
3251.957980
 11
3422.802901
 21
3252.186788
  0
LINE
  8
0
  6
CONTINUOUS
 62
3
 10
3542.802901
 20
3297.186793
 11
3426.302901
 21
3297.186793
  0
LINE
  8
0
  6
CONTINUOUS
 62
3
 10
3542.802901
 20
3297.186793
 11
3542.802901
 21
3298.101007
  0
LINE
  8
0
  6
CONTINUOUS
 62
3
 10
3542.802901
 20
3249.226133
 11
3542.802901
 21
3297.186793
  0
LINE
  8
0
  6
CONTINUOUS
 62
3
 10
3424.302901
 20
3298.101007
 11
3424.302901
 21
3477.601007
  0
LINE
  8
0
  6
CONTINUOUS
 62
3
 10
3424.302901
 20
3477.601007
 11
3542.802901
 21
3477.601007
  0
LINE
  8
0
  6
CONTINUOUS
 62
3
 10
3542.802901
 20
3477.601007
 11
3542.802901
 21
3298.101007
  0
LINE
  8
0
  6
CONTINUOUS
 62
3
 10
4358.802901
 20
3362.597969
 11
4358.802901
 21
3251.526133
  0
LINE
  8
0
  6
CONTINUOUS
 62
3
 10
4358.802901
 20
3823.147453
 11
4358.802901
 21
3521.640923
  0
LINE
  8
0
  6
CONTINUOUS
 62
3
 10
4358.802901
 20
3824.208113
 11
4358.802901
 21
3823.147453
  0
LINE
  8
0
  6
CONTINUOUS
 62
3
 10
4358.802901
 20
3824.449535
 11
4358.802901
 21
4168.686793
  0
LINE
  8
0
  6
CONTINUOUS
 62
3
 10
4455.302901
 20
3823.147453
 11
4455.302901
 21
3512.889399
  0
LINE
  8
0
  6
CONTINUOUS
 62
3
 10
4455.302901
 20
3361.264500
 11
4455.302901
 21
3344.110885
  0
LINE
  8
0
  6
CONTINUOUS
 62
3
 10
4455.302901
 20
3267.860379
 11
4455.302901
 21
3251.526133
  0
LINE
  8
0
  6
CONTINUOUS
 62
3
 10
4458.802901
 20
3825.136541
 11
4458.802901
 21
3459.318677
  0
LINE
  8
0
  6
CONTINUOUS
 62
3
 10
4458.802901
 20
3438.318677
 11
4458.802901
 21
3324.366897
  0
LINE
  8
0
  6
CONTINUOUS
 62
3
 10
4458.802901
 20
3268.698859
 11
4458.802901
 21
3254.486793
  0
LINE
  8
0
  6
CONTINUOUS
 62
3
 10
4358.802901
 20
3823.147453
 11
4455.302901
 21
3823.147453
  0
LINE
  8
0
  6
CONTINUOUS
 62
3
 10
4455.302901
 20
4167.086793
 11
4455.302901
 21
3824.449535
  0
LINE
  8
0
  6
CONTINUOUS
 62
3
 10
4455.302901
 20
3823.147454
 11
4455.302901
 21
3824.208113
  0
LINE
  8
0
  6
CONTINUOUS
 62
3
 10
4458.802901
 20
3825.136541
 11
4458.771960
 21
3824.854237
  0
LINE
  8
0
  6
CONTINUOUS
 62
3
 10
4458.771960
 20
3824.854237
 11
4458.681110
 21
3824.577648
  0
LINE
  8
0
  6
CONTINUOUS
 62
3
 10
4458.681110
 20
3824.577648
 11
4458.533308
 21
3824.311823
  0
LINE
  8
0
  6
CONTINUOUS
 62
3
 10
4458.533308
 20
3824.311823
 11
4458.331513
 21
3824.061813
  0
LINE
  8
0
  6
CONTINUOUS
 62
3
 10
4458.331513
 20
3824.061813
 11
4458.211292
 21
3823.944316
  0
LINE
  8
0
  6
CONTINUOUS
 62
3
 10
4458.211292
 20
3823.944316
 11
4458.078682
 21
3823.832667
  0
LINE
  8
0
  6
CONTINUOUS
 62
3
 10
4458.078682
 20
3823.832667
 11
4457.934053
 21
3823.727495
  0
LINE
  8
0
  6
CONTINUOUS
 62
3
 10
4457.934053
 20
3823.727495
 11
4457.777775
 21
3823.629434
  0
LINE
  8
0
  6
CONTINUOUS
 62
3
 10
4457.777775
 20
3823.629434
 11
4457.610470
 21
3823.539170
  0
LINE
  8
0
  6
CONTINUOUS
 62
3
 10
4457.610470
 20
3823.539170
 11
4457.433110
 21
3823.457142
  0
LINE
  8
0
  6
CONTINUOUS
 62
3
 10
4457.433110
 20
3823.457142
 11
4457.246589
 21
3823.383614
  0
LINE
  8
0
  6
CONTINUOUS
 62
3
 10
4457.246589
 20
3823.383614
 11
4457.051798
 21
3823.318846
  0
LINE
  8
0
  6
CONTINUOUS
 62
3
 10
4457.051798
 20
3823.318846
 11
4456.951581
 21
3823.289829
  0
LINE
  8
0
  6
CONTINUOUS
 62
3
 10
4456.951581
 20
3823.289829
 11
4456.849631
 21
3823.263101
  0
LINE
  8
0
  6
CONTINUOUS
 62
3
 10
4456.849631
 20
3823.263101
 11
4456.640979
 21
3823.216638
  0
LINE
  8
0
  6
CONTINUOUS
 62
3
 10
4456.640979
 20
3823.216638
 11
4456.534501
 21
3823.196970
  0
LINE
  8
0
  6
CONTINUOUS
 62
3
 10
4456.534501
 20
3823.196970
 11
4456.426737
 21
3823.179720
  0
LINE
  8
0
  6
CONTINUOUS
 62
3
 10
4456.426737
 20
3823.179720
 11
4456.207796
 21
3823.152608
  0
LINE
  8
0
  6
CONTINUOUS
 62
3
 10
4456.207796
 20
3823.152608
 11
4456.096843
 21
3823.142812
  0
LINE
  8
0
  6
CONTINUOUS
 62
3
 10
4456.096843
 20
3823.142812
 11
4455.985049
 21
3823.135565
  0
LINE
  8
0
  6
CONTINUOUS
 62
3
 10
4455.985049
 20
3823.135565
 11
4455.759389
 21
3823.128850
  0
LINE
  8
0
  6
CONTINUOUS
 62
3
 10
4455.759389
 20
3823.128850
 11
4455.645752
 21
3823.129447
  0
LINE
  8
0
  6
CONTINUOUS
 62
3
 10
4455.645752
 20
3823.129447
 11
4455.531715
 21
3823.132725
  0
LINE
  8
0
  6
CONTINUOUS
 62
3
 10
4455.531715
 20
3823.132725
 11
4455.302906
 21
3823.147453
  0
LINE
  8
0
  6
CONTINUOUS
 62
3
 10
4455.302901
 20
4168.686793
 11
4455.759389
 21
4168.655853
  0
LINE
  8
0
  6
CONTINUOUS
 62
3
 10
4455.759389
 20
4168.655853
 11
4456.207796
 21
4168.565002
  0
LINE
  8
0
  6
CONTINUOUS
 62
3
 10
4456.207796
 20
4168.565002
 11
4456.640979
 21
4168.417200
  0
LINE
  8
0
  6
CONTINUOUS
 62
3
 10
4456.640979
 20
4168.417200
 11
4456.849631
 21
4168.322867
  0
LINE
  8
0
  6
CONTINUOUS
 62
3
 10
4456.849631
 20
4168.322867
 11
4457.051798
 21
4168.215405
  0
LINE
  8
0
  6
CONTINUOUS
 62
3
 10
4457.051798
 20
4168.215405
 11
4457.246589
 21
4168.095185
  0
LINE
  8
0
  6
CONTINUOUS
 62
3
 10
4457.246589
 20
4168.095185
 11
4457.433110
 21
4167.962575
  0
LINE
  8
0
  6
CONTINUOUS
 62
3
 10
4457.433110
 20
4167.962575
 11
4457.610470
 21
4167.817946
  0
LINE
  8
0
  6
CONTINUOUS
 62
3
 10
4457.610470
 20
4167.817946
 11
4457.777775
 21
4167.661667
  0
LINE
  8
0
  6
CONTINUOUS
 62
3
 10
4457.777775
 20
4167.661667
 11
4457.934053
 21
4167.494362
  0
LINE
  8
0
  6
CONTINUOUS
 62
3
 10
4457.934053
 20
4167.494362
 11
4458.078682
 21
4167.317003
  0
LINE
  8
0
  6
CONTINUOUS
 62
3
 10
4458.078682
 20
4167.317003
 11
4458.146513
 21
4167.224831
  0
LINE
  8
0
  6
CONTINUOUS
 62
3
 10
4458.146513
 20
4167.224831
 11
4458.211292
 21
4167.130481
  0
LINE
  8
0
  6
CONTINUOUS
 62
3
 10
4458.211292
 20
4167.130481
 11
4458.331513
 21
4166.935690
  0
LINE
  8
0
  6
CONTINUOUS
 62
3
 10
4458.331513
 20
4166.935690
 11
4458.386862
 21
4166.835473
  0
LINE
  8
0
  6
CONTINUOUS
 62
3
 10
4458.386862
 20
4166.835473
 11
4458.438975
 21
4166.733523
  0
LINE
  8
0
  6
CONTINUOUS
 62
3
 10
4458.438975
 20
4166.733523
 11
4458.533308
 21
4166.524872
  0
LINE
  8
0
  6
CONTINUOUS
 62
3
 10
4458.533308
 20
4166.524872
 11
4458.575436
 21
4166.418394
  0
LINE
  8
0
  6
CONTINUOUS
 62
3
 10
4458.575436
 20
4166.418394
 11
4458.614143
 21
4166.310629
  0
LINE
  8
0
  6
CONTINUOUS
 62
3
 10
4458.614143
 20
4166.310629
 11
4458.681110
 21
4166.091688
  0
LINE
  8
0
  6
CONTINUOUS
 62
3
 10
4458.681110
 20
4166.091688
 11
4458.709277
 21
4165.980735
  0
LINE
  8
0
  6
CONTINUOUS
 62
3
 10
4458.709277
 20
4165.980735
 11
4458.733839
 21
4165.868942
  0
LINE
  8
0
  6
CONTINUOUS
 62
3
 10
4458.733839
 20
4165.868942
 11
4458.771960
 21
4165.643282
  0
LINE
  8
0
  6
CONTINUOUS
 62
3
 10
4458.771960
 20
4165.643282
 11
4458.785427
 21
4165.529644
  0
LINE
  8
0
  6
CONTINUOUS
 62
3
 10
4458.785427
 20
4165.529644
 11
4458.795104
 21
4165.415607
  0
LINE
  8
0
  6
CONTINUOUS
 62
3
 10
4458.795104
 20
4165.415607
 11
4458.802901
 21
4165.186799
  0
LINE
  8
0
  6
CONTINUOUS
 62
3
 10
4455.302901
 20
4168.686793
 11
4455.302901
 21
4167.086793
  0
LINE
  8
0
  6
CONTINUOUS
 62
3
 10
4458.802901
 20
4165.186793
 11
4458.802901
 21
3825.136541
  0
LINE
  8
0
  6
CONTINUOUS
 62
3
 10
4364.802901
 20
3517.398283
 11
4358.802901
 21
3521.640923
  0
LINE
  8
0
  6
CONTINUOUS
 62
3
 10
4364.802901
 20
3517.398283
 11
4440.802901
 21
3517.398283
  0
LINE
  8
0
  6
CONTINUOUS
 62
3
 10
4440.802901
 20
3517.398283
 11
4440.802901
 21
3513.359028
  0
LINE
  8
0
  6
CONTINUOUS
 62
3
 10
4381.302901
 20
4168.686793
 11
4455.302901
 21
4168.686793
  0
LINE
  8
0
  6
CONTINUOUS
 62
3
 10
4358.802901
 20
3251.526133
 11
4358.802901
 21
3250.986793
  0
LINE
  8
0
  6
CONTINUOUS
 62
3
 10
4358.802901
 20
3824.208113
 11
4358.802901
 21
3824.449535
  0
LINE
  8
0
  6
CONTINUOUS
 62
3
 10
4358.802901
 20
3250.986793
 11
4455.302901
 21
3250.986793
  0
LINE
  8
0
  6
CONTINUOUS
 62
3
 10
4455.302901
 20
3250.986793
 11
4455.302901
 21
3251.526132
  0
LINE
  8
0
  6
CONTINUOUS
 62
3
 10
4458.802901
 20
3254.486793
 11
4458.771960
 21
3254.030305
  0
LINE
  8
0
  6
CONTINUOUS
 62
3
 10
4458.771960
 20
3254.030305
 11
4458.681110
 21
3253.581898
  0
LINE
  8
0
  6
CONTINUOUS
 62
3
 10
4458.681110
 20
3253.581898
 11
4458.533308
 21
3253.148715
  0
LINE
  8
0
  6
CONTINUOUS
 62
3
 10
4458.533308
 20
3253.148715
 11
4458.438975
 21
3252.940064
  0
LINE
  8
0
  6
CONTINUOUS
 62
3
 10
4458.438975
 20
3252.940064
 11
4458.331513
 21
3252.737896
  0
LINE
  8
0
  6
CONTINUOUS
 62
3
 10
4458.331513
 20
3252.737896
 11
4458.211292
 21
3252.543106
  0
LINE
  8
0
  6
CONTINUOUS
 62
3
 10
4458.211292
 20
3252.543106
 11
4458.078682
 21
3252.356584
  0
LINE
  8
0
  6
CONTINUOUS
 62
3
 10
4458.078682
 20
3252.356584
 11
4457.934053
 21
3252.179225
  0
LINE
  8
0
  6
CONTINUOUS
 62
3
 10
4457.934053
 20
3252.179225
 11
4457.777775
 21
3252.011920
  0
LINE
  8
0
  6
CONTINUOUS
 62
3
 10
4457.777775
 20
3252.011920
 11
4457.610470
 21
3251.855641
  0
LINE
  8
0
  6
CONTINUOUS
 62
3
 10
4457.610470
 20
3251.855641
 11
4457.433110
 21
3251.711012
  0
LINE
  8
0
  6
CONTINUOUS
 62
3
 10
4457.433110
 20
3251.711012
 11
4457.340939
 21
3251.643182
  0
LINE
  8
0
  6
CONTINUOUS
 62
3
 10
4457.340939
 20
3251.643182
 11
4457.246589
 21
3251.578402
  0
LINE
  8
0
  6
CONTINUOUS
 62
3
 10
4457.246589
 20
3251.578402
 11
4457.051798
 21
3251.458182
  0
LINE
  8
0
  6
CONTINUOUS
 62
3
 10
4457.051798
 20
3251.458182
 11
4456.951581
 21
3251.402833
  0
LINE
  8
0
  6
CONTINUOUS
 62
3
 10
4456.951581
 20
3251.402833
 11
4456.849631
 21
3251.350720
  0
LINE
  8
0
  6
CONTINUOUS
 62
3
 10
4456.849631
 20
3251.350720
 11
4456.640979
 21
3251.256386
  0
LINE
  8
0
  6
CONTINUOUS
 62
3
 10
4456.640979
 20
3251.256386
 11
4456.534501
 21
3251.214258
  0
LINE
  8
0
  6
CONTINUOUS
 62
3
 10
4456.534501
 20
3251.214258
 11
4456.426737
 21
3251.175551
  0
LINE
  8
0
  6
CONTINUOUS
 62
3
 10
4456.426737
 20
3251.175551
 11
4456.207796
 21
3251.108585
  0
LINE
  8
0
  6
CONTINUOUS
 62
3
 10
4456.207796
 20
3251.108585
 11
4456.096843
 21
3251.080417
  0
LINE
  8
0
  6
CONTINUOUS
 62
3
 10
4456.096843
 20
3251.080417
 11
4455.985049
 21
3251.055856
  0
LINE
  8
0
  6
CONTINUOUS
 62
3
 10
4455.985049
 20
3251.055856
 11
4455.759389
 21
3251.017734
  0
LINE
  8
0
  6
CONTINUOUS
 62
3
 10
4455.759389
 20
3251.017734
 11
4455.645752
 21
3251.004267
  0
LINE
  8
0
  6
CONTINUOUS
 62
3
 10
4455.645752
 20
3251.004267
 11
4455.531715
 21
3250.994591
  0
LINE
  8
0
  6
CONTINUOUS
 62
3
 10
4455.531715
 20
3250.994591
 11
4455.302906
 21
3250.986793
  0
LINE
  8
0
  6
CONTINUOUS
 62
3
 10
4455.302901
 20
3824.449535
 11
4455.302901
 21
3824.208113
  0
LINE
  8
0
  6
CONTINUOUS
 62
3
 10
4332.102901
 20
3279.316793
 11
4332.302901
 21
3279.316793
  0
LINE
  8
0
  6
CONTINUOUS
 62
3
 10
4341.302901
 20
3274.816793
 11
4333.802901
 21
3274.816793
  0
LINE
  8
0
  6
CONTINUOUS
 62
3
 10
4332.302901
 20
3274.816793
 11
4332.102901
 21
3274.816793
  0
LINE
  8
0
  6
CONTINUOUS
 62
3
 10
4345.802901
 20
3257.816793
 11
4343.802901
 21
3257.816793
  0
LINE
  8
0
  6
CONTINUOUS
 62
3
 10
4343.802901
 20
3272.316793
 11
4343.802901
 21
3257.816793
  0
ARC
  8
0
  6
CONTINUOUS
 62
3
 10
4341.302901
 20
3272.316793
 40
2.500000
 50
0.000000
 51
90.000000
  0
LINE
  8
0
  6
CONTINUOUS
 62
3
 10
4102.302901
 20
3450.587793
 11
4343.302901
 21
3450.587793
  0
LINE
  8
0
  6
CONTINUOUS
 62
3
 10
3558.302901
 20
3450.587793
 11
3799.302901
 21
3450.587793
  0
LINE
  8
0
  6
CONTINUOUS
 62
3
 10
3558.302901
 20
3450.587793
 11
3558.302901
 21
3455.087793
  0
LINE
  8
0
  6
CONTINUOUS
 62
3
 10
4343.302901
 20
3450.587793
 11
4343.302901
 21
3455.087793
  0
LINE
  8
0
  6
CONTINUOUS
 62
3
 10
3558.302901
 20
3455.087793
 11
3558.302901
 21
3476.552259
  0
LINE
  8
0
  6
CONTINUOUS
 62
3
 10
4343.302901
 20
3455.087793
 11
4343.302901
 21
3476.552259
  0
LINE
  8
0
  6
CONTINUOUS
 62
3
 10
3562.802901
 20
3478.320026
 11
3799.302901
 21
3478.320026
  0
LINE
  8
0
  6
CONTINUOUS
 62
3
 10
3799.302901
 20
3476.552259
 11
3562.802901
 21
3476.552259
  0
LINE
  8
0
  6
CONTINUOUS
 62
3
 10
3562.802901
 20
3821.550754
 11
4338.802901
 21
3821.550754
  0
LINE
  8
0
  6
CONTINUOUS
 62
3
 10
4338.802901
 20
3818.368774
 11
3562.802901
 21
3818.368774
  0
LINE
  8
0
  6
CONTINUOUS
 62
3
 10
4338.802901
 20
3476.552259
 11
4102.302901
 21
3476.552259
  0
LINE
  8
0
  6
CONTINUOUS
 62
3
 10
3562.802901
 20
3478.320026
 11
3562.802901
 21
3476.552259
  0
LINE
  8
0
  6
CONTINUOUS
 62
3
 10
3562.802901
 20
3476.552259
 11
3558.302901
 21
3476.552259
  0
LINE
  8
0
  6
CONTINUOUS
 62
3
 10
3558.302901
 20
3821.474217
 11
3558.302901
 21
3481.502007
  0
POLYLINE
  8
0
  6
CONTINUOUS
 62
3
 66
1
 70
2
  0
VERTEX
  8
0
 10
3558.302901
 20
3481.502007
 70
0
 42
0.397078
  0
VERTEX
  8
0
 10
3562.802901
 20
3478.320026
 70
0
  0
SEQEND
  0
LINE
  8
0
  6
CONTINUOUS
 62
3
 10
3562.802901
 20
3818.368774
 11
3562.802901
 21
3478.320026
  0
LINE
  8
0
  6
CONTINUOUS
 62
3
 10
4338.802901
 20
3821.550754
 11
4338.802901
 21
4160.186793
  0
LINE
  8
0
  6
CONTINUOUS
 62
3
 10
4338.802901
 20
3478.320026
 11
4338.802901
 21
3818.368774
  0
LINE
  8
0
  6
CONTINUOUS
 62
3
 10
4343.302901
 20
3476.552259
 11
4338.802901
 21
3476.552259
  0
LINE
  8
0
  6
CONTINUOUS
 62
3
 10
4338.802901
 20
3476.552259
 11
4338.802901
 21
3478.320026
  0
LINE
  8
0
  6
CONTINUOUS
 62
3
 10
4338.802901
 20
4160.186793
 11
3562.802901
 21
4160.186793
  0
LINE
  8
0
  6
CONTINUOUS
 62
3
 10
3558.302901
 20
4154.686793
 11
3558.302901
 21
3821.658993
  0
LINE
  8
0
  6
CONTINUOUS
 62
3
 10
3562.802901
 20
3821.550754
 11
3562.802901
 21
4160.186793
  0
ARC
  8
0
  6
CONTINUOUS
 62
3
 10
3829.228637
 20
3362.667054
 40
10.000000
 50
180.000000
 51
263.523852
  0
ARC
  8
0
  6
CONTINUOUS
 62
3
 10
4072.228637
 20
3362.667054
 40
10.000000
 50
277.357588
 51
0.000000
  0
LINE
  8
0
  6
CONTINUOUS
 62
3
 10
3819.228637
 20
3362.667054
 11
3819.228637
 21
3369.906816
  0
LINE
  8
0
  6
CONTINUOUS
 62
3
 10
4082.228637
 20
3369.881766
 11
4082.228637
 21
3362.667054
  0
LINE
  8
0
  6
CONTINUOUS
 62
3
 10
4332.102901
 20
3434.596559
 11
4332.102901
 21
3431.096559
  0
LINE
  8
0
  6
CONTINUOUS
 62
3
 10
4332.102901
 20
3434.596559
 11
4102.302901
 21
3434.596559
  0
LINE
  8
0
  6
CONTINUOUS
 62
3
 10
3565.502901
 20
3434.596559
 11
3563.802901
 21
3432.896559
  0
LINE
  8
0
  6
CONTINUOUS
 62
3
 10
3799.302901
 20
3434.596559
 11
3565.502901
 21
3434.596559
  0
LINE
  8
0
  6
CONTINUOUS
 62
3
 10
3799.302901
 20
3431.096559
 11
3567.302901
 21
3431.096559
  0
LINE
  8
0
  6
CONTINUOUS
 62
3
 10
4332.102901
 20
3288.667054
 11
4332.102901
 21
3431.096559
  0
LINE
  8
0
  6
CONTINUOUS
 62
3
 10
4332.102901
 20
3239.121686
 11
4332.102901
 21
3286.192181
  0
LINE
  8
0
  6
CONTINUOUS
 62
3
 10
4332.102901
 20
3288.667054
 11
4332.102901
 21
3286.192181
  0
LINE
  8
0
  6
CONTINUOUS
 62
3
 10
4332.102901
 20
3286.192181
 11
3567.302901
 21
3286.192181
  0
LINE
  8
0
  6
CONTINUOUS
 62
3
 10
3567.302901
 20
3239.121686
 11
4330.302901
 21
3239.121686
  0
LINE
  8
0
  6
CONTINUOUS
 62
3
 10
3567.302901
 20
3288.667054
 11
4332.102901
 21
3288.667054
  0
LINE
  8
0
  6
CONTINUOUS
 62
3
 10
4330.302901
 20
3238.096559
 11
3567.302901
 21
3238.096559
  0
LINE
  8
0
  6
CONTINUOUS
 62
3
 10
3563.802901
 20
3432.896559
 11
3563.802901
 21
3288.767143
  0
LINE
  8
0
  6
CONTINUOUS
 62
3
 10
3567.302901
 20
3288.667054
 11
3567.302901
 21
3431.096559
  0
LINE
  8
0
  6
CONTINUOUS
 62
3
 10
4332.302901
 20
3240.470214
 11
4333.802901
 21
3240.470214
  0
LINE
  8
0
  6
CONTINUOUS
 62
3
 10
4333.802901
 20
3287.394262
 11
4333.802901
 21
3288.667054
  0
LINE
  8
0
  6
CONTINUOUS
 62
3
 10
4332.302901
 20
3288.667054
 11
4332.302901
 21
3287.394262
  0
LINE
  8
0
  6
CONTINUOUS
 62
3
 10
4333.802901
 20
3240.470214
 11
4333.802901
 21
3287.394262
  0
LINE
  8
0
  6
CONTINUOUS
 62
3
 10
4332.302901
 20
3287.394262
 11
4332.302901
 21
3240.470214
  0
LINE
  8
0
  6
CONTINUOUS
 62
3
 10
4333.802901
 20
3288.667054
 11
4333.802901
 21
3433.096559
  0
LINE
  8
0
  6
CONTINUOUS
 62
3
 10
4332.302901
 20
3433.096559
 11
4332.302901
 21
3288.667054
  0
LINE
  8
0
  6
CONTINUOUS
 62
3
 10
3567.302901
 20
3286.192181
 11
3567.302901
 21
3239.121686
  0
LINE
  8
0
  6
CONTINUOUS
 62
3
 10
3563.802901
 20
3288.571005
 11
3563.802901
 21
3241.692609
  0
LINE
  8
0
  6
CONTINUOUS
 62
3
 10
4330.302901
 20
3239.121686
 11
4332.102901
 21
3239.121686
  0
ARC
  8
0
  6
CONTINUOUS
 62
3
 10
4330.302901
 20
3241.596559
 40
3.500000
 50
270.000000
 51
341.227395
  0
LINE
  8
0
  6
CONTINUOUS
 62
3
 10
4332.302901
 20
3433.096559
 11
4333.802901
 21
3433.096559
  0
LINE
  8
0
  6
CONTINUOUS
 62
3
 10
3563.802901
 20
3241.692609
 11
3563.802901
 21
3241.596559
  0
LINE
  8
0
  6
CONTINUOUS
 62
3
 10
3563.802901
 20
3241.596560
 11
3563.803841
 21
3241.596560
  0
LINE
  8
0
  6
CONTINUOUS
 62
3
 10
3567.302901
 20
3238.096560
 11
3566.846272
 21
3238.127521
  0
LINE
  8
0
  6
CONTINUOUS
 62
3
 10
3566.846272
 20
3238.127521
 11
3566.397747
 21
3238.218427
  0
LINE
  8
0
  6
CONTINUOUS
 62
3
 10
3566.397747
 20
3238.218427
 11
3565.964474
 21
3238.366307
  0
LINE
  8
0
  6
CONTINUOUS
 62
3
 10
3565.964474
 20
3238.366307
 11
3565.755790
 21
3238.460684
  0
LINE
  8
0
  6
CONTINUOUS
 62
3
 10
3565.755790
 20
3238.460684
 11
3565.553598
 21
3238.568191
  0
LINE
  8
0
  6
CONTINUOUS
 62
3
 10
3565.553598
 20
3238.568191
 11
3565.358791
 21
3238.688458
  0
LINE
  8
0
  6
CONTINUOUS
 62
3
 10
3565.358791
 20
3238.688458
 11
3565.172263
 21
3238.821111
  0
LINE
  8
0
  6
CONTINUOUS
 62
3
 10
3565.172263
 20
3238.821111
 11
3564.994907
 21
3238.965782
  0
LINE
  8
0
  6
CONTINUOUS
 62
3
 10
3564.994907
 20
3238.965782
 11
3564.827616
 21
3239.122097
  0
LINE
  8
0
  6
CONTINUOUS
 62
3
 10
3564.827616
 20
3239.122097
 11
3564.671362
 21
3239.289432
  0
LINE
  8
0
  6
CONTINUOUS
 62
3
 10
3564.671362
 20
3239.289432
 11
3564.526766
 21
3239.466812
  0
LINE
  8
0
  6
CONTINUOUS
 62
3
 10
3564.526766
 20
3239.466812
 11
3564.458954
 21
3239.558990
  0
LINE
  8
0
  6
CONTINUOUS
 62
3
 10
3564.458954
 20
3239.558990
 11
3564.394196
 21
3239.653344
  0
LINE
  8
0
  6
CONTINUOUS
 62
3
 10
3564.394196
 20
3239.653344
 11
3564.274019
 21
3239.848134
  0
LINE
  8
0
  6
CONTINUOUS
 62
3
 10
3564.274019
 20
3239.848134
 11
3564.218693
 21
3239.948347
  0
LINE
  8
0
  6
CONTINUOUS
 62
3
 10
3564.218693
 20
3239.948347
 11
3564.166604
 21
3240.050289
  0
LINE
  8
0
  6
CONTINUOUS
 62
3
 10
3564.166604
 20
3240.050289
 11
3564.072317
 21
3240.258916
  0
LINE
  8
0
  6
CONTINUOUS
 62
3
 10
3564.072317
 20
3240.258916
 11
3564.030213
 21
3240.365377
  0
LINE
  8
0
  6
CONTINUOUS
 62
3
 10
3564.030213
 20
3240.365377
 11
3563.991528
 21
3240.473121
  0
LINE
  8
0
  6
CONTINUOUS
 62
3
 10
3563.991528
 20
3240.473121
 11
3563.924603
 21
3240.692012
  0
LINE
  8
0
  6
CONTINUOUS
 62
3
 10
3563.924603
 20
3240.692012
 11
3563.896454
 21
3240.802935
  0
LINE
  8
0
  6
CONTINUOUS
 62
3
 10
3563.896454
 20
3240.802935
 11
3563.871910
 21
3240.914694
  0
LINE
  8
0
  6
CONTINUOUS
 62
3
 10
3563.871910
 20
3240.914694
 11
3563.833817
 21
3241.140275
  0
LINE
  8
0
  6
CONTINUOUS
 62
3
 10
3563.833817
 20
3241.140275
 11
3563.820361
 21
3241.253868
  0
LINE
  8
0
  6
CONTINUOUS
 62
3
 10
3563.820361
 20
3241.253868
 11
3563.810692
 21
3241.367856
  0
LINE
  8
0
  6
CONTINUOUS
 62
3
 10
3563.810692
 20
3241.367856
 11
3563.802901
 21
3241.596554
  0
LINE
  8
0
  6
CONTINUOUS
 62
3
 10
3567.302901
 20
3238.096559
 11
3567.302901
 21
3239.121686
  0
LINE
  8
0
  6
CONTINUOUS
 62
3
 10
3563.802901
 20
3288.571005
 11
3563.802901
 21
3288.767143
  0
LINE
  8
0
  6
CONTINUOUS
 62
3
 10
3567.302901
 20
3286.192181
 11
3567.302901
 21
3288.667054
  0
LINE
  8
0
  6
CONTINUOUS
 62
3
 10
4073.802901
 20
3362.880311
 11
4073.802901
 21
3362.873984
  0
LINE
  8
0
  6
CONTINUOUS
 62
3
 10
3827.802901
 20
3362.873984
 11
3827.802901
 21
3362.880311
  0
LINE
  8
0
  6
CONTINUOUS
 62
3
 10
3827.802901
 20
3362.880311
 11
3827.802901
 21
3368.387829
  0
LINE
  8
0
  6
CONTINUOUS
 62
3
 10
4073.802901
 20
3362.880311
 11
4073.802901
 21
3368.387829
  0
LINE
  8
0
  6
CONTINUOUS
 62
3
 10
3827.802901
 20
3368.387829
 11
3836.302901
 21
3368.387829
  0
LINE
  8
0
  6
CONTINUOUS
 62
3
 10
4066.302901
 20
3368.387829
 11
4073.802901
 21
3368.387829
  0
ARC
  8
0
  6
CONTINUOUS
 62
3
 10
3827.802901
 20
3370.387829
 40
2.000000
 50
180.000000
 51
270.000000
  0
ARC
  8
0
  6
CONTINUOUS
 62
3
 10
4073.802901
 20
3370.387829
 40
2.000000
 50
270.000000
 51
0.000000
  0
LINE
  8
0
  6
CONTINUOUS
 62
3
 10
4102.302901
 20
3458.953345
 11
4102.302901
 21
3459.798344
  0
LINE
  8
0
  6
CONTINUOUS
 62
3
 10
4079.302901
 20
3480.387829
 11
4079.302901
 21
3479.542825
  0
LINE
  8
0
  6
CONTINUOUS
 62
3
 10
4079.302901
 20
3369.543069
 11
4079.292296
 21
3369.542376
  0
LINE
  8
0
  6
CONTINUOUS
 62
3
 10
4079.292296
 20
3369.542376
 11
4079.281690
 21
3369.541706
  0
LINE
  8
0
  6
CONTINUOUS
 62
3
 10
4079.281690
 20
3369.541706
 11
4079.271083
 21
3369.541057
  0
LINE
  8
0
  6
CONTINUOUS
 62
3
 10
4079.271083
 20
3369.541057
 11
4079.260475
 21
3369.540430
  0
LINE
  8
0
  6
CONTINUOUS
 62
3
 10
4079.260475
 20
3369.540430
 11
4079.249866
 21
3369.539824
  0
LINE
  8
0
  6
CONTINUOUS
 62
3
 10
4079.249866
 20
3369.539824
 11
4079.239257
 21
3369.539241
  0
LINE
  8
0
  6
CONTINUOUS
 62
3
 10
4079.239257
 20
3369.539241
 11
4079.228647
 21
3369.538679
  0
LINE
  8
0
  6
CONTINUOUS
 62
3
 10
4079.228647
 20
3369.538679
 11
4079.218046
 21
3369.538140
  0
LINE
  8
0
  6
CONTINUOUS
 62
3
 10
3799.302901
 20
3459.798350
 11
3799.302901
 21
3458.953350
  0
LINE
  8
0
  6
CONTINUOUS
 62
3
 10
3822.302901
 20
3480.466473
 11
3822.302901
 21
3479.542825
  0
LINE
  8
0
  6
CONTINUOUS
 62
3
 10
3822.387766
 20
3369.538139
 11
3822.377155
 21
3369.538679
  0
LINE
  8
0
  6
CONTINUOUS
 62
3
 10
3822.377155
 20
3369.538679
 11
3822.366545
 21
3369.539241
  0
LINE
  8
0
  6
CONTINUOUS
 62
3
 10
3822.366545
 20
3369.539241
 11
3822.355936
 21
3369.539824
  0
LINE
  8
0
  6
CONTINUOUS
 62
3
 10
3822.355936
 20
3369.539824
 11
3822.345327
 21
3369.540430
  0
LINE
  8
0
  6
CONTINUOUS
 62
3
 10
3822.345327
 20
3369.540430
 11
3822.334719
 21
3369.541057
  0
LINE
  8
0
  6
CONTINUOUS
 62
3
 10
3822.334719
 20
3369.541057
 11
3822.324112
 21
3369.541706
  0
LINE
  8
0
  6
CONTINUOUS
 62
3
 10
3822.324112
 20
3369.541706
 11
3822.313506
 21
3369.542376
  0
LINE
  8
0
  6
CONTINUOUS
 62
3
 10
3822.313506
 20
3369.542376
 11
3822.302911
 21
3369.543068
  0
LINE
  8
0
  6
CONTINUOUS
 62
3
 10
4102.302901
 20
3458.953344
 11
4102.302901
 21
3390.132589
  0
LINE
  8
0
  6
CONTINUOUS
 62
3
 10
3799.302901
 20
3390.132589
 11
3799.302901
 21
3458.953344
  0
LINE
  8
0
  6
CONTINUOUS
 62
3
 10
3822.387766
 20
3369.538139
 11
3822.673743
 21
3369.529111
  0
LINE
  8
0
  6
CONTINUOUS
 62
3
 10
3822.673743
 20
3369.529111
 11
3822.956847
 21
3369.530162
  0
LINE
  8
0
  6
CONTINUOUS
 62
3
 10
3822.956847
 20
3369.530162
 11
3823.235051
 21
3369.540820
  0
LINE
  8
0
  6
CONTINUOUS
 62
3
 10
3823.235051
 20
3369.540820
 11
3823.506325
 21
3369.560616
  0
LINE
  8
0
  6
CONTINUOUS
 62
3
 10
3823.506325
 20
3369.560616
 11
3823.768640
 21
3369.589073
  0
LINE
  8
0
  6
CONTINUOUS
 62
3
 10
3823.768640
 20
3369.589073
 11
3824.020042
 21
3369.625515
  0
LINE
  8
0
  6
CONTINUOUS
 62
3
 10
3824.020042
 20
3369.625515
 11
3824.259047
 21
3369.668977
  0
LINE
  8
0
  6
CONTINUOUS
 62
3
 10
3824.259047
 20
3369.668977
 11
3824.484278
 21
3369.718481
  0
LINE
  8
0
  6
CONTINUOUS
 62
3
 10
3824.484278
 20
3369.718481
 11
3824.694356
 21
3369.773049
  0
LINE
  8
0
  6
CONTINUOUS
 62
3
 10
3824.694356
 20
3369.773049
 11
3824.887907
 21
3369.831700
  0
LINE
  8
0
  6
CONTINUOUS
 62
3
 10
3824.887907
 20
3369.831700
 11
3825.063911
 21
3369.893326
  0
LINE
  8
0
  6
CONTINUOUS
 62
3
 10
3825.063911
 20
3369.893326
 11
3825.221747
 21
3369.956730
  0
LINE
  8
0
  6
CONTINUOUS
 62
3
 10
3825.221747
 20
3369.956730
 11
3825.360665
 21
3370.020715
  0
LINE
  8
0
  6
CONTINUOUS
 62
3
 10
3825.360665
 20
3370.020715
 11
3825.480022
 21
3370.084028
  0
LINE
  8
0
  6
CONTINUOUS
 62
3
 10
3825.480022
 20
3370.084028
 11
3825.580089
 21
3370.145556
  0
LINE
  8
0
  6
CONTINUOUS
 62
3
 10
3825.580089
 20
3370.145556
 11
3825.661203
 21
3370.204195
  0
LINE
  8
0
  6
CONTINUOUS
 62
3
 10
3825.661203
 20
3370.204195
 11
3825.723703
 21
3370.258844
  0
LINE
  8
0
  6
CONTINUOUS
 62
3
 10
3825.723703
 20
3370.258844
 11
3825.767927
 21
3370.308401
  0
LINE
  8
0
  6
CONTINUOUS
 62
3
 10
3825.767927
 20
3370.308401
 11
3825.794214
 21
3370.351763
  0
LINE
  8
0
  6
CONTINUOUS
 62
3
 10
3825.794214
 20
3370.351763
 11
3825.802901
 21
3370.387829
  0
LINE
  8
0
  6
CONTINUOUS
 62
3
 10
3825.802901
 20
3483.938103
 11
3825.802901
 21
3370.387829
  0
LINE
  8
0
  6
CONTINUOUS
 62
3
 10
3822.302901
 20
3479.542824
 11
3822.302901
 21
3369.543068
  0
LINE
  8
0
  6
CONTINUOUS
 62
3
 10
3825.802901
 20
3618.387829
 11
3825.802901
 21
3606.387829
  0
LINE
  8
0
  6
CONTINUOUS
 62
3
 10
4075.802901
 20
3606.387829
 11
4075.802901
 21
3618.387829
  0
LINE
  8
0
  6
CONTINUOUS
 62
3
 10
3825.802901
 20
3618.387829
 11
3824.302901
 21
3618.387829
  0
LINE
  8
0
  6
CONTINUOUS
 62
3
 10
3825.802901
 20
3483.938103
 11
3825.802901
 21
3606.387829
  0
LINE
  8
0
  6
CONTINUOUS
 62
3
 10
4075.802901
 20
3606.387829
 11
4075.802901
 21
3483.938103
  0
LINE
  8
0
  6
CONTINUOUS
 62
3
 10
4079.302901
 20
3369.543068
 11
4079.302901
 21
3479.542824
  0
LINE
  8
0
  6
CONTINUOUS
 62
3
 10
4079.302901
 20
3479.542824
 11
4078.964544
 21
3479.601362
  0
LINE
  8
0
  6
CONTINUOUS
 62
3
 10
4078.964544
 20
3479.601362
 11
4078.634934
 21
3479.686866
  0
LINE
  8
0
  6
CONTINUOUS
 62
3
 10
4078.634934
 20
3479.686866
 11
4078.316648
 21
3479.797776
  0
LINE
  8
0
  6
CONTINUOUS
 62
3
 10
4078.316648
 20
3479.797776
 11
4078.012263
 21
3479.932535
  0
LINE
  8
0
  6
CONTINUOUS
 62
3
 10
4078.012263
 20
3479.932535
 11
4077.724356
 21
3480.089587
  0
LINE
  8
0
  6
CONTINUOUS
 62
3
 10
4077.724356
 20
3480.089587
 11
4077.455173
 21
3480.267207
  0
LINE
  8
0
  6
CONTINUOUS
 62
3
 10
4077.455173
 20
3480.267207
 11
4077.205711
 21
3480.463493
  0
LINE
  8
0
  6
CONTINUOUS
 62
3
 10
4077.205711
 20
3480.463493
 11
4076.976665
 21
3480.676617
  0
LINE
  8
0
  6
CONTINUOUS
 62
3
 10
4076.976665
 20
3480.676617
 11
4076.870017
 21
3480.788923
  0
LINE
  8
0
  6
CONTINUOUS
 62
3
 10
4076.870017
 20
3480.788923
 11
4076.768734
 21
3480.904753
  0
LINE
  8
0
  6
CONTINUOUS
 62
3
 10
4076.768734
 20
3480.904753
 11
4076.672903
 21
3481.023878
  0
LINE
  8
0
  6
CONTINUOUS
 62
3
 10
4076.672903
 20
3481.023878
 11
4076.582613
 21
3481.146071
  0
LINE
  8
0
  6
CONTINUOUS
 62
3
 10
4076.582613
 20
3481.146071
 11
4076.497853
 21
3481.271109
  0
LINE
  8
0
  6
CONTINUOUS
 62
3
 10
4076.497853
 20
3481.271109
 11
4076.418516
 21
3481.398784
  0
LINE
  8
0
  6
CONTINUOUS
 62
3
 10
4076.418516
 20
3481.398784
 11
4076.344542
 21
3481.528892
  0
LINE
  8
0
  6
CONTINUOUS
 62
3
 10
4076.344542
 20
3481.528892
 11
4076.275873
 21
3481.661228
  0
LINE
  8
0
  6
CONTINUOUS
 62
3
 10
4076.275873
 20
3481.661228
 11
4076.212449
 21
3481.795588
  0
LINE
  8
0
  6
CONTINUOUS
 62
3
 10
4076.212449
 20
3481.795588
 11
4076.154249
 21
3481.931719
  0
LINE
  8
0
  6
CONTINUOUS
 62
3
 10
4076.154249
 20
3481.931719
 11
4076.101181
 21
3482.069411
  0
LINE
  8
0
  6
CONTINUOUS
 62
3
 10
4076.101181
 20
3482.069411
 11
4076.053080
 21
3482.208526
  0
LINE
  8
0
  6
CONTINUOUS
 62
3
 10
4076.053080
 20
3482.208526
 11
4076.009778
 21
3482.348923
  0
LINE
  8
0
  6
CONTINUOUS
 62
3
 10
4076.009778
 20
3482.348923
 11
4075.971112
 21
3482.490463
  0
LINE
  8
0
  6
CONTINUOUS
 62
3
 10
4075.971112
 20
3482.490463
 11
4075.936915
 21
3482.633008
  0
LINE
  8
0
  6
CONTINUOUS
 62
3
 10
4075.936915
 20
3482.633008
 11
4075.907021
 21
3482.776417
  0
LINE
  8
0
  6
CONTINUOUS
 62
3
 10
4075.907021
 20
3482.776417
 11
4075.881264
 21
3482.920552
  0
LINE
  8
0
  6
CONTINUOUS
 62
3
 10
4075.881264
 20
3482.920552
 11
4075.859480
 21
3483.065272
  0
LINE
  8
0
  6
CONTINUOUS
 62
3
 10
4075.859480
 20
3483.065272
 11
4075.841501
 21
3483.210440
  0
LINE
  8
0
  6
CONTINUOUS
 62
3
 10
4075.841501
 20
3483.210440
 11
4075.827163
 21
3483.355915
  0
LINE
  8
0
  6
CONTINUOUS
 62
3
 10
4075.827163
 20
3483.355915
 11
4075.816300
 21
3483.501558
  0
LINE
  8
0
  6
CONTINUOUS
 62
3
 10
4075.816300
 20
3483.501558
 11
4075.808746
 21
3483.647230
  0
LINE
  8
0
  6
CONTINUOUS
 62
3
 10
4075.808746
 20
3483.647230
 11
4075.804335
 21
3483.792786
  0
LINE
  8
0
  6
CONTINUOUS
 62
3
 10
4075.804335
 20
3483.792786
 11
4075.802901
 21
3483.938097
  0
LINE
  8
0
  6
CONTINUOUS
 62
3
 10
4075.802901
 20
3370.387829
 11
4075.802901
 21
3483.938103
  0
LINE
  8
0
  6
CONTINUOUS
 62
3
 10
4079.218036
 20
3369.538139
 11
4078.932059
 21
3369.529111
  0
LINE
  8
0
  6
CONTINUOUS
 62
3
 10
4078.932059
 20
3369.529111
 11
4078.648955
 21
3369.530162
  0
LINE
  8
0
  6
CONTINUOUS
 62
3
 10
4078.648955
 20
3369.530162
 11
4078.370751
 21
3369.540820
  0
LINE
  8
0
  6
CONTINUOUS
 62
3
 10
4078.370751
 20
3369.540820
 11
4078.099477
 21
3369.560616
  0
LINE
  8
0
  6
CONTINUOUS
 62
3
 10
4078.099477
 20
3369.560616
 11
4077.837162
 21
3369.589073
  0
LINE
  8
0
  6
CONTINUOUS
 62
3
 10
4077.837162
 20
3369.589073
 11
4077.585760
 21
3369.625515
  0
LINE
  8
0
  6
CONTINUOUS
 62
3
 10
4077.585760
 20
3369.625515
 11
4077.346755
 21
3369.668977
  0
LINE
  8
0
  6
CONTINUOUS
 62
3
 10
4077.346755
 20
3369.668977
 11
4077.121524
 21
3369.718481
  0
LINE
  8
0
  6
CONTINUOUS
 62
3
 10
4077.121524
 20
3369.718481
 11
4076.911446
 21
3369.773049
  0
LINE
  8
0
  6
CONTINUOUS
 62
3
 10
4076.911446
 20
3369.773049
 11
4076.717895
 21
3369.831700
  0
LINE
  8
0
  6
CONTINUOUS
 62
3
 10
4076.717895
 20
3369.831700
 11
4076.541891
 21
3369.893326
  0
LINE
  8
0
  6
CONTINUOUS
 62
3
 10
4076.541891
 20
3369.893326
 11
4076.384055
 21
3369.956730
  0
LINE
  8
0
  6
CONTINUOUS
 62
3
 10
4076.384055
 20
3369.956730
 11
4076.245137
 21
3370.020715
  0
LINE
  8
0
  6
CONTINUOUS
 62
3
 10
4076.245137
 20
3370.020715
 11
4076.125780
 21
3370.084028
  0
LINE
  8
0
  6
CONTINUOUS
 62
3
 10
4076.125780
 20
3370.084028
 11
4076.025713
 21
3370.145556
  0
LINE
  8
0
  6
CONTINUOUS
 62
3
 10
4076.025713
 20
3370.145556
 11
4075.944599
 21
3370.204195
  0
LINE
  8
0
  6
CONTINUOUS
 62
3
 10
4075.944599
 20
3370.204195
 11
4075.882099
 21
3370.258844
  0
LINE
  8
0
  6
CONTINUOUS
 62
3
 10
4075.882099
 20
3370.258844
 11
4075.837875
 21
3370.308401
  0
LINE
  8
0
  6
CONTINUOUS
 62
3
 10
4075.837875
 20
3370.308401
 11
4075.811588
 21
3370.351763
  0
LINE
  8
0
  6
CONTINUOUS
 62
3
 10
4075.811588
 20
3370.351763
 11
4075.802901
 21
3370.387829
  0
LINE
  8
0
  6
CONTINUOUS
 62
3
 10
3799.302901
 20
3480.466473
 11
3822.302901
 21
3480.466473
  0
LINE
  8
0
  6
CONTINUOUS
 62
3
 10
3829.302901
 20
3619.448489
 11
3811.302901
 21
3619.448489
  0
LINE
  8
0
  6
CONTINUOUS
 62
3
 10
3822.302901
 20
3618.387829
 11
3822.302901
 21
3619.448488
  0
LINE
  8
0
  6
CONTINUOUS
 62
3
 10
3822.302901
 20
3618.387829
 11
3822.302901
 21
3603.058288
  0
LINE
  8
0
  6
CONTINUOUS
 62
3
 10
3822.302901
 20
3603.058288
 11
3822.302901
 21
3543.981191
  0
LINE
  8
0
  6
CONTINUOUS
 62
3
 10
3822.302901
 20
3543.981191
 11
3822.302901
 21
3509.987829
  0
LINE
  8
0
  6
CONTINUOUS
 62
3
 10
3822.302901
 20
3509.987829
 11
3822.302901
 21
3480.466473
  0
LINE
  8
0
  6
CONTINUOUS
 62
3
 10
3824.302901
 20
3618.387829
 11
3824.298600
 21
3618.361836
  0
LINE
  8
0
  6
CONTINUOUS
 62
3
 10
3824.298600
 20
3618.361836
 11
3824.285368
 21
3618.343376
  0
LINE
  8
0
  6
CONTINUOUS
 62
3
 10
3824.285368
 20
3618.343376
 11
3824.262717
 21
3618.331706
  0
LINE
  8
0
  6
CONTINUOUS
 62
3
 10
3824.262717
 20
3618.331706
 11
3824.230154
 21
3618.326084
  0
LINE
  8
0
  6
CONTINUOUS
 62
3
 10
3824.230154
 20
3618.326084
 11
3824.187189
 21
3618.325768
  0
LINE
  8
0
  6
CONTINUOUS
 62
3
 10
3824.187189
 20
3618.325768
 11
3824.133331
 21
3618.330014
  0
LINE
  8
0
  6
CONTINUOUS
 62
3
 10
3824.133331
 20
3618.330014
 11
3824.068091
 21
3618.338079
  0
LINE
  8
0
  6
CONTINUOUS
 62
3
 10
3824.068091
 20
3618.338079
 11
3823.991044
 21
3618.349189
  0
LINE
  8
0
  6
CONTINUOUS
 62
3
 10
3823.991044
 20
3618.349189
 11
3823.902352
 21
3618.362328
  0
LINE
  8
0
  6
CONTINUOUS
 62
3
 10
3823.902352
 20
3618.362328
 11
3823.802203
 21
3618.376538
  0
LINE
  8
0
  6
CONTINUOUS
 62
3
 10
3823.802203
 20
3618.376538
 11
3823.690722
 21
3618.390862
  0
LINE
  8
0
  6
CONTINUOUS
 62
3
 10
3823.690722
 20
3618.390862
 11
3823.568422
 21
3618.404386
  0
LINE
  8
0
  6
CONTINUOUS
 62
3
 10
3823.568422
 20
3618.404386
 11
3823.436035
 21
3618.416255
  0
LINE
  8
0
  6
CONTINUOUS
 62
3
 10
3823.436035
 20
3618.416255
 11
3823.294294
 21
3618.425611
  0
LINE
  8
0
  6
CONTINUOUS
 62
3
 10
3823.294294
 20
3618.425611
 11
3823.143930
 21
3618.431596
  0
LINE
  8
0
  6
CONTINUOUS
 62
3
 10
3823.143930
 20
3618.431596
 11
3822.985834
 21
3618.433366
  0
LINE
  8
0
  6
CONTINUOUS
 62
3
 10
3822.985834
 20
3618.433366
 11
3822.821318
 21
3618.430337
  0
LINE
  8
0
  6
CONTINUOUS
 62
3
 10
3822.821318
 20
3618.430337
 11
3822.651747
 21
3618.422047
  0
LINE
  8
0
  6
CONTINUOUS
 62
3
 10
3822.651747
 20
3618.422047
 11
3822.478486
 21
3618.408033
  0
LINE
  8
0
  6
CONTINUOUS
 62
3
 10
3822.478486
 20
3618.408033
 11
3822.302905
 21
3618.387830
  0
LINE
  8
0
  6
CONTINUOUS
 62
3
 10
3799.302901
 20
3476.845152
 11
3799.302901
 21
3459.798350
  0
LINE
  8
0
  6
CONTINUOUS
 62
3
 10
3799.302901
 20
3390.132589
 11
3799.302901
 21
3382.387829
  0
LINE
  8
0
  6
CONTINUOUS
 62
3
 10
3811.302901
 20
3370.387829
 11
3822.302901
 21
3369.543068
  0
ARC
  8
0
  6
CONTINUOUS
 62
3
 10
3811.302901
 20
3382.387829
 40
12.000000
 50
180.000000
 51
270.000000
  0
ARC
  8
0
  6
CONTINUOUS
 62
3
 10
4090.302901
 20
3382.387829
 40
12.000000
 50
270.000000
 51
0.000000
  0
POLYLINE
  8
0
  6
CONTINUOUS
 62
3
 66
1
 70
2
  0
VERTEX
  8
0
 10
4102.302901
 20
3610.963208
 70
0
 42
0.246245
  0
VERTEX
  8
0
 10
4098.788183
 20
3616.963210
 70
0
 42
0.151979
  0
VERTEX
  8
0
 10
4090.302901
 20
3619.448492
 70
0
  0
SEQEND
  0
POLYLINE
  8
0
  6
CONTINUOUS
 62
3
 66
1
 70
2
  0
VERTEX
  8
0
 10
3811.302901
 20
3619.448492
 70
0
 42
0.151979
  0
VERTEX
  8
0
 10
3802.817620
 20
3616.963210
 70
0
 42
0.246245
  0
VERTEX
  8
0
 10
3799.302901
 20
3610.963208
 70
0
  0
SEQEND
  0
ARC
  8
0
  6
CONTINUOUS
 62
3
 10
4061.802901
 20
3355.387829
 40
12.000000
 50
270.000000
 51
0.000000
  0
ARC
  8
0
  6
CONTINUOUS
 62
3
 10
3839.802901
 20
3355.387829
 40
12.000000
 50
180.000000
 51
270.000000
  0
LINE
  8
0
  6
CONTINUOUS
 62
3
 10
4079.302901
 20
3480.466473
 11
4102.302901
 21
3480.466473
  0
LINE
  8
0
  6
CONTINUOUS
 62
3
 10
4090.302901
 20
3619.448489
 11
4079.302901
 21
3619.448489
  0
LINE
  8
0
  6
CONTINUOUS
 62
3
 10
4079.302901
 20
3619.448489
 11
4078.995627
 21
3619.464539
  0
LINE
  8
0
  6
CONTINUOUS
 62
3
 10
4078.995627
 20
3619.464539
 11
4078.692421
 21
3619.466313
  0
LINE
  8
0
  6
CONTINUOUS
 62
3
 10
4078.692421
 20
3619.466313
 11
4078.395672
 21
3619.454605
  0
LINE
  8
0
  6
CONTINUOUS
 62
3
 10
4078.395672
 20
3619.454605
 11
4078.107769
 21
3619.430209
  0
LINE
  8
0
  6
CONTINUOUS
 62
3
 10
4078.107769
 20
3619.430209
 11
4077.831100
 21
3619.393918
  0
LINE
  8
0
  6
CONTINUOUS
 62
3
 10
4077.831100
 20
3619.393918
 11
4077.567963
 21
3619.346735
  0
LINE
  8
0
  6
CONTINUOUS
 62
3
 10
4077.567963
 20
3619.346735
 11
4077.319916
 21
3619.290120
  0
LINE
  8
0
  6
CONTINUOUS
 62
3
 10
4077.319916
 20
3619.290120
 11
4077.088239
 21
3619.225557
  0
LINE
  8
0
  6
CONTINUOUS
 62
3
 10
4077.088239
 20
3619.225557
 11
4076.874214
 21
3619.154529
  0
LINE
  8
0
  6
CONTINUOUS
 62
3
 10
4076.874214
 20
3619.154529
 11
4076.679122
 21
3619.078518
  0
LINE
  8
0
  6
CONTINUOUS
 62
3
 10
4076.679122
 20
3619.078518
 11
4076.503862
 21
3618.999102
  0
LINE
  8
0
  6
CONTINUOUS
 62
3
 10
4076.503862
 20
3618.999102
 11
4076.348650
 21
3618.917942
  0
LINE
  8
0
  6
CONTINUOUS
 62
3
 10
4076.348650
 20
3618.917942
 11
4076.213819
 21
3618.836697
  0
LINE
  8
0
  6
CONTINUOUS
 62
3
 10
4076.213819
 20
3618.836697
 11
4076.099648
 21
3618.757123
  0
LINE
  8
0
  6
CONTINUOUS
 62
3
 10
4076.099648
 20
3618.757123
 11
4076.005397
 21
3618.680562
  0
LINE
  8
0
  6
CONTINUOUS
 62
3
 10
4076.005397
 20
3618.680562
 11
4075.930208
 21
3618.608296
  0
LINE
  8
0
  6
CONTINUOUS
 62
3
 10
4075.930208
 20
3618.608296
 11
4075.873223
 21
3618.541608
  0
LINE
  8
0
  6
CONTINUOUS
 62
3
 10
4075.873223
 20
3618.541608
 11
4075.833583
 21
3618.481779
  0
LINE
  8
0
  6
CONTINUOUS
 62
3
 10
4075.833583
 20
3618.481779
 11
4075.810428
 21
3618.430092
  0
LINE
  8
0
  6
CONTINUOUS
 62
3
 10
4075.810428
 20
3618.430092
 11
4075.802901
 21
3618.387830
  0
LINE
  8
0
  6
CONTINUOUS
 62
3
 10
4102.302901
 20
3382.387829
 11
4102.302901
 21
3390.132589
  0
LINE
  8
0
  6
CONTINUOUS
 62
3
 10
4102.302901
 20
3459.798350
 11
4102.302901
 21
3476.845152
  0
LINE
  8
0
  6
CONTINUOUS
 62
3
 10
4084.645398
 20
3370.387829
 11
4090.302901
 21
3370.387829
  0
LINE
  8
0
  6
CONTINUOUS
 62
3
 10
4102.302901
 20
3609.902548
 11
4102.302901
 21
3610.963208
  0
LINE
  8
0
  6
CONTINUOUS
 62
3
 10
4102.302901
 20
3476.845152
 11
4102.302901
 21
3609.902548
  0
LINE
  8
0
  6
CONTINUOUS
 62
3
 10
3799.302901
 20
3610.963208
 11
3799.302901
 21
3609.902548
  0
LINE
  8
0
  6
CONTINUOUS
 62
3
 10
3799.302901
 20
3609.902548
 11
3799.302901
 21
3476.845152
  0
LINE
  8
0
  6
CONTINUOUS
 62
3
 10
4061.802901
 20
3343.387829
 11
3839.802901
 21
3343.387829
  0
LINE
  8
0
  6
CONTINUOUS
 62
3
 10
4073.802901
 20
3362.873984
 11
4073.802901
 21
3355.387829
  0
LINE
  8
0
  6
CONTINUOUS
 62
3
 10
3827.802901
 20
3355.387829
 11
3827.802901
 21
3362.873984
  0
ARC
  8
0
  6
CONTINUOUS
 62
3
 10
4072.302901
 20
3616.387829
 40
3.500000
 50
0.000000
 51
90.000000
  0
LINE
  8
0
  6
CONTINUOUS
 62
3
 10
3828.302901
 20
3516.153993
 11
3828.302901
 21
3508.279613
  0
LINE
  8
0
  6
CONTINUOUS
 62
3
 10
4074.302901
 20
3516.153993
 11
3828.302901
 21
3516.153993
  0
LINE
  8
0
  6
CONTINUOUS
 62
3
 10
3828.302901
 20
3508.128739
 11
3828.302901
 21
3508.279613
  0
LINE
  8
0
  6
CONTINUOUS
 62
3
 10
3828.302901
 20
3524.541810
 11
3828.302901
 21
3524.683883
  0
LINE
  8
0
  6
CONTINUOUS
 62
3
 10
3828.302901
 20
3524.541810
 11
3828.302901
 21
3516.861045
  0
LINE
  8
0
  6
CONTINUOUS
 62
3
 10
3828.302901
 20
3516.153993
 11
3828.302901
 21
3516.861045
  0
LINE
  8
0
  6
CONTINUOUS
 62
3
 10
4074.302901
 20
3508.128739
 11
3828.302901
 21
3508.128739
  0
LINE
  8
0
  6
CONTINUOUS
 62
3
 10
4074.302901
 20
3524.683883
 11
3828.302901
 21
3524.683883
  0
LINE
  8
0
  6
CONTINUOUS
 62
3
 10
3828.302901
 20
3511.637829
 11
3827.302901
 21
3511.637829
  0
LINE
  8
0
  6
CONTINUOUS
 62
3
 10
3828.302901
 20
3521.137829
 11
3827.302901
 21
3521.137829
  0
POLYLINE
  8
0
  6
CONTINUOUS
 62
3
 66
1
 70
2
  0
VERTEX
  8
0
 10
4056.302901
 20
3355.928684
 70
0
 42
0.408920
  0
VERTEX
  8
0
 10
4066.302901
 20
3364.190954
 70
0
  0
SEQEND
  0
POLYLINE
  8
0
  6
CONTINUOUS
 62
3
 66
1
 70
2
  0
VERTEX
  8
0
 10
3836.302901
 20
3364.190954
 70
0
 42
0.408920
  0
VERTEX
  8
0
 10
3846.302901
 20
3355.928684
 70
0
  0
SEQEND
  0
LINE
  8
0
  6
CONTINUOUS
 62
3
 10
3849.802901
 20
3386.912206
 11
3857.802901
 21
3386.912206
  0
LINE
  8
0
  6
CONTINUOUS
 62
3
 10
3849.802901
 20
3362.125386
 11
3849.802901
 21
3386.912206
  0
LINE
  8
0
  6
CONTINUOUS
 62
3
 10
3857.802901
 20
3362.125386
 11
3849.802901
 21
3362.125386
  0
LINE
  8
0
  6
CONTINUOUS
 62
3
 10
3857.802901
 20
3386.912206
 11
3857.802901
 21
3362.125386
  0
LINE
  8
0
  6
CONTINUOUS
 62
3
 10
3864.802901
 20
3386.912206
 11
3872.802901
 21
3386.912206
  0
LINE
  8
0
  6
CONTINUOUS
 62
3
 10
3864.802901
 20
3362.125386
 11
3864.802901
 21
3386.912206
  0
LINE
  8
0
  6
CONTINUOUS
 62
3
 10
3872.802901
 20
3362.125386
 11
3864.802901
 21
3362.125386
  0
LINE
  8
0
  6
CONTINUOUS
 62
3
 10
3872.802901
 20
3386.912206
 11
3872.802901
 21
3362.125386
  0
LINE
  8
0
  6
CONTINUOUS
 62
3
 10
3879.802901
 20
3386.912206
 11
3887.802901
 21
3386.912206
  0
LINE
  8
0
  6
CONTINUOUS
 62
3
 10
3879.802901
 20
3362.125386
 11
3879.802901
 21
3386.912206
  0
LINE
  8
0
  6
CONTINUOUS
 62
3
 10
3887.802901
 20
3362.125386
 11
3879.802901
 21
3362.125386
  0
LINE
  8
0
  6
CONTINUOUS
 62
3
 10
3887.802901
 20
3386.912206
 11
3887.802901
 21
3362.125386
  0
LINE
  8
0
  6
CONTINUOUS
 62
3
 10
3894.802901
 20
3386.912206
 11
3902.802901
 21
3386.912206
  0
LINE
  8
0
  6
CONTINUOUS
 62
3
 10
3894.802901
 20
3362.125386
 11
3894.802901
 21
3386.912206
  0
LINE
  8
0
  6
CONTINUOUS
 62
3
 10
3902.802901
 20
3362.125386
 11
3894.802901
 21
3362.125386
  0
LINE
  8
0
  6
CONTINUOUS
 62
3
 10
3902.802901
 20
3386.912206
 11
3902.802901
 21
3362.125386
  0
LINE
  8
0
  6
CONTINUOUS
 62
3
 10
3909.802901
 20
3386.912206
 11
3917.802901
 21
3386.912206
  0
LINE
  8
0
  6
CONTINUOUS
 62
3
 10
3909.802901
 20
3362.125386
 11
3909.802901
 21
3386.912206
  0
LINE
  8
0
  6
CONTINUOUS
 62
3
 10
3917.802901
 20
3362.125386
 11
3909.802901
 21
3362.125386
  0
LINE
  8
0
  6
CONTINUOUS
 62
3
 10
3917.802901
 20
3386.912206
 11
3917.802901
 21
3362.125386
  0
LINE
  8
0
  6
CONTINUOUS
 62
3
 10
3924.802901
 20
3386.912206
 11
3932.802901
 21
3386.912206
  0
LINE
  8
0
  6
CONTINUOUS
 62
3
 10
3924.802901
 20
3362.125386
 11
3924.802901
 21
3386.912206
  0
LINE
  8
0
  6
CONTINUOUS
 62
3
 10
3932.802901
 20
3362.125386
 11
3924.802901
 21
3362.125386
  0
LINE
  8
0
  6
CONTINUOUS
 62
3
 10
3932.802901
 20
3386.912206
 11
3932.802901
 21
3362.125386
  0
LINE
  8
0
  6
CONTINUOUS
 62
3
 10
3939.802901
 20
3386.912206
 11
3947.802901
 21
3386.912206
  0
LINE
  8
0
  6
CONTINUOUS
 62
3
 10
3939.802901
 20
3362.125386
 11
3939.802901
 21
3386.912206
  0
LINE
  8
0
  6
CONTINUOUS
 62
3
 10
3947.802901
 20
3362.125386
 11
3939.802901
 21
3362.125386
  0
LINE
  8
0
  6
CONTINUOUS
 62
3
 10
3947.802901
 20
3386.912206
 11
3947.802901
 21
3362.125386
  0
LINE
  8
0
  6
CONTINUOUS
 62
3
 10
3954.802901
 20
3386.912206
 11
3962.802901
 21
3386.912206
  0
LINE
  8
0
  6
CONTINUOUS
 62
3
 10
3954.802901
 20
3362.125386
 11
3954.802901
 21
3386.912206
  0
LINE
  8
0
  6
CONTINUOUS
 62
3
 10
3962.802901
 20
3362.125386
 11
3954.802901
 21
3362.125386
  0
LINE
  8
0
  6
CONTINUOUS
 62
3
 10
3962.802901
 20
3386.912206
 11
3962.802901
 21
3362.125386
  0
LINE
  8
0
  6
CONTINUOUS
 62
3
 10
3969.802901
 20
3386.912206
 11
3977.802901
 21
3386.912206
  0
LINE
  8
0
  6
CONTINUOUS
 62
3
 10
3969.802901
 20
3362.125386
 11
3969.802901
 21
3386.912206
  0
LINE
  8
0
  6
CONTINUOUS
 62
3
 10
3977.802901
 20
3362.125386
 11
3969.802901
 21
3362.125386
  0
LINE
  8
0
  6
CONTINUOUS
 62
3
 10
3977.802901
 20
3386.912206
 11
3977.802901
 21
3362.125386
  0
LINE
  8
0
  6
CONTINUOUS
 62
3
 10
3984.802901
 20
3386.912206
 11
3992.802901
 21
3386.912206
  0
LINE
  8
0
  6
CONTINUOUS
 62
3
 10
3984.802901
 20
3362.125386
 11
3984.802901
 21
3386.912206
  0
LINE
  8
0
  6
CONTINUOUS
 62
3
 10
3992.802901
 20
3362.125386
 11
3984.802901
 21
3362.125386
  0
LINE
  8
0
  6
CONTINUOUS
 62
3
 10
3992.802901
 20
3386.912206
 11
3992.802901
 21
3362.125386
  0
LINE
  8
0
  6
CONTINUOUS
 62
3
 10
3999.802901
 20
3386.912206
 11
4007.802901
 21
3386.912206
  0
LINE
  8
0
  6
CONTINUOUS
 62
3
 10
3999.802901
 20
3362.125386
 11
3999.802901
 21
3386.912206
  0
LINE
  8
0
  6
CONTINUOUS
 62
3
 10
4007.802901
 20
3362.125386
 11
3999.802901
 21
3362.125386
  0
LINE
  8
0
  6
CONTINUOUS
 62
3
 10
4007.802901
 20
3386.912206
 11
4007.802901
 21
3362.125386
  0
LINE
  8
0
  6
CONTINUOUS
 62
3
 10
4014.802901
 20
3386.912206
 11
4022.802901
 21
3386.912206
  0
LINE
  8
0
  6
CONTINUOUS
 62
3
 10
4014.802901
 20
3362.125386
 11
4014.802901
 21
3386.912206
  0
LINE
  8
0
  6
CONTINUOUS
 62
3
 10
4022.802901
 20
3362.125386
 11
4014.802901
 21
3362.125386
  0
LINE
  8
0
  6
CONTINUOUS
 62
3
 10
4022.802901
 20
3386.912206
 11
4022.802901
 21
3362.125386
  0
LINE
  8
0
  6
CONTINUOUS
 62
3
 10
4029.802901
 20
3386.912206
 11
4037.802901
 21
3386.912206
  0
LINE
  8
0
  6
CONTINUOUS
 62
3
 10
4029.802901
 20
3362.125386
 11
4029.802901
 21
3386.912206
  0
LINE
  8
0
  6
CONTINUOUS
 62
3
 10
4037.802901
 20
3362.125386
 11
4029.802901
 21
3362.125386
  0
LINE
  8
0
  6
CONTINUOUS
 62
3
 10
4037.802901
 20
3386.912206
 11
4037.802901
 21
3362.125386
  0
LINE
  8
0
  6
CONTINUOUS
 62
3
 10
4044.802901
 20
3386.912206
 11
4052.802901
 21
3386.912206
  0
LINE
  8
0
  6
CONTINUOUS
 62
3
 10
4044.802901
 20
3362.125386
 11
4044.802901
 21
3386.912206
  0
LINE
  8
0
  6
CONTINUOUS
 62
3
 10
4052.802901
 20
3362.125386
 11
4044.802901
 21
3362.125386
  0
LINE
  8
0
  6
CONTINUOUS
 62
3
 10
4052.802901
 20
3386.912206
 11
4052.802901
 21
3362.125386
  0
LINE
  8
0
  6
CONTINUOUS
 62
3
 10
4056.302901
 20
3355.928681
 11
3846.302901
 21
3355.928681
  0
LINE
  8
0
  6
CONTINUOUS
 62
3
 10
3836.302901
 20
3508.128739
 11
3836.302901
 21
3399.290707
  0
LINE
  8
0
  6
CONTINUOUS
 62
3
 10
4066.302901
 20
3399.290707
 11
4066.302901
 21
3508.128739
  0
LINE
  8
0
  6
CONTINUOUS
 62
3
 10
4066.302901
 20
3364.190954
 11
4066.302901
 21
3394.813543
  0
LINE
  8
0
  6
CONTINUOUS
 62
3
 10
3836.302901
 20
3394.813543
 11
3836.302901
 21
3364.190954
  0
LINE
  8
0
  6
CONTINUOUS
 62
3
 10
4066.302901
 20
3648.806853
 11
3836.302901
 21
3648.806853
  0
LINE
  8
0
  6
CONTINUOUS
 62
3
 10
4066.302901
 20
3625.764559
 11
4066.302901
 21
3648.806853
  0
LINE
  8
0
  6
CONTINUOUS
 62
3
 10
3836.302901
 20
3648.806853
 11
3836.302901
 21
3625.764559
  0
LINE
  8
0
  6
CONTINUOUS
 62
3
 10
3836.302901
 20
3620.815194
 11
3836.302901
 21
3524.683883
  0
LINE
  8
0
  6
CONTINUOUS
 62
3
 10
4066.302901
 20
3524.683883
 11
4066.302901
 21
3620.815194
  0
LINE
  8
0
  6
CONTINUOUS
 62
3
 10
3864.802901
 20
3469.115841
 11
3864.802901
 21
3493.554638
  0
LINE
  8
0
  6
CONTINUOUS
 62
3
 10
3872.802901
 20
3469.115841
 11
3864.802901
 21
3469.115841
  0
LINE
  8
0
  6
CONTINUOUS
 62
3
 10
3872.802901
 20
3493.554638
 11
3872.802901
 21
3469.115841
  0
LINE
  8
0
  6
CONTINUOUS
 62
3
 10
3864.802901
 20
3493.554638
 11
3872.802901
 21
3493.554638
  0
LINE
  8
0
  6
CONTINUOUS
 62
3
 10
4052.802901
 20
3430.712017
 11
4052.802901
 21
3406.273220
  0
LINE
  8
0
  6
CONTINUOUS
 62
3
 10
4044.802901
 20
3430.712017
 11
4052.802901
 21
3430.712017
  0
LINE
  8
0
  6
CONTINUOUS
 62
3
 10
4044.802901
 20
3406.273220
 11
4044.802901
 21
3430.712017
  0
LINE
  8
0
  6
CONTINUOUS
 62
3
 10
4052.802901
 20
3406.273220
 11
4044.802901
 21
3406.273220
  0
LINE
  8
0
  6
CONTINUOUS
 62
3
 10
3864.802901
 20
3406.273220
 11
3864.802901
 21
3430.712017
  0
LINE
  8
0
  6
CONTINUOUS
 62
3
 10
3872.802901
 20
3406.273220
 11
3864.802901
 21
3406.273220
  0
LINE
  8
0
  6
CONTINUOUS
 62
3
 10
3872.802901
 20
3430.712017
 11
3872.802901
 21
3406.273220
  0
LINE
  8
0
  6
CONTINUOUS
 62
3
 10
3864.802901
 20
3430.712017
 11
3872.802901
 21
3430.712017
  0
LINE
  8
0
  6
CONTINUOUS
 62
3
 10
3894.802901
 20
3469.115841
 11
3894.802901
 21
3493.554638
  0
LINE
  8
0
  6
CONTINUOUS
 62
3
 10
3902.802901
 20
3469.115841
 11
3894.802901
 21
3469.115841
  0
LINE
  8
0
  6
CONTINUOUS
 62
3
 10
3902.802901
 20
3493.554638
 11
3902.802901
 21
3469.115841
  0
LINE
  8
0
  6
CONTINUOUS
 62
3
 10
3894.802901
 20
3493.554638
 11
3902.802901
 21
3493.554638
  0
LINE
  8
0
  6
CONTINUOUS
 62
3
 10
3849.802901
 20
3437.694531
 11
3849.802901
 21
3462.133328
  0
LINE
  8
0
  6
CONTINUOUS
 62
3
 10
3857.802901
 20
3437.694531
 11
3849.802901
 21
3437.694531
  0
LINE
  8
0
  6
CONTINUOUS
 62
3
 10
3857.802901
 20
3462.133328
 11
3857.802901
 21
3437.694531
  0
LINE
  8
0
  6
CONTINUOUS
 62
3
 10
3849.802901
 20
3462.133328
 11
3857.802901
 21
3462.133328
  0
LINE
  8
0
  6
CONTINUOUS
 62
3
 10
3879.802901
 20
3437.694531
 11
3879.802901
 21
3462.133328
  0
LINE
  8
0
  6
CONTINUOUS
 62
3
 10
3887.802901
 20
3437.694531
 11
3879.802901
 21
3437.694531
  0
LINE
  8
0
  6
CONTINUOUS
 62
3
 10
3887.802901
 20
3462.133328
 11
3887.802901
 21
3437.694531
  0
LINE
  8
0
  6
CONTINUOUS
 62
3
 10
3879.802901
 20
3462.133328
 11
3887.802901
 21
3462.133328
  0
LINE
  8
0
  6
CONTINUOUS
 62
3
 10
4044.802901
 20
3437.694531
 11
4044.802901
 21
3462.133328
  0
LINE
  8
0
  6
CONTINUOUS
 62
3
 10
4052.802901
 20
3437.694531
 11
4044.802901
 21
3437.694531
  0
LINE
  8
0
  6
CONTINUOUS
 62
3
 10
4052.802901
 20
3462.133328
 11
4052.802901
 21
3437.694531
  0
LINE
  8
0
  6
CONTINUOUS
 62
3
 10
4044.802901
 20
3462.133328
 11
4052.802901
 21
3462.133328
  0
LINE
  8
0
  6
CONTINUOUS
 62
3
 10
4044.802901
 20
3469.115841
 11
4044.802901
 21
3493.554638
  0
LINE
  8
0
  6
CONTINUOUS
 62
3
 10
4052.802901
 20
3469.115841
 11
4044.802901
 21
3469.115841
  0
LINE
  8
0
  6
CONTINUOUS
 62
3
 10
4052.802901
 20
3493.554638
 11
4052.802901
 21
3469.115841
  0
LINE
  8
0
  6
CONTINUOUS
 62
3
 10
4044.802901
 20
3493.554638
 11
4052.802901
 21
3493.554638
  0
LINE
  8
0
  6
CONTINUOUS
 62
3
 10
4029.802901
 20
3469.115841
 11
4029.802901
 21
3493.554638
  0
LINE
  8
0
  6
CONTINUOUS
 62
3
 10
4037.802901
 20
3469.115841
 11
4029.802901
 21
3469.115841
  0
LINE
  8
0
  6
CONTINUOUS
 62
3
 10
4037.802901
 20
3493.554638
 11
4037.802901
 21
3469.115841
  0
LINE
  8
0
  6
CONTINUOUS
 62
3
 10
4029.802901
 20
3493.554638
 11
4037.802901
 21
3493.554638
  0
LINE
  8
0
  6
CONTINUOUS
 62
3
 10
3909.802901
 20
3406.273220
 11
3909.802901
 21
3430.712017
  0
LINE
  8
0
  6
CONTINUOUS
 62
3
 10
3917.802901
 20
3406.273220
 11
3909.802901
 21
3406.273220
  0
LINE
  8
0
  6
CONTINUOUS
 62
3
 10
3917.802901
 20
3430.712017
 11
3917.802901
 21
3406.273220
  0
LINE
  8
0
  6
CONTINUOUS
 62
3
 10
3909.802901
 20
3430.712017
 11
3917.802901
 21
3430.712017
  0
LINE
  8
0
  6
CONTINUOUS
 62
3
 10
3924.802901
 20
3406.273220
 11
3924.802901
 21
3430.712017
  0
LINE
  8
0
  6
CONTINUOUS
 62
3
 10
3932.802901
 20
3406.273220
 11
3924.802901
 21
3406.273220
  0
LINE
  8
0
  6
CONTINUOUS
 62
3
 10
3932.802901
 20
3430.712017
 11
3932.802901
 21
3406.273220
  0
LINE
  8
0
  6
CONTINUOUS
 62
3
 10
3924.802901
 20
3430.712017
 11
3932.802901
 21
3430.712017
  0
LINE
  8
0
  6
CONTINUOUS
 62
3
 10
3939.802901
 20
3406.273220
 11
3939.802901
 21
3430.712017
  0
LINE
  8
0
  6
CONTINUOUS
 62
3
 10
3947.802901
 20
3406.273220
 11
3939.802901
 21
3406.273220
  0
LINE
  8
0
  6
CONTINUOUS
 62
3
 10
3947.802901
 20
3430.712017
 11
3947.802901
 21
3406.273220
  0
LINE
  8
0
  6
CONTINUOUS
 62
3
 10
3939.802901
 20
3430.712017
 11
3947.802901
 21
3430.712017
  0
LINE
  8
0
  6
CONTINUOUS
 62
3
 10
3954.802901
 20
3406.273220
 11
3954.802901
 21
3430.712017
  0
LINE
  8
0
  6
CONTINUOUS
 62
3
 10
3962.802901
 20
3406.273220
 11
3954.802901
 21
3406.273220
  0
LINE
  8
0
  6
CONTINUOUS
 62
3
 10
3962.802901
 20
3430.712017
 11
3962.802901
 21
3406.273220
  0
LINE
  8
0
  6
CONTINUOUS
 62
3
 10
3954.802901
 20
3430.712017
 11
3962.802901
 21
3430.712017
  0
LINE
  8
0
  6
CONTINUOUS
 62
3
 10
3969.802901
 20
3406.273220
 11
3969.802901
 21
3430.712017
  0
LINE
  8
0
  6
CONTINUOUS
 62
3
 10
3977.802901
 20
3406.273220
 11
3969.802901
 21
3406.273220
  0
LINE
  8
0
  6
CONTINUOUS
 62
3
 10
3977.802901
 20
3430.712017
 11
3977.802901
 21
3406.273220
  0
LINE
  8
0
  6
CONTINUOUS
 62
3
 10
3969.802901
 20
3430.712017
 11
3977.802901
 21
3430.712017
  0
LINE
  8
0
  6
CONTINUOUS
 62
3
 10
3984.802901
 20
3406.273220
 11
3984.802901
 21
3430.712017
  0
LINE
  8
0
  6
CONTINUOUS
 62
3
 10
3992.802901
 20
3406.273220
 11
3984.802901
 21
3406.273220
  0
LINE
  8
0
  6
CONTINUOUS
 62
3
 10
3992.802901
 20
3430.712017
 11
3992.802901
 21
3406.273220
  0
LINE
  8
0
  6
CONTINUOUS
 62
3
 10
3984.802901
 20
3430.712017
 11
3992.802901
 21
3430.712017
  0
LINE
  8
0
  6
CONTINUOUS
 62
3
 10
3999.802901
 20
3406.273220
 11
3999.802901
 21
3430.712017
  0
LINE
  8
0
  6
CONTINUOUS
 62
3
 10
4007.802901
 20
3406.273220
 11
3999.802901
 21
3406.273220
  0
LINE
  8
0
  6
CONTINUOUS
 62
3
 10
4007.802901
 20
3430.712017
 11
4007.802901
 21
3406.273220
  0
LINE
  8
0
  6
CONTINUOUS
 62
3
 10
3999.802901
 20
3430.712017
 11
4007.802901
 21
3430.712017
  0
LINE
  8
0
  6
CONTINUOUS
 62
3
 10
4014.802901
 20
3406.273220
 11
4014.802901
 21
3430.712017
  0
LINE
  8
0
  6
CONTINUOUS
 62
3
 10
4022.802901
 20
3406.273220
 11
4014.802901
 21
3406.273220
  0
LINE
  8
0
  6
CONTINUOUS
 62
3
 10
4022.802901
 20
3430.712017
 11
4022.802901
 21
3406.273220
  0
LINE
  8
0
  6
CONTINUOUS
 62
3
 10
4014.802901
 20
3430.712017
 11
4022.802901
 21
3430.712017
  0
LINE
  8
0
  6
CONTINUOUS
 62
3
 10
3924.802901
 20
3437.694531
 11
3924.802901
 21
3462.133328
  0
LINE
  8
0
  6
CONTINUOUS
 62
3
 10
3932.802901
 20
3437.694531
 11
3924.802901
 21
3437.694531
  0
LINE
  8
0
  6
CONTINUOUS
 62
3
 10
3932.802901
 20
3462.133328
 11
3932.802901
 21
3437.694531
  0
LINE
  8
0
  6
CONTINUOUS
 62
3
 10
3924.802901
 20
3462.133328
 11
3932.802901
 21
3462.133328
  0
LINE
  8
0
  6
CONTINUOUS
 62
3
 10
3954.802901
 20
3437.694531
 11
3954.802901
 21
3462.133328
  0
LINE
  8
0
  6
CONTINUOUS
 62
3
 10
3962.802901
 20
3437.694531
 11
3954.802901
 21
3437.694531
  0
LINE
  8
0
  6
CONTINUOUS
 62
3
 10
3962.802901
 20
3462.133328
 11
3962.802901
 21
3437.694531
  0
LINE
  8
0
  6
CONTINUOUS
 62
3
 10
3954.802901
 20
3462.133328
 11
3962.802901
 21
3462.133328
  0
LINE
  8
0
  6
CONTINUOUS
 62
3
 10
3984.802901
 20
3437.694531
 11
3984.802901
 21
3462.133328
  0
LINE
  8
0
  6
CONTINUOUS
 62
3
 10
3992.802901
 20
3437.694531
 11
3984.802901
 21
3437.694531
  0
LINE
  8
0
  6
CONTINUOUS
 62
3
 10
3992.802901
 20
3462.133328
 11
3992.802901
 21
3437.694531
  0
LINE
  8
0
  6
CONTINUOUS
 62
3
 10
3984.802901
 20
3462.133328
 11
3992.802901
 21
3462.133328
  0
LINE
  8
0
  6
CONTINUOUS
 62
3
 10
4014.802901
 20
3437.694531
 11
4014.802901
 21
3462.133328
  0
LINE
  8
0
  6
CONTINUOUS
 62
3
 10
4022.802901
 20
3437.694531
 11
4014.802901
 21
3437.694531
  0
LINE
  8
0
  6
CONTINUOUS
 62
3
 10
4022.802901
 20
3462.133328
 11
4022.802901
 21
3437.694531
  0
LINE
  8
0
  6
CONTINUOUS
 62
3
 10
4014.802901
 20
3462.133328
 11
4022.802901
 21
3462.133328
  0
LINE
  8
0
  6
CONTINUOUS
 62
3
 10
3999.802901
 20
3437.694531
 11
3999.802901
 21
3462.133328
  0
LINE
  8
0
  6
CONTINUOUS
 62
3
 10
4007.802901
 20
3437.694531
 11
3999.802901
 21
3437.694531
  0
LINE
  8
0
  6
CONTINUOUS
 62
3
 10
4007.802901
 20
3462.133328
 11
4007.802901
 21
3437.694531
  0
LINE
  8
0
  6
CONTINUOUS
 62
3
 10
3999.802901
 20
3462.133328
 11
4007.802901
 21
3462.133328
  0
LINE
  8
0
  6
CONTINUOUS
 62
3
 10
3969.802901
 20
3437.694531
 11
3969.802901
 21
3462.133328
  0
LINE
  8
0
  6
CONTINUOUS
 62
3
 10
3977.802901
 20
3437.694531
 11
3969.802901
 21
3437.694531
  0
LINE
  8
0
  6
CONTINUOUS
 62
3
 10
3977.802901
 20
3462.133328
 11
3977.802901
 21
3437.694531
  0
LINE
  8
0
  6
CONTINUOUS
 62
3
 10
3969.802901
 20
3462.133328
 11
3977.802901
 21
3462.133328
  0
LINE
  8
0
  6
CONTINUOUS
 62
3
 10
3939.802901
 20
3437.694531
 11
3939.802901
 21
3462.133328
  0
LINE
  8
0
  6
CONTINUOUS
 62
3
 10
3947.802901
 20
3437.694531
 11
3939.802901
 21
3437.694531
  0
LINE
  8
0
  6
CONTINUOUS
 62
3
 10
3947.802901
 20
3462.133328
 11
3947.802901
 21
3437.694531
  0
LINE
  8
0
  6
CONTINUOUS
 62
3
 10
3939.802901
 20
3462.133328
 11
3947.802901
 21
3462.133328
  0
LINE
  8
0
  6
CONTINUOUS
 62
3
 10
3909.802901
 20
3437.694531
 11
3909.802901
 21
3462.133328
  0
LINE
  8
0
  6
CONTINUOUS
 62
3
 10
3917.802901
 20
3437.694531
 11
3909.802901
 21
3437.694531
  0
LINE
  8
0
  6
CONTINUOUS
 62
3
 10
3917.802901
 20
3462.133328
 11
3917.802901
 21
3437.694531
  0
LINE
  8
0
  6
CONTINUOUS
 62
3
 10
3909.802901
 20
3462.133328
 11
3917.802901
 21
3462.133328
  0
LINE
  8
0
  6
CONTINUOUS
 62
3
 10
4014.802901
 20
3469.115841
 11
4014.802901
 21
3493.554638
  0
LINE
  8
0
  6
CONTINUOUS
 62
3
 10
4022.802901
 20
3469.115841
 11
4014.802901
 21
3469.115841
  0
LINE
  8
0
  6
CONTINUOUS
 62
3
 10
4022.802901
 20
3493.554638
 11
4022.802901
 21
3469.115841
  0
LINE
  8
0
  6
CONTINUOUS
 62
3
 10
4014.802901
 20
3493.554638
 11
4022.802901
 21
3493.554638
  0
LINE
  8
0
  6
CONTINUOUS
 62
3
 10
3999.802901
 20
3469.115841
 11
3999.802901
 21
3493.554638
  0
LINE
  8
0
  6
CONTINUOUS
 62
3
 10
4007.802901
 20
3469.115841
 11
3999.802901
 21
3469.115841
  0
LINE
  8
0
  6
CONTINUOUS
 62
3
 10
4007.802901
 20
3493.554638
 11
4007.802901
 21
3469.115841
  0
LINE
  8
0
  6
CONTINUOUS
 62
3
 10
3999.802901
 20
3493.554638
 11
4007.802901
 21
3493.554638
  0
LINE
  8
0
  6
CONTINUOUS
 62
3
 10
3984.802901
 20
3469.115841
 11
3984.802901
 21
3493.554638
  0
LINE
  8
0
  6
CONTINUOUS
 62
3
 10
3992.802901
 20
3469.115841
 11
3984.802901
 21
3469.115841
  0
LINE
  8
0
  6
CONTINUOUS
 62
3
 10
3992.802901
 20
3493.554638
 11
3992.802901
 21
3469.115841
  0
LINE
  8
0
  6
CONTINUOUS
 62
3
 10
3984.802901
 20
3493.554638
 11
3992.802901
 21
3493.554638
  0
LINE
  8
0
  6
CONTINUOUS
 62
3
 10
3969.802901
 20
3469.115841
 11
3969.802901
 21
3493.554638
  0
LINE
  8
0
  6
CONTINUOUS
 62
3
 10
3977.802901
 20
3469.115841
 11
3969.802901
 21
3469.115841
  0
LINE
  8
0
  6
CONTINUOUS
 62
3
 10
3977.802901
 20
3493.554638
 11
3977.802901
 21
3469.115841
  0
LINE
  8
0
  6
CONTINUOUS
 62
3
 10
3969.802901
 20
3493.554638
 11
3977.802901
 21
3493.554638
  0
LINE
  8
0
  6
CONTINUOUS
 62
3
 10
3954.802901
 20
3469.115841
 11
3954.802901
 21
3493.554638
  0
LINE
  8
0
  6
CONTINUOUS
 62
3
 10
3962.802901
 20
3469.115841
 11
3954.802901
 21
3469.115841
  0
LINE
  8
0
  6
CONTINUOUS
 62
3
 10
3962.802901
 20
3493.554638
 11
3962.802901
 21
3469.115841
  0
LINE
  8
0
  6
CONTINUOUS
 62
3
 10
3954.802901
 20
3493.554638
 11
3962.802901
 21
3493.554638
  0
LINE
  8
0
  6
CONTINUOUS
 62
3
 10
3939.802901
 20
3469.115841
 11
3939.802901
 21
3493.554638
  0
LINE
  8
0
  6
CONTINUOUS
 62
3
 10
3947.802901
 20
3469.115841
 11
3939.802901
 21
3469.115841
  0
LINE
  8
0
  6
CONTINUOUS
 62
3
 10
3947.802901
 20
3493.554638
 11
3947.802901
 21
3469.115841
  0
LINE
  8
0
  6
CONTINUOUS
 62
3
 10
3939.802901
 20
3493.554638
 11
3947.802901
 21
3493.554638
  0
LINE
  8
0
  6
CONTINUOUS
 62
3
 10
3924.802901
 20
3469.115841
 11
3924.802901
 21
3493.554638
  0
LINE
  8
0
  6
CONTINUOUS
 62
3
 10
3932.802901
 20
3469.115841
 11
3924.802901
 21
3469.115841
  0
LINE
  8
0
  6
CONTINUOUS
 62
3
 10
3932.802901
 20
3493.554638
 11
3932.802901
 21
3469.115841
  0
LINE
  8
0
  6
CONTINUOUS
 62
3
 10
3924.802901
 20
3493.554638
 11
3932.802901
 21
3493.554638
  0
LINE
  8
0
  6
CONTINUOUS
 62
3
 10
3909.802901
 20
3469.115841
 11
3909.802901
 21
3493.554638
  0
LINE
  8
0
  6
CONTINUOUS
 62
3
 10
3917.802901
 20
3469.115841
 11
3909.802901
 21
3469.115841
  0
LINE
  8
0
  6
CONTINUOUS
 62
3
 10
3917.802901
 20
3493.554638
 11
3917.802901
 21
3469.115841
  0
LINE
  8
0
  6
CONTINUOUS
 62
3
 10
3909.802901
 20
3493.554638
 11
3917.802901
 21
3493.554638
  0
LINE
  8
0
  6
CONTINUOUS
 62
3
 10
4029.802901
 20
3437.694531
 11
4029.802901
 21
3462.133328
  0
LINE
  8
0
  6
CONTINUOUS
 62
3
 10
4037.802901
 20
3437.694531
 11
4029.802901
 21
3437.694531
  0
LINE
  8
0
  6
CONTINUOUS
 62
3
 10
4037.802901
 20
3462.133328
 11
4037.802901
 21
3437.694531
  0
LINE
  8
0
  6
CONTINUOUS
 62
3
 10
4029.802901
 20
3462.133328
 11
4037.802901
 21
3462.133328
  0
LINE
  8
0
  6
CONTINUOUS
 62
3
 10
4029.802901
 20
3406.273220
 11
4029.802901
 21
3430.712017
  0
LINE
  8
0
  6
CONTINUOUS
 62
3
 10
4037.802901
 20
3406.273220
 11
4029.802901
 21
3406.273220
  0
LINE
  8
0
  6
CONTINUOUS
 62
3
 10
4037.802901
 20
3430.712017
 11
4037.802901
 21
3406.273220
  0
LINE
  8
0
  6
CONTINUOUS
 62
3
 10
4029.802901
 20
3430.712017
 11
4037.802901
 21
3430.712017
  0
LINE
  8
0
  6
CONTINUOUS
 62
3
 10
3894.802901
 20
3437.694531
 11
3894.802901
 21
3462.133328
  0
LINE
  8
0
  6
CONTINUOUS
 62
3
 10
3902.802901
 20
3437.694531
 11
3894.802901
 21
3437.694531
  0
LINE
  8
0
  6
CONTINUOUS
 62
3
 10
3902.802901
 20
3462.133328
 11
3902.802901
 21
3437.694531
  0
LINE
  8
0
  6
CONTINUOUS
 62
3
 10
3894.802901
 20
3462.133328
 11
3902.802901
 21
3462.133328
  0
LINE
  8
0
  6
CONTINUOUS
 62
3
 10
3864.802901
 20
3437.694531
 11
3864.802901
 21
3462.133328
  0
LINE
  8
0
  6
CONTINUOUS
 62
3
 10
3872.802901
 20
3437.694531
 11
3864.802901
 21
3437.694531
  0
LINE
  8
0
  6
CONTINUOUS
 62
3
 10
3872.802901
 20
3462.133328
 11
3872.802901
 21
3437.694531
  0
LINE
  8
0
  6
CONTINUOUS
 62
3
 10
3864.802901
 20
3462.133328
 11
3872.802901
 21
3462.133328
  0
LINE
  8
0
  6
CONTINUOUS
 62
3
 10
3894.802901
 20
3406.273220
 11
3894.802901
 21
3430.712017
  0
LINE
  8
0
  6
CONTINUOUS
 62
3
 10
3902.802901
 20
3406.273220
 11
3894.802901
 21
3406.273220
  0
LINE
  8
0
  6
CONTINUOUS
 62
3
 10
3902.802901
 20
3430.712017
 11
3902.802901
 21
3406.273220
  0
LINE
  8
0
  6
CONTINUOUS
 62
3
 10
3894.802901
 20
3430.712017
 11
3902.802901
 21
3430.712017
  0
LINE
  8
0
  6
CONTINUOUS
 62
3
 10
3879.802901
 20
3406.273220
 11
3879.802901
 21
3430.712017
  0
LINE
  8
0
  6
CONTINUOUS
 62
3
 10
3887.802901
 20
3406.273220
 11
3879.802901
 21
3406.273220
  0
LINE
  8
0
  6
CONTINUOUS
 62
3
 10
3887.802901
 20
3430.712017
 11
3887.802901
 21
3406.273220
  0
LINE
  8
0
  6
CONTINUOUS
 62
3
 10
3879.802901
 20
3430.712017
 11
3887.802901
 21
3430.712017
  0
LINE
  8
0
  6
CONTINUOUS
 62
3
 10
3849.802901
 20
3406.273220
 11
3849.802901
 21
3430.712017
  0
LINE
  8
0
  6
CONTINUOUS
 62
3
 10
3857.802901
 20
3406.273220
 11
3849.802901
 21
3406.273220
  0
LINE
  8
0
  6
CONTINUOUS
 62
3
 10
3857.802901
 20
3430.712017
 11
3857.802901
 21
3406.273220
  0
LINE
  8
0
  6
CONTINUOUS
 62
3
 10
3849.802901
 20
3430.712017
 11
3857.802901
 21
3430.712017
  0
LINE
  8
0
  6
CONTINUOUS
 62
3
 10
3879.802901
 20
3469.115841
 11
3879.802901
 21
3493.554638
  0
LINE
  8
0
  6
CONTINUOUS
 62
3
 10
3887.802901
 20
3469.115841
 11
3879.802901
 21
3469.115841
  0
LINE
  8
0
  6
CONTINUOUS
 62
3
 10
3887.802901
 20
3493.554638
 11
3887.802901
 21
3469.115841
  0
LINE
  8
0
  6
CONTINUOUS
 62
3
 10
3879.802901
 20
3493.554638
 11
3887.802901
 21
3493.554638
  0
LINE
  8
0
  6
CONTINUOUS
 62
3
 10
3849.802901
 20
3469.115841
 11
3849.802901
 21
3493.554638
  0
LINE
  8
0
  6
CONTINUOUS
 62
3
 10
3857.802901
 20
3469.115841
 11
3849.802901
 21
3469.115841
  0
LINE
  8
0
  6
CONTINUOUS
 62
3
 10
3857.802901
 20
3493.554638
 11
3857.802901
 21
3469.115841
  0
LINE
  8
0
  6
CONTINUOUS
 62
3
 10
3849.802901
 20
3493.554638
 11
3857.802901
 21
3493.554638
  0
LINE
  8
0
  6
CONTINUOUS
 62
3
 10
3836.302901
 20
3399.290707
 11
4066.302901
 21
3399.290707
  0
LINE
  8
0
  6
CONTINUOUS
 62
3
 10
3836.302901
 20
3399.290707
 11
3836.302901
 21
3394.813543
  0
LINE
  8
0
  6
CONTINUOUS
 62
3
 10
4066.302901
 20
3394.813543
 11
3836.302901
 21
3394.813543
  0
LINE
  8
0
  6
CONTINUOUS
 62
3
 10
4066.302901
 20
3399.290707
 11
4066.302901
 21
3394.813543
  0
LINE
  8
0
  6
CONTINUOUS
 62
3
 10
3836.302901
 20
3625.764559
 11
4066.302901
 21
3625.764559
  0
LINE
  8
0
  6
CONTINUOUS
 62
3
 10
3836.302901
 20
3625.764559
 11
3836.302901
 21
3620.815194
  0
LINE
  8
0
  6
CONTINUOUS
 62
3
 10
4066.302901
 20
3620.815194
 11
3836.302901
 21
3620.815194
  0
LINE
  8
0
  6
CONTINUOUS
 62
3
 10
4066.302901
 20
3625.764559
 11
4066.302901
 21
3620.815194
  0
LINE
  8
0
  6
CONTINUOUS
 62
3
 10
3827.302901
 20
3507.387829
 11
3827.302901
 21
3525.387829
  0
LINE
  8
0
  6
CONTINUOUS
 62
3
 10
3825.802901
 20
3525.387829
 11
3827.302901
 21
3525.387829
  0
LINE
  8
0
  6
CONTINUOUS
 62
3
 10
3825.802901
 20
3507.387829
 11
3827.302901
 21
3507.387829
  0
LINE
  8
0
  6
CONTINUOUS
 62
3
 10
4074.302901
 20
3525.387829
 11
4074.302901
 21
3507.387829
  0
LINE
  8
0
  6
CONTINUOUS
 62
3
 10
4075.802901
 20
3507.387829
 11
4074.302901
 21
3507.387829
  0
LINE
  8
0
  6
CONTINUOUS
 62
3
 10
4075.802901
 20
3525.387829
 11
4074.302901
 21
3525.387829
  0
LINE
  8
0
  6
CONTINUOUS
 62
3
 10
4072.302901
 20
3543.387829
 11
4072.302901
 21
3633.387829
  0
ARC
  8
0
  6
CONTINUOUS
 62
3
 10
4057.302901
 20
3633.387829
 40
15.000000
 50
0.000000
 51
53.130102
  0
ARC
  8
0
  6
CONTINUOUS
 62
3
 10
3844.302901
 20
3633.387829
 40
15.000000
 50
122.230953
 51
180.000000
  0
LINE
  8
0
  6
CONTINUOUS
 62
3
 10
3829.302901
 20
3633.387829
 11
3829.302901
 21
3543.387829
  0
LINE
  8
0
  6
CONTINUOUS
 62
3
 10
3829.302901
 20
3543.387829
 11
3836.302901
 21
3543.387829
  0
LINE
  8
0
  6
CONTINUOUS
 62
3
 10
4066.302901
 20
3543.387829
 11
4072.302901
 21
3543.387829
  0
LINE
  8
0
  6
CONTINUOUS
 62
3
 10
4073.802901
 20
3474.146967
 11
4073.802901
 21
3472.710113
  0
LINE
  8
0
  6
CONTINUOUS
 62
3
 10
4072.602901
 20
3472.710113
 11
4072.602901
 21
3474.146967
  0
LINE
  8
0
  6
CONTINUOUS
 62
3
 10
3827.002901
 20
3474.146967
 11
3827.002901
 21
3472.710113
  0
LINE
  8
0
  6
CONTINUOUS
 62
3
 10
4072.602901
 20
3472.710113
 11
4073.802901
 21
3472.710113
  0
LINE
  8
0
  6
CONTINUOUS
 62
3
 10
4073.802901
 20
3474.146967
 11
4073.802901
 21
3508.128739
  0
LINE
  8
0
  6
CONTINUOUS
 62
3
 10
4072.602901
 20
3474.146967
 11
4072.602901
 21
3508.128739
  0
LINE
  8
0
  6
CONTINUOUS
 62
3
 10
3827.002901
 20
3507.387829
 11
3827.002901
 21
3474.146967
  0
LINE
  8
0
  6
CONTINUOUS
 62
3
 10
4072.602901
 20
3472.710113
 11
4072.602901
 21
3470.694102
  0
LINE
  8
0
  6
CONTINUOUS
 62
3
 10
3827.002901
 20
3470.694102
 11
3827.002901
 21
3472.710113
  0
POLYLINE
  8
0
  6
CONTINUOUS
 62
3
 66
1
 70
2
  0
VERTEX
  8
0
 10
4066.302901
 20
3469.956990
 70
0
 42
0.094865
  0
VERTEX
  8
0
 10
4072.602901
 20
3470.694102
 70
0
  0
SEQEND
  0
POLYLINE
  8
0
  6
CONTINUOUS
 62
3
 66
1
 70
2
  0
VERTEX
  8
0
 10
3827.002901
 20
3470.694102
 70
0
 42
0.080650
  0
VERTEX
  8
0
 10
3836.302901
 20
3469.902629
 70
0
  0
SEQEND
  0
LINE
  8
0
  6
CONTINUOUS
 62
3
 10
4335.802901
 20
2978.530573
 11
4335.802901
 21
2974.556215
  0
LINE
  8
0
  6
CONTINUOUS
 62
3
 10
4333.802901
 20
2974.556215
 11
4333.802901
 21
2978.530573
  0
LINE
  8
0
  6
CONTINUOUS
 62
3
 10
3567.802901
 20
2978.530573
 11
3567.802901
 21
2974.556215
  0
LINE
  8
0
  6
CONTINUOUS
 62
3
 10
4333.802901
 20
2974.556215
 11
4335.802901
 21
2974.556215
  0
LINE
  8
0
  6
CONTINUOUS
 62
3
 10
4331.302901
 20
2975.688183
 11
4331.302901
 21
3238.242457
  0
LINE
  8
0
  6
CONTINUOUS
 62
3
 10
4333.802901
 20
2974.556215
 11
4333.802901
 21
2973.730712
  0
LINE
  8
0
  6
CONTINUOUS
 62
3
 10
4333.802901
 20
2978.530573
 11
4333.802901
 21
3240.470214
  0
LINE
  8
0
  6
CONTINUOUS
 62
3
 10
4335.802901
 20
2978.530573
 11
4335.802901
 21
3274.816793
  0
LINE
  8
0
  6
CONTINUOUS
 62
3
 10
3567.802901
 20
3238.096559
 11
3567.802901
 21
2978.530573
  0
POLYLINE
  8
0
  6
CONTINUOUS
 62
3
 66
1
 70
2
  0
VERTEX
  8
0
 10
4323.802901
 20
2955.738227
 70
0
 42
0.189757
  0
VERTEX
  8
0
 10
4333.802901
 20
2957.789507
 70
0
  0
SEQEND
  0
LINE
  8
0
  6
CONTINUOUS
 62
3
 10
4333.802901
 20
2957.789507
 11
4333.802901
 21
2959.746977
  0
POLYLINE
  8
0
  6
CONTINUOUS
 62
3
 66
1
 70
2
  0
VERTEX
  8
0
 10
3567.802901
 20
2957.789507
 70
0
 42
0.189757
  0
VERTEX
  8
0
 10
3577.802901
 20
2955.738227
 70
0
  0
SEQEND
  0
LINE
  8
0
  6
CONTINUOUS
 62
3
 10
3567.802901
 20
2959.746977
 11
3567.802901
 21
2957.789507
  0
LINE
  8
0
  6
CONTINUOUS
 62
3
 10
3577.802901
 20
2955.738222
 11
4323.802901
 21
2955.738222
  0
LINE
  8
0
  6
CONTINUOUS
 62
3
 10
4333.802901
 20
2959.746977
 11
4333.802901
 21
2965.388011
  0
LINE
  8
0
  6
CONTINUOUS
 62
3
 10
3567.802901
 20
2965.388011
 11
3567.802901
 21
2959.746977
  0
LINE
  8
0
  6
CONTINUOUS
 62
3
 10
3567.802901
 20
2968.347670
 11
3567.802901
 21
2965.388011
  0
LINE
  8
0
  6
CONTINUOUS
 62
3
 10
4333.802901
 20
2968.347670
 11
4333.802901
 21
2965.388011
  0
LINE
  8
0
  6
CONTINUOUS
 62
3
 10
3567.802901
 20
2968.347670
 11
4333.802901
 21
2968.347670
  0
LINE
  8
0
  6
CONTINUOUS
 62
3
 10
3567.802901
 20
2968.347670
 11
3567.802901
 21
2973.730712
  0
LINE
  8
0
  6
CONTINUOUS
 62
3
 10
4333.802901
 20
2973.730712
 11
4333.802901
 21
2968.347670
  0
LINE
  8
0
  6
CONTINUOUS
 62
3
 10
3567.802901
 20
2973.730712
 11
3567.802901
 21
2974.556215
  0
LINE
  8
0
  6
CONTINUOUS
 62
3
 10
3567.802901
 20
2970.686793
 11
3553.502901
 21
2970.686793
  0
LINE
  8
0
  6
CONTINUOUS
 62
3
 10
3553.502901
 20
2970.686793
 11
3550.802901
 21
2970.686793
  0
LINE
  8
0
  6
CONTINUOUS
 62
3
 10
3550.802901
 20
2970.686793
 11
3550.802901
 21
3245.816793
  0
LINE
  8
0
  6
CONTINUOUS
 62
3
 10
4348.102901
 20
2970.686793
 11
4350.802901
 21
2970.686793
  0
LINE
  8
0
  6
CONTINUOUS
 62
3
 10
4348.102901
 20
3242.816793
 11
4348.102901
 21
2970.686793
  0
LINE
  8
0
  6
CONTINUOUS
 62
3
 10
4350.802901
 20
3197.816793
 11
4350.802901
 21
3197.316793
  0
LINE
  8
0
  6
CONTINUOUS
 62
3
 10
4350.802901
 20
3190.816793
 11
4350.802901
 21
2970.686793
  0
LINE
  8
0
  6
CONTINUOUS
 62
3
 10
4348.102901
 20
2970.686793
 11
4333.802901
 21
2970.686793
  0
LINE
  8
0
  6
CONTINUOUS
 62
3
 10
3555.802901
 20
4154.686793
 11
3558.302901
 21
4154.686793
  0
LINE
  8
0
  6
CONTINUOUS
 62
3
 10
3597.552901
 20
4215.399189
 11
3597.552901
 21
4171.686793
  0
LINE
  8
0
  6
CONTINUOUS
 62
3
 10
3589.552901
 20
4171.686793
 11
3589.552901
 21
4223.399189
  0
LINE
  8
0
  6
CONTINUOUS
 62
3
 10
3555.552901
 20
4223.399189
 11
3555.552901
 21
4171.686793
  0
LINE
  8
0
  6
CONTINUOUS
 62
3
 10
3547.552901
 20
4176.686793
 11
3547.552901
 21
4215.399189
  0
ARC
  8
0
  6
CONTINUOUS
 62
3
 10
3589.552901
 20
4215.399189
 40
8.000000
 50
0.000000
 51
90.000000
  0
ARC
  8
0
  6
CONTINUOUS
 62
3
 10
3555.552901
 20
4215.399189
 40
8.000000
 50
90.000000
 51
180.000000
  0
LINE
  8
0
  6
CONTINUOUS
 62
3
 10
3589.552901
 20
4223.399189
 11
3555.552901
 21
4223.399189
  0
LINE
  8
0
  6
CONTINUOUS
 62
3
 10
4354.052901
 20
4215.399189
 11
4354.052901
 21
4176.686793
  0
LINE
  8
0
  6
CONTINUOUS
 62
3
 10
4346.052901
 20
4170.686793
 11
4346.052901
 21
4223.399189
  0
LINE
  8
0
  6
CONTINUOUS
 62
3
 10
4312.052901
 20
4223.399189
 11
4312.052901
 21
4160.186793
  0
LINE
  8
0
  6
CONTINUOUS
 62
3
 10
4304.052901
 20
4171.686793
 11
4304.052901
 21
4215.399189
  0
ARC
  8
0
  6
CONTINUOUS
 62
3
 10
4346.052901
 20
4215.399189
 40
8.000000
 50
0.000000
 51
90.000000
  0
ARC
  8
0
  6
CONTINUOUS
 62
3
 10
4312.052901
 20
4215.399189
 40
8.000000
 50
90.000000
 51
180.000000
  0
LINE
  8
0
  6
CONTINUOUS
 62
3
 10
4346.052901
 20
4223.399189
 11
4312.052901
 21
4223.399189
  0
POLYLINE
  8
0
  6
CONTINUOUS
 62
3
 66
1
 70
2
  0
VERTEX
  8
0
 10
4436.704523
 20
3344.100470
 70
0
 42
0.051404
  0
VERTEX
  8
0
 10
4448.351592
 20
3344.719357
 70
0
 42
0.183073
  0
VERTEX
  8
0
 10
4454.815518
 20
3346.860280
 70
0
  0
SEQEND
  0
LINE
  8
0
  6
CONTINUOUS
 62
3
 10
4454.218454
 20
3347.367799
 11
4454.300284
 21
3347.334571
  0
LINE
  8
0
  6
CONTINUOUS
 62
3
 10
4454.300284
 20
3347.334571
 11
4454.377000
 21
3347.300163
  0
LINE
  8
0
  6
CONTINUOUS
 62
3
 10
4454.377000
 20
3347.300163
 11
4454.448425
 21
3347.264434
  0
LINE
  8
0
  6
CONTINUOUS
 62
3
 10
4454.448425
 20
3347.264434
 11
4454.514329
 21
3347.227245
  0
LINE
  8
0
  6
CONTINUOUS
 62
3
 10
4454.514329
 20
3347.227245
 11
4454.574486
 21
3347.188455
  0
LINE
  8
0
  6
CONTINUOUS
 62
3
 10
4454.574486
 20
3347.188455
 11
4454.628668
 21
3347.147923
  0
LINE
  8
0
  6
CONTINUOUS
 62
3
 10
4454.628668
 20
3347.147923
 11
4454.676646
 21
3347.105509
  0
LINE
  8
0
  6
CONTINUOUS
 62
3
 10
4454.676646
 20
3347.105509
 11
4454.718194
 21
3347.061071
  0
LINE
  8
0
  6
CONTINUOUS
 62
3
 10
4454.718194
 20
3347.061071
 11
4454.753083
 21
3347.014470
  0
LINE
  8
0
  6
CONTINUOUS
 62
3
 10
4454.753083
 20
3347.014470
 11
4454.781085
 21
3346.965565
  0
LINE
  8
0
  6
CONTINUOUS
 62
3
 10
4454.781085
 20
3346.965565
 11
4454.801973
 21
3346.914215
  0
LINE
  8
0
  6
CONTINUOUS
 62
3
 10
4454.801973
 20
3346.914215
 11
4454.815518
 21
3346.860282
  0
POLYLINE
  8
0
  6
CONTINUOUS
 62
3
 66
1
 70
2
  0
VERTEX
  8
0
 10
4438.139956
 20
3344.224482
 70
0
 42
0.046108
  0
VERTEX
  8
0
 10
4448.714280
 20
3344.963447
 70
0
 42
0.181537
  0
VERTEX
  8
0
 10
4454.261714
 20
3346.879005
 70
0
  0
SEQEND
  0
POLYLINE
  8
0
  6
CONTINUOUS
 62
3
 66
1
 70
2
  0
VERTEX
  8
0
 10
4433.834140
 20
3316.841217
 70
0
 42
0.154648
  0
VERTEX
  8
0
 10
4446.964979
 20
3315.925350
 70
0
 42
0.154648
  0
VERTEX
  8
0
 10
4459.730255
 20
3319.135565
 70
0
  0
SEQEND
  0
POLYLINE
  8
0
  6
CONTINUOUS
 62
3
 66
1
 70
2
  0
VERTEX
  8
0
 10
4437.964230
 20
3270.211374
 70
0
 42
0.149925
  0
VERTEX
  8
0
 10
4451.093814
 20
3269.323535
 70
0
 42
0.149925
  0
VERTEX
  8
0
 10
4463.862782
 20
3272.505938
 70
0
  0
SEQEND
  0
POLYLINE
  8
0
  6
CONTINUOUS
 62
3
 66
1
 70
2
  0
VERTEX
  8
0
 10
4441.357104
 20
3267.652654
 70
0
 42
0.087564
  0
VERTEX
  8
0
 10
4460.972623
 20
3269.390553
 70
0
  0
SEQEND
  0
LINE
  8
0
  6
CONTINUOUS
 62
3
 10
4454.815518
 20
3346.860279
 11
4459.730255
 21
3319.135564
  0
LINE
  8
0
  6
CONTINUOUS
 62
3
 10
4433.798663
 20
3344.378754
 11
4433.834140
 21
3316.841216
  0
LINE
  8
0
  6
CONTINUOUS
 62
3
 10
4454.218583
 20
3347.365815
 11
4454.261714
 21
3346.879004
  0
LINE
  8
0
  6
CONTINUOUS
 62
3
 10
4459.733947
 20
3319.107753
 11
4463.862782
 21
3272.505938
  0
LINE
  8
0
  6
CONTINUOUS
 62
3
 10
4433.835395
 20
3316.813189
 11
4437.964230
 21
3270.211374
  0
LINE
  8
0
  6
CONTINUOUS
 62
3
 10
4463.862782
 20
3272.505938
 11
4463.869510
 21
3272.221909
  0
LINE
  8
0
  6
CONTINUOUS
 62
3
 10
4463.869510
 20
3272.221909
 11
4463.842370
 21
3271.945616
  0
LINE
  8
0
  6
CONTINUOUS
 62
3
 10
4463.842370
 20
3271.945616
 11
4463.786115
 21
3271.685899
  0
LINE
  8
0
  6
CONTINUOUS
 62
3
 10
4463.786115
 20
3271.685899
 11
4463.706644
 21
3271.450491
  0
LINE
  8
0
  6
CONTINUOUS
 62
3
 10
4463.706644
 20
3271.450491
 11
4463.611238
 21
3271.240561
  0
LINE
  8
0
  6
CONTINUOUS
 62
3
 10
4463.611238
 20
3271.240561
 11
4463.505285
 21
3271.054900
  0
LINE
  8
0
  6
CONTINUOUS
 62
3
 10
4463.505285
 20
3271.054900
 11
4463.394107
 21
3270.892236
  0
LINE
  8
0
  6
CONTINUOUS
 62
3
 10
4463.394107
 20
3270.892236
 11
4463.281487
 21
3270.749506
  0
LINE
  8
0
  6
CONTINUOUS
 62
3
 10
4463.281487
 20
3270.749506
 11
4463.168344
 21
3270.623666
  0
LINE
  8
0
  6
CONTINUOUS
 62
3
 10
4463.168344
 20
3270.623666
 11
4463.055285
 21
3270.512194
  0
LINE
  8
0
  6
CONTINUOUS
 62
3
 10
4463.055285
 20
3270.512194
 11
4462.942916
 21
3270.412568
  0
LINE
  8
0
  6
CONTINUOUS
 62
3
 10
4462.942916
 20
3270.412568
 11
4462.831837
 21
3270.322267
  0
LINE
  8
0
  6
CONTINUOUS
 62
3
 10
4462.831837
 20
3270.322267
 11
4462.721896
 21
3270.239289
  0
LINE
  8
0
  6
CONTINUOUS
 62
3
 10
4462.721896
 20
3270.239289
 11
4462.612507
 21
3270.162639
  0
LINE
  8
0
  6
CONTINUOUS
 62
3
 10
4462.612507
 20
3270.162639
 11
4462.503324
 21
3270.091416
  0
LINE
  8
0
  6
CONTINUOUS
 62
3
 10
4462.503324
 20
3270.091416
 11
4462.394003
 21
3270.024721
  0
LINE
  8
0
  6
CONTINUOUS
 62
3
 10
4462.394003
 20
3270.024721
 11
4462.284201
 21
3269.961652
  0
LINE
  8
0
  6
CONTINUOUS
 62
3
 10
4462.284201
 20
3269.961652
 11
4462.173569
 21
3269.901362
  0
LINE
  8
0
  6
CONTINUOUS
 62
3
 10
4462.173569
 20
3269.901362
 11
4462.061798
 21
3269.843478
  0
LINE
  8
0
  6
CONTINUOUS
 62
3
 10
4462.061798
 20
3269.843478
 11
4461.948672
 21
3269.787745
  0
LINE
  8
0
  6
CONTINUOUS
 62
3
 10
4461.948672
 20
3269.787745
 11
4461.833982
 21
3269.733884
  0
LINE
  8
0
  6
CONTINUOUS
 62
3
 10
4461.833982
 20
3269.733884
 11
4461.717521
 21
3269.681618
  0
LINE
  8
0
  6
CONTINUOUS
 62
3
 10
4461.717521
 20
3269.681618
 11
4461.599079
 21
3269.630670
  0
LINE
  8
0
  6
CONTINUOUS
 62
3
 10
4461.599079
 20
3269.630670
 11
4461.478479
 21
3269.580819
  0
LINE
  8
0
  6
CONTINUOUS
 62
3
 10
4461.478479
 20
3269.580819
 11
4461.355624
 21
3269.531981
  0
LINE
  8
0
  6
CONTINUOUS
 62
3
 10
4461.355624
 20
3269.531981
 11
4461.230424
 21
3269.484057
  0
LINE
  8
0
  6
CONTINUOUS
 62
3
 10
4461.230424
 20
3269.484057
 11
4461.102787
 21
3269.436947
  0
LINE
  8
0
  6
CONTINUOUS
 62
3
 10
4461.102787
 20
3269.436947
 11
4460.972630
 21
3269.390554
  0
LINE
  8
0
  6
CONTINUOUS
 62
3
 10
4441.357105
 20
3267.652653
 11
4441.220816
 21
3267.675436
  0
LINE
  8
0
  6
CONTINUOUS
 62
3
 10
4441.220816
 20
3267.675436
 11
4441.086896
 21
3267.699363
  0
LINE
  8
0
  6
CONTINUOUS
 62
3
 10
4441.086896
 20
3267.699363
 11
4440.955229
 21
3267.724521
  0
LINE
  8
0
  6
CONTINUOUS
 62
3
 10
4440.955229
 20
3267.724521
 11
4440.825701
 21
3267.750998
  0
LINE
  8
0
  6
CONTINUOUS
 62
3
 10
4440.825701
 20
3267.750998
 11
4440.698198
 21
3267.778883
  0
LINE
  8
0
  6
CONTINUOUS
 62
3
 10
4440.698198
 20
3267.778883
 11
4440.572607
 21
3267.808257
  0
LINE
  8
0
  6
CONTINUOUS
 62
3
 10
4440.572607
 20
3267.808257
 11
4440.448773
 21
3267.839225
  0
LINE
  8
0
  6
CONTINUOUS
 62
3
 10
4440.448773
 20
3267.839225
 11
4440.326430
 21
3267.872040
  0
LINE
  8
0
  6
CONTINUOUS
 62
3
 10
4440.326430
 20
3267.872040
 11
4440.205298
 21
3267.906974
  0
LINE
  8
0
  6
CONTINUOUS
 62
3
 10
4440.205298
 20
3267.906974
 11
4440.085095
 21
3267.944303
  0
LINE
  8
0
  6
CONTINUOUS
 62
3
 10
4440.085095
 20
3267.944303
 11
4439.965540
 21
3267.984301
  0
LINE
  8
0
  6
CONTINUOUS
 62
3
 10
4439.965540
 20
3267.984301
 11
4439.846326
 21
3268.027194
  0
LINE
  8
0
  6
CONTINUOUS
 62
3
 10
4439.846326
 20
3268.027194
 11
4439.726985
 21
3268.073530
  0
LINE
  8
0
  6
CONTINUOUS
 62
3
 10
4439.726985
 20
3268.073530
 11
4439.607003
 21
3268.124270
  0
LINE
  8
0
  6
CONTINUOUS
 62
3
 10
4439.607003
 20
3268.124270
 11
4439.485862
 21
3268.180381
  0
LINE
  8
0
  6
CONTINUOUS
 62
3
 10
4439.485862
 20
3268.180381
 11
4439.363048
 21
3268.242830
  0
LINE
  8
0
  6
CONTINUOUS
 62
3
 10
4439.363048
 20
3268.242830
 11
4439.238015
 21
3268.312579
  0
LINE
  8
0
  6
CONTINUOUS
 62
3
 10
4439.238015
 20
3268.312579
 11
4439.109614
 21
3268.390887
  0
LINE
  8
0
  6
CONTINUOUS
 62
3
 10
4439.109614
 20
3268.390887
 11
4438.978006
 21
3268.480396
  0
LINE
  8
0
  6
CONTINUOUS
 62
3
 10
4438.978006
 20
3268.480396
 11
4438.843942
 21
3268.584044
  0
LINE
  8
0
  6
CONTINUOUS
 62
3
 10
4438.843942
 20
3268.584044
 11
4438.708172
 21
3268.704768
  0
LINE
  8
0
  6
CONTINUOUS
 62
3
 10
4438.708172
 20
3268.704768
 11
4438.571448
 21
3268.845506
  0
LINE
  8
0
  6
CONTINUOUS
 62
3
 10
4438.571448
 20
3268.845506
 11
4438.434845
 21
3269.009948
  0
LINE
  8
0
  6
CONTINUOUS
 62
3
 10
4438.434845
 20
3269.009948
 11
4438.367937
 21
3269.102617
  0
LINE
  8
0
  6
CONTINUOUS
 62
3
 10
4438.367937
 20
3269.102617
 11
4438.303117
 21
3269.202110
  0
LINE
  8
0
  6
CONTINUOUS
 62
3
 10
4438.303117
 20
3269.202110
 11
4438.241261
 21
3269.308206
  0
LINE
  8
0
  6
CONTINUOUS
 62
3
 10
4438.241261
 20
3269.308206
 11
4438.183244
 21
3269.420684
  0
LINE
  8
0
  6
CONTINUOUS
 62
3
 10
4438.183244
 20
3269.420684
 11
4438.129940
 21
3269.539322
  0
LINE
  8
0
  6
CONTINUOUS
 62
3
 10
4438.129940
 20
3269.539322
 11
4438.082226
 21
3269.663900
  0
LINE
  8
0
  6
CONTINUOUS
 62
3
 10
4438.082226
 20
3269.663900
 11
4438.040975
 21
3269.794196
  0
LINE
  8
0
  6
CONTINUOUS
 62
3
 10
4438.040975
 20
3269.794196
 11
4438.007068
 21
3269.929934
  0
LINE
  8
0
  6
CONTINUOUS
 62
3
 10
4438.007068
 20
3269.929934
 11
4437.993143
 21
3269.999363
  0
LINE
  8
0
  6
CONTINUOUS
 62
3
 10
4437.993143
 20
3269.999363
 11
4437.981325
 21
3270.069532
  0
LINE
  8
0
  6
CONTINUOUS
 62
3
 10
4437.981325
 20
3270.069532
 11
4437.964232
 21
3270.211360
  0
POLYLINE
  8
0
  6
CONTINUOUS
 62
3
 66
1
 70
2
  0
VERTEX
  8
0
 10
4416.728743
 20
3331.240545
 70
0
 42
0.280475
  0
VERTEX
  8
0
 10
4403.375701
 20
3334.430663
 70
0
 42
0.280475
  0
VERTEX
  8
0
 10
4390.840599
 20
3328.831394
 70
0
  0
SEQEND
  0
POLYLINE
  8
0
  6
CONTINUOUS
 62
3
 66
1
 70
2
  0
VERTEX
  8
0
 10
4420.857578
 20
3286.873100
 70
0
 42
0.280475
  0
VERTEX
  8
0
 10
4407.504536
 20
3290.063218
 70
0
 42
0.280475
  0
VERTEX
  8
0
 10
4394.969434
 20
3284.463949
 70
0
  0
SEQEND
  0
POLYLINE
  8
0
  6
CONTINUOUS
 62
3
 66
1
 70
2
  0
VERTEX
  8
0
 10
4396.551221
 20
3282.802710
 70
0
 42
0.280475
  0
VERTEX
  8
0
 10
4408.444619
 20
3279.961309
 70
0
 42
0.280475
  0
VERTEX
  8
0
 10
4419.609487
 20
3284.948512
 70
0
 42
0.280475
  0
VERTEX
  8
0
 10
4407.716089
 20
3287.789913
 70
0
 42
0.280475
  0
VERTEX
  8
0
 10
4396.551221
 20
3282.802710
 70
0
  0
SEQEND
  0
LINE
  8
0
  6
CONTINUOUS
 62
3
 10
4411.798875
 20
3357.730317
 11
4416.709749
 21
3331.376711
  0
LINE
  8
0
  6
CONTINUOUS
 62
3
 10
4390.797866
 20
3355.775963
 11
4390.834141
 21
3328.968726
  0
LINE
  8
0
  6
CONTINUOUS
 62
3
 10
4416.728743
 20
3331.240545
 11
4420.857578
 21
3286.873100
  0
LINE
  8
0
  6
CONTINUOUS
 62
3
 10
4390.840599
 20
3328.831394
 11
4394.969434
 21
3284.463949
  0
LINE
  8
0
  6
CONTINUOUS
 62
3
 10
4394.969434
 20
3284.463949
 11
4395.087586
 21
3283.850327
  0
LINE
  8
0
  6
CONTINUOUS
 62
3
 10
4395.087586
 20
3283.850327
 11
4395.310226
 21
3283.280450
  0
LINE
  8
0
  6
CONTINUOUS
 62
3
 10
4395.310226
 20
3283.280450
 11
4395.453649
 21
3283.019614
  0
LINE
  8
0
  6
CONTINUOUS
 62
3
 10
4395.453649
 20
3283.019614
 11
4395.613629
 21
3282.777184
  0
LINE
  8
0
  6
CONTINUOUS
 62
3
 10
4395.613629
 20
3282.777184
 11
4395.787516
 21
3282.552030
  0
LINE
  8
0
  6
CONTINUOUS
 62
3
 10
4395.787516
 20
3282.552030
 11
4395.973625
 21
3282.343039
  0
LINE
  8
0
  6
CONTINUOUS
 62
3
 10
4395.973625
 20
3282.343039
 11
4396.170272
 21
3282.149100
  0
LINE
  8
0
  6
CONTINUOUS
 62
3
 10
4396.170272
 20
3282.149100
 11
4396.375772
 21
3281.969100
  0
LINE
  8
0
  6
CONTINUOUS
 62
3
 10
4396.375772
 20
3281.969100
 11
4396.588463
 21
3281.801903
  0
LINE
  8
0
  6
CONTINUOUS
 62
3
 10
4396.588463
 20
3281.801903
 11
4396.807705
 21
3281.645670
  0
LINE
  8
0
  6
CONTINUOUS
 62
3
 10
4396.807705
 20
3281.645670
 11
4396.919825
 21
3281.571300
  0
LINE
  8
0
  6
CONTINUOUS
 62
3
 10
4396.919825
 20
3281.571300
 11
4397.033605
 21
3281.499324
  0
LINE
  8
0
  6
CONTINUOUS
 62
3
 10
4397.033605
 20
3281.499324
 11
4397.266128
 21
3281.362248
  0
LINE
  8
0
  6
CONTINUOUS
 62
3
 10
4397.266128
 20
3281.362248
 11
4397.384864
 21
3281.296994
  0
LINE
  8
0
  6
CONTINUOUS
 62
3
 10
4397.384864
 20
3281.296994
 11
4397.505243
 21
3281.233826
  0
LINE
  8
0
  6
CONTINUOUS
 62
3
 10
4397.505243
 20
3281.233826
 11
4397.750914
 21
3281.113442
  0
LINE
  8
0
  6
CONTINUOUS
 62
3
 10
4397.750914
 20
3281.113442
 11
4397.876199
 21
3281.056072
  0
LINE
  8
0
  6
CONTINUOUS
 62
3
 10
4397.876199
 20
3281.056072
 11
4398.003110
 21
3281.000480
  0
LINE
  8
0
  6
CONTINUOUS
 62
3
 10
4398.003110
 20
3281.000480
 11
4398.261798
 21
3280.894323
  0
LINE
  8
0
  6
CONTINUOUS
 62
3
 10
4398.261798
 20
3280.894323
 11
4398.393565
 21
3280.843604
  0
LINE
  8
0
  6
CONTINUOUS
 62
3
 10
4398.393565
 20
3280.843604
 11
4398.526943
 21
3280.794356
  0
LINE
  8
0
  6
CONTINUOUS
 62
3
 10
4398.526943
 20
3280.794356
 11
4398.798513
 21
3280.699960
  0
LINE
  8
0
  6
CONTINUOUS
 62
3
 10
4398.798513
 20
3280.699960
 11
4398.936697
 21
3280.654660
  0
LINE
  8
0
  6
CONTINUOUS
 62
3
 10
4398.936697
 20
3280.654660
 11
4399.076502
 21
3280.610574
  0
LINE
  8
0
  6
CONTINUOUS
 62
3
 10
4399.076502
 20
3280.610574
 11
4399.361060
 21
3280.526216
  0
LINE
  8
0
  6
CONTINUOUS
 62
3
 10
4399.361060
 20
3280.526216
 11
4399.505775
 21
3280.485930
  0
LINE
  8
0
  6
CONTINUOUS
 62
3
 10
4399.505775
 20
3280.485930
 11
4399.652086
 21
3280.446895
  0
LINE
  8
0
  6
CONTINUOUS
 62
3
 10
4399.652086
 20
3280.446895
 11
4399.949418
 21
3280.372543
  0
LINE
  8
0
  6
CONTINUOUS
 62
3
 10
4399.949418
 20
3280.372543
 11
4400.100398
 21
3280.337209
  0
LINE
  8
0
  6
CONTINUOUS
 62
3
 10
4400.100398
 20
3280.337209
 11
4400.252894
 21
3280.303093
  0
LINE
  8
0
  6
CONTINUOUS
 62
3
 10
4400.252894
 20
3280.303093
 11
4400.562353
 21
3280.238480
  0
LINE
  8
0
  6
CONTINUOUS
 62
3
 10
4400.562353
 20
3280.238480
 11
4400.719275
 21
3280.207966
  0
LINE
  8
0
  6
CONTINUOUS
 62
3
 10
4400.719275
 20
3280.207966
 11
4400.877632
 21
3280.178637
  0
LINE
  8
0
  6
CONTINUOUS
 62
3
 10
4400.877632
 20
3280.178637
 11
4401.198569
 21
3280.123497
  0
LINE
  8
0
  6
CONTINUOUS
 62
3
 10
4401.198569
 20
3280.123497
 11
4401.361109
 21
3280.097670
  0
LINE
  8
0
  6
CONTINUOUS
 62
3
 10
4401.361109
 20
3280.097670
 11
4401.525002
 21
3280.072994
  0
LINE
  8
0
  6
CONTINUOUS
 62
3
 10
4401.525002
 20
3280.072994
 11
4401.856770
 21
3280.027062
  0
LINE
  8
0
  6
CONTINUOUS
 62
3
 10
4401.856770
 20
3280.027062
 11
4402.024604
 21
3280.005789
  0
LINE
  8
0
  6
CONTINUOUS
 62
3
 10
4402.024604
 20
3280.005789
 11
4402.193711
 21
3279.985633
  0
LINE
  8
0
  6
CONTINUOUS
 62
3
 10
4402.193711
 20
3279.985633
 11
4402.535663
 21
3279.948643
  0
LINE
  8
0
  6
CONTINUOUS
 62
3
 10
4402.535663
 20
3279.948643
 11
4402.708463
 21
3279.931794
  0
LINE
  8
0
  6
CONTINUOUS
 62
3
 10
4402.708463
 20
3279.931794
 11
4402.882420
 21
3279.916063
  0
LINE
  8
0
  6
CONTINUOUS
 62
3
 10
4402.882420
 20
3279.916063
 11
4403.233638
 21
3279.887961
  0
LINE
  8
0
  6
CONTINUOUS
 62
3
 10
4403.233638
 20
3279.887961
 11
4403.410821
 21
3279.875588
  0
LINE
  8
0
  6
CONTINUOUS
 62
3
 10
4403.410821
 20
3279.875588
 11
4403.589003
 21
3279.864331
  0
LINE
  8
0
  6
CONTINUOUS
 62
3
 10
4403.589003
 20
3279.864331
 11
4403.948208
 21
3279.845162
  0
LINE
  8
0
  6
CONTINUOUS
 62
3
 10
4403.948208
 20
3279.845162
 11
4404.129156
 21
3279.837246
  0
LINE
  8
0
  6
CONTINUOUS
 62
3
 10
4404.129156
 20
3279.837246
 11
4404.310948
 21
3279.830442
  0
LINE
  8
0
  6
CONTINUOUS
 62
3
 10
4404.310948
 20
3279.830442
 11
4404.676913
 21
3279.820160
  0
LINE
  8
0
  6
CONTINUOUS
 62
3
 10
4404.676913
 20
3279.820160
 11
4404.861009
 21
3279.816679
  0
LINE
  8
0
  6
CONTINUOUS
 62
3
 10
4404.861009
 20
3279.816679
 11
4405.045797
 21
3279.814304
  0
LINE
  8
0
  6
CONTINUOUS
 62
3
 10
4405.045797
 20
3279.814304
 11
4405.417292
 21
3279.812864
  0
LINE
  8
0
  6
CONTINUOUS
 62
3
 10
4405.417292
 20
3279.812864
 11
4405.603923
 21
3279.813796
  0
LINE
  8
0
  6
CONTINUOUS
 62
3
 10
4405.603923
 20
3279.813796
 11
4405.791091
 21
3279.815828
  0
LINE
  8
0
  6
CONTINUOUS
 62
3
 10
4405.791091
 20
3279.815828
 11
4406.166887
 21
3279.823184
  0
LINE
  8
0
  6
CONTINUOUS
 62
3
 10
4406.166887
 20
3279.823184
 11
4406.355438
 21
3279.828506
  0
LINE
  8
0
  6
CONTINUOUS
 62
3
 10
4406.355438
 20
3279.828506
 11
4406.544373
 21
3279.834922
  0
LINE
  8
0
  6
CONTINUOUS
 62
3
 10
4406.544373
 20
3279.834922
 11
4406.923200
 21
3279.851031
  0
LINE
  8
0
  6
CONTINUOUS
 62
3
 10
4406.923200
 20
3279.851031
 11
4407.113002
 21
3279.860718
  0
LINE
  8
0
  6
CONTINUOUS
 62
3
 10
4407.113002
 20
3279.860718
 11
4407.303006
 21
3279.871486
  0
LINE
  8
0
  6
CONTINUOUS
 62
3
 10
4407.303006
 20
3279.871486
 11
4407.683448
 21
3279.896256
  0
LINE
  8
0
  6
CONTINUOUS
 62
3
 10
4407.683448
 20
3279.896256
 11
4407.873801
 21
3279.910248
  0
LINE
  8
0
  6
CONTINUOUS
 62
3
 10
4407.873801
 20
3279.910248
 11
4408.064184
 21
3279.925306
  0
LINE
  8
0
  6
CONTINUOUS
 62
3
 10
4408.064184
 20
3279.925306
 11
4408.444870
 21
3279.958607
  0
LINE
  8
0
  6
CONTINUOUS
 62
3
 10
4408.444870
 20
3279.958607
 11
4408.635087
 21
3279.976841
  0
LINE
  8
0
  6
CONTINUOUS
 62
3
 10
4408.635087
 20
3279.976841
 11
4408.825163
 21
3279.996125
  0
LINE
  8
0
  6
CONTINUOUS
 62
3
 10
4408.825163
 20
3279.996125
 11
4409.204722
 21
3280.037828
  0
LINE
  8
0
  6
CONTINUOUS
 62
3
 10
4409.204722
 20
3280.037828
 11
4409.394118
 21
3280.060240
  0
LINE
  8
0
  6
CONTINUOUS
 62
3
 10
4409.394118
 20
3280.060240
 11
4409.583202
 21
3280.083685
  0
LINE
  8
0
  6
CONTINUOUS
 62
3
 10
4409.583202
 20
3280.083685
 11
4409.960262
 21
3280.133663
  0
LINE
  8
0
  6
CONTINUOUS
 62
3
 10
4409.960262
 20
3280.133663
 11
4410.148151
 21
3280.160188
  0
LINE
  8
0
  6
CONTINUOUS
 62
3
 10
4410.148151
 20
3280.160188
 11
4410.335557
 21
3280.187730
  0
LINE
  8
0
  6
CONTINUOUS
 62
3
 10
4410.335557
 20
3280.187730
 11
4410.708735
 21
3280.245848
  0
LINE
  8
0
  6
CONTINUOUS
 62
3
 10
4410.708735
 20
3280.245848
 11
4410.894417
 21
3280.276408
  0
LINE
  8
0
  6
CONTINUOUS
 62
3
 10
4410.894417
 20
3280.276408
 11
4411.079443
 21
3280.307960
  0
LINE
  8
0
  6
CONTINUOUS
 62
3
 10
4411.079443
 20
3280.307960
 11
4411.447376
 21
3280.374022
  0
LINE
  8
0
  6
CONTINUOUS
 62
3
 10
4411.447376
 20
3280.374022
 11
4411.630207
 21
3280.408520
  0
LINE
  8
0
  6
CONTINUOUS
 62
3
 10
4411.630207
 20
3280.408520
 11
4411.812230
 21
3280.443987
  0
LINE
  8
0
  6
CONTINUOUS
 62
3
 10
4411.812230
 20
3280.443987
 11
4412.173701
 21
3280.517810
  0
LINE
  8
0
  6
CONTINUOUS
 62
3
 10
4412.173701
 20
3280.517810
 11
4412.353072
 21
3280.556154
  0
LINE
  8
0
  6
CONTINUOUS
 62
3
 10
4412.353072
 20
3280.556154
 11
4412.531484
 21
3280.595445
  0
LINE
  8
0
  6
CONTINUOUS
 62
3
 10
4412.531484
 20
3280.595445
 11
4412.885276
 21
3280.676845
  0
LINE
  8
0
  6
CONTINUOUS
 62
3
 10
4412.885276
 20
3280.676845
 11
4413.060580
 21
3280.718944
  0
LINE
  8
0
  6
CONTINUOUS
 62
3
 10
4413.060580
 20
3280.718944
 11
4413.234772
 21
3280.761967
  0
LINE
  8
0
  6
CONTINUOUS
 62
3
 10
4413.234772
 20
3280.761967
 11
4413.579669
 21
3280.850763
  0
LINE
  8
0
  6
CONTINUOUS
 62
3
 10
4413.579669
 20
3280.850763
 11
4413.750298
 21
3280.896525
  0
LINE
  8
0
  6
CONTINUOUS
 62
3
 10
4413.750298
 20
3280.896525
 11
4413.919662
 21
3280.943189
  0
LINE
  8
0
  6
CONTINUOUS
 62
3
 10
4413.919662
 20
3280.943189
 11
4414.254443
 21
3281.039189
  0
LINE
  8
0
  6
CONTINUOUS
 62
3
 10
4414.254443
 20
3281.039189
 11
4414.419778
 21
3281.088493
  0
LINE
  8
0
  6
CONTINUOUS
 62
3
 10
4414.419778
 20
3281.088493
 11
4414.583708
 21
3281.138663
  0
LINE
  8
0
  6
CONTINUOUS
 62
3
 10
4414.583708
 20
3281.138663
 11
4414.907260
 21
3281.241610
  0
LINE
  8
0
  6
CONTINUOUS
 62
3
 10
4414.907260
 20
3281.241610
 11
4415.066836
 21
3281.294392
  0
LINE
  8
0
  6
CONTINUOUS
 62
3
 10
4415.066836
 20
3281.294392
 11
4415.224915
 21
3281.348051
  0
LINE
  8
0
  6
CONTINUOUS
 62
3
 10
4415.224915
 20
3281.348051
 11
4415.536492
 21
3281.458009
  0
LINE
  8
0
  6
CONTINUOUS
 62
3
 10
4415.536492
 20
3281.458009
 11
4415.689944
 21
3281.514313
  0
LINE
  8
0
  6
CONTINUOUS
 62
3
 10
4415.689944
 20
3281.514313
 11
4415.841808
 21
3281.571505
  0
LINE
  8
0
  6
CONTINUOUS
 62
3
 10
4415.841808
 20
3281.571505
 11
4416.140682
 21
3281.688561
  0
LINE
  8
0
  6
CONTINUOUS
 62
3
 10
4416.140682
 20
3281.688561
 11
4416.287646
 21
3281.748431
  0
LINE
  8
0
  6
CONTINUOUS
 62
3
 10
4416.287646
 20
3281.748431
 11
4416.432930
 21
3281.809199
  0
LINE
  8
0
  6
CONTINUOUS
 62
3
 10
4416.432930
 20
3281.809199
 11
4416.718372
 21
3281.933441
  0
LINE
  8
0
  6
CONTINUOUS
 62
3
 10
4416.718372
 20
3281.933441
 11
4416.858483
 21
3281.996919
  0
LINE
  8
0
  6
CONTINUOUS
 62
3
 10
4416.858483
 20
3281.996919
 11
4416.996824
 21
3282.061307
  0
LINE
  8
0
  6
CONTINUOUS
 62
3
 10
4416.996824
 20
3282.061307
 11
4417.268104
 21
3282.192821
  0
LINE
  8
0
  6
CONTINUOUS
 62
3
 10
4417.268104
 20
3282.192821
 11
4417.401013
 21
3282.259926
  0
LINE
  8
0
  6
CONTINUOUS
 62
3
 10
4417.401013
 20
3282.259926
 11
4417.532160
 21
3282.327819
  0
LINE
  8
0
  6
CONTINUOUS
 62
3
 10
4417.532160
 20
3282.327819
 11
4417.789122
 21
3282.466190
  0
LINE
  8
0
  6
CONTINUOUS
 62
3
 10
4417.789122
 20
3282.466190
 11
4417.914899
 21
3282.536814
  0
LINE
  8
0
  6
CONTINUOUS
 62
3
 10
4417.914899
 20
3282.536814
 11
4418.038848
 21
3282.608492
  0
LINE
  8
0
  6
CONTINUOUS
 62
3
 10
4418.038848
 20
3282.608492
 11
4418.281184
 21
3282.755302
  0
LINE
  8
0
  6
CONTINUOUS
 62
3
 10
4418.281184
 20
3282.755302
 11
4418.399534
 21
3282.830577
  0
LINE
  8
0
  6
CONTINUOUS
 62
3
 10
4418.399534
 20
3282.830577
 11
4418.515978
 21
3282.907197
  0
LINE
  8
0
  6
CONTINUOUS
 62
3
 10
4418.515978
 20
3282.907197
 11
4418.743076
 21
3283.064756
  0
LINE
  8
0
  6
CONTINUOUS
 62
3
 10
4418.743076
 20
3283.064756
 11
4418.853691
 21
3283.145840
  0
LINE
  8
0
  6
CONTINUOUS
 62
3
 10
4418.853691
 20
3283.145840
 11
4418.962325
 21
3283.228556
  0
LINE
  8
0
  6
CONTINUOUS
 62
3
 10
4418.962325
 20
3283.228556
 11
4419.173571
 21
3283.399176
  0
LINE
  8
0
  6
CONTINUOUS
 62
3
 10
4419.173571
 20
3283.399176
 11
4419.276145
 21
3283.487224
  0
LINE
  8
0
  6
CONTINUOUS
 62
3
 10
4419.276145
 20
3283.487224
 11
4419.376661
 21
3283.577193
  0
LINE
  8
0
  6
CONTINUOUS
 62
3
 10
4419.376661
 20
3283.577193
 11
4419.571443
 21
3283.763185
  0
LINE
  8
0
  6
CONTINUOUS
 62
3
 10
4419.571443
 20
3283.763185
 11
4419.665670
 21
3283.859352
  0
LINE
  8
0
  6
CONTINUOUS
 62
3
 10
4419.665670
 20
3283.859352
 11
4419.757762
 21
3283.957730
  0
LINE
  8
0
  6
CONTINUOUS
 62
3
 10
4419.757762
 20
3283.957730
 11
4419.935461
 21
3284.161443
  0
LINE
  8
0
  6
CONTINUOUS
 62
3
 10
4419.935461
 20
3284.161443
 11
4419.978489
 21
3284.213991
  0
LINE
  8
0
  6
CONTINUOUS
 62
3
 10
4419.978489
 20
3284.213991
 11
4420.020912
 21
3284.267259
  0
LINE
  8
0
  6
CONTINUOUS
 62
3
 10
4420.020912
 20
3284.267259
 11
4420.103827
 21
3284.376006
  0
LINE
  8
0
  6
CONTINUOUS
 62
3
 10
4420.103827
 20
3284.376006
 11
4420.261133
 21
3284.602720
  0
LINE
  8
0
  6
CONTINUOUS
 62
3
 10
4420.261133
 20
3284.602720
 11
4420.298516
 21
3284.661398
  0
LINE
  8
0
  6
CONTINUOUS
 62
3
 10
4420.298516
 20
3284.661398
 11
4420.335064
 21
3284.720902
  0
LINE
  8
0
  6
CONTINUOUS
 62
3
 10
4420.335064
 20
3284.720902
 11
4420.405542
 21
3284.842442
  0
LINE
  8
0
  6
CONTINUOUS
 62
3
 10
4420.405542
 20
3284.842442
 11
4420.535219
 21
3285.096030
  0
LINE
  8
0
  6
CONTINUOUS
 62
3
 10
4420.535219
 20
3285.096030
 11
4420.565121
 21
3285.161694
  0
LINE
  8
0
  6
CONTINUOUS
 62
3
 10
4420.565121
 20
3285.161694
 11
4420.593958
 21
3285.228292
  0
LINE
  8
0
  6
CONTINUOUS
 62
3
 10
4420.593958
 20
3285.228292
 11
4420.648049
 21
3285.364525
  0
LINE
  8
0
  6
CONTINUOUS
 62
3
 10
4420.648049
 20
3285.364525
 11
4420.740521
 21
3285.648169
  0
LINE
  8
0
  6
CONTINUOUS
 62
3
 10
4420.740521
 20
3285.648169
 11
4420.760150
 21
3285.721117
  0
LINE
  8
0
  6
CONTINUOUS
 62
3
 10
4420.760150
 20
3285.721117
 11
4420.778311
 21
3285.794779
  0
LINE
  8
0
  6
CONTINUOUS
 62
3
 10
4420.778311
 20
3285.794779
 11
4420.810075
 21
3285.944049
  0
LINE
  8
0
  6
CONTINUOUS
 62
3
 10
4420.810075
 20
3285.944049
 11
4420.854347
 21
3286.248964
  0
LINE
  8
0
  6
CONTINUOUS
 62
3
 10
4420.854347
 20
3286.248964
 11
4420.861186
 21
3286.326220
  0
LINE
  8
0
  6
CONTINUOUS
 62
3
 10
4420.861186
 20
3286.326220
 11
4420.866261
 21
3286.403800
  0
LINE
  8
0
  6
CONTINUOUS
 62
3
 10
4420.866261
 20
3286.403800
 11
4420.870969
 21
3286.559705
  0
LINE
  8
0
  6
CONTINUOUS
 62
3
 10
4420.870969
 20
3286.559705
 11
4420.857579
 21
3286.873090
  0
POLYLINE
  8
0
  6
CONTINUOUS
 62
3
 66
1
 70
2
  0
VERTEX
  8
0
 10
4411.798875
 20
3357.730318
 70
0
 42
0.265218
  0
VERTEX
  8
0
 10
4400.976773
 20
3360.208949
 70
0
 42
0.265218
  0
VERTEX
  8
0
 10
4390.797866
 20
3355.775963
 70
0
  0
SEQEND
  0
LINE
  8
0
  6
CONTINUOUS
 62
3
 10
4411.798876
 20
3357.730318
 11
4411.722258
 21
3357.991176
  0
LINE
  8
0
  6
CONTINUOUS
 62
3
 10
4411.722258
 20
3357.991176
 11
4411.592543
 21
3358.242645
  0
LINE
  8
0
  6
CONTINUOUS
 62
3
 10
4411.592543
 20
3358.242645
 11
4411.411707
 21
3358.483519
  0
LINE
  8
0
  6
CONTINUOUS
 62
3
 10
4411.411707
 20
3358.483519
 11
4411.181726
 21
3358.712596
  0
LINE
  8
0
  6
CONTINUOUS
 62
3
 10
4411.181726
 20
3358.712596
 11
4411.048911
 21
3358.822362
  0
LINE
  8
0
  6
CONTINUOUS
 62
3
 10
4411.048911
 20
3358.822362
 11
4410.904428
 21
3358.928989
  0
LINE
  8
0
  6
CONTINUOUS
 62
3
 10
4410.904428
 20
3358.928989
 11
4410.748473
 21
3359.032450
  0
LINE
  8
0
  6
CONTINUOUS
 62
3
 10
4410.748473
 20
3359.032450
 11
4410.581260
 21
3359.132678
  0
LINE
  8
0
  6
CONTINUOUS
 62
3
 10
4410.581260
 20
3359.132678
 11
4410.403006
 21
3359.229608
  0
LINE
  8
0
  6
CONTINUOUS
 62
3
 10
4410.403006
 20
3359.229608
 11
4410.213923
 21
3359.323174
  0
LINE
  8
0
  6
CONTINUOUS
 62
3
 10
4410.213923
 20
3359.323174
 11
4410.014226
 21
3359.413312
  0
LINE
  8
0
  6
CONTINUOUS
 62
3
 10
4410.014226
 20
3359.413312
 11
4409.804131
 21
3359.499956
  0
LINE
  8
0
  6
CONTINUOUS
 62
3
 10
4409.804131
 20
3359.499956
 11
4409.583852
 21
3359.583040
  0
LINE
  8
0
  6
CONTINUOUS
 62
3
 10
4409.583852
 20
3359.583040
 11
4409.353603
 21
3359.662499
  0
LINE
  8
0
  6
CONTINUOUS
 62
3
 10
4409.353603
 20
3359.662499
 11
4409.113628
 21
3359.738239
  0
LINE
  8
0
  6
CONTINUOUS
 62
3
 10
4409.113628
 20
3359.738239
 11
4408.864240
 21
3359.810183
  0
LINE
  8
0
  6
CONTINUOUS
 62
3
 10
4408.864240
 20
3359.810183
 11
4408.605763
 21
3359.878267
  0
LINE
  8
0
  6
CONTINUOUS
 62
3
 10
4408.605763
 20
3359.878267
 11
4408.338522
 21
3359.942427
  0
LINE
  8
0
  6
CONTINUOUS
 62
3
 10
4408.338522
 20
3359.942427
 11
4408.062840
 21
3360.002599
  0
LINE
  8
0
  6
CONTINUOUS
 62
3
 10
4408.062840
 20
3360.002599
 11
4407.779042
 21
3360.058720
  0
LINE
  8
0
  6
CONTINUOUS
 62
3
 10
4407.779042
 20
3360.058720
 11
4407.487451
 21
3360.110724
  0
LINE
  8
0
  6
CONTINUOUS
 62
3
 10
4407.487451
 20
3360.110724
 11
4407.188392
 21
3360.158549
  0
LINE
  8
0
  6
CONTINUOUS
 62
3
 10
4407.188392
 20
3360.158549
 11
4407.036162
 21
3360.180873
  0
LINE
  8
0
  6
CONTINUOUS
 62
3
 10
4407.036162
 20
3360.180873
 11
4406.882187
 21
3360.202129
  0
LINE
  8
0
  6
CONTINUOUS
 62
3
 10
4406.882187
 20
3360.202129
 11
4406.569188
 21
3360.241404
  0
LINE
  8
0
  6
CONTINUOUS
 62
3
 10
4406.569188
 20
3360.241404
 11
4406.410266
 21
3360.259414
  0
LINE
  8
0
  6
CONTINUOUS
 62
3
 10
4406.410266
 20
3360.259414
 11
4406.249797
 21
3360.276335
  0
LINE
  8
0
  6
CONTINUOUS
 62
3
 10
4406.249797
 20
3360.276335
 11
4405.924421
 21
3360.306900
  0
LINE
  8
0
  6
CONTINUOUS
 62
3
 10
4405.924421
 20
3360.306900
 11
4405.759615
 21
3360.320538
  0
LINE
  8
0
  6
CONTINUOUS
 62
3
 10
4405.759615
 20
3360.320538
 11
4405.593465
 21
3360.333074
  0
LINE
  8
0
  6
CONTINUOUS
 62
3
 10
4405.593465
 20
3360.333074
 11
4405.257335
 21
3360.354835
  0
LINE
  8
0
  6
CONTINUOUS
 62
3
 10
4405.257335
 20
3360.354835
 11
4405.087456
 21
3360.364052
  0
LINE
  8
0
  6
CONTINUOUS
 62
3
 10
4405.087456
 20
3360.364052
 11
4404.916435
 21
3360.372158
  0
LINE
  8
0
  6
CONTINUOUS
 62
3
 10
4404.916435
 20
3360.372158
 11
4404.571172
 21
3360.385019
  0
LINE
  8
0
  6
CONTINUOUS
 62
3
 10
4404.571172
 20
3360.385019
 11
4404.397031
 21
3360.389769
  0
LINE
  8
0
  6
CONTINUOUS
 62
3
 10
4404.397031
 20
3360.389769
 11
4404.221951
 21
3360.393395
  0
LINE
  8
0
  6
CONTINUOUS
 62
3
 10
4404.221951
 20
3360.393395
 11
4403.869177
 21
3360.397262
  0
LINE
  8
0
  6
CONTINUOUS
 62
3
 10
4403.869177
 20
3360.397262
 11
4403.691586
 21
3360.397498
  0
LINE
  8
0
  6
CONTINUOUS
 62
3
 10
4403.691586
 20
3360.397498
 11
4403.513268
 21
3360.396600
  0
LINE
  8
0
  6
CONTINUOUS
 62
3
 10
4403.513268
 20
3360.396600
 11
4403.154671
 21
3360.391418
  0
LINE
  8
0
  6
CONTINUOUS
 62
3
 10
4403.154671
 20
3360.391418
 11
4402.974503
 21
3360.387140
  0
LINE
  8
0
  6
CONTINUOUS
 62
3
 10
4402.974503
 20
3360.387140
 11
4402.793830
 21
3360.381740
  0
LINE
  8
0
  6
CONTINUOUS
 62
3
 10
4402.793830
 20
3360.381740
 11
4402.431185
 21
3360.367591
  0
LINE
  8
0
  6
CONTINUOUS
 62
3
 10
4402.431185
 20
3360.367591
 11
4402.249323
 21
3360.358847
  0
LINE
  8
0
  6
CONTINUOUS
 62
3
 10
4402.249323
 20
3360.358847
 11
4402.067176
 21
3360.348995
  0
LINE
  8
0
  6
CONTINUOUS
 62
3
 10
4402.067176
 20
3360.348995
 11
4401.702247
 21
3360.325977
  0
LINE
  8
0
  6
CONTINUOUS
 62
3
 10
4401.702247
 20
3360.325977
 11
4401.519574
 21
3360.312817
  0
LINE
  8
0
  6
CONTINUOUS
 62
3
 10
4401.519574
 20
3360.312817
 11
4401.336836
 21
3360.298562
  0
LINE
  8
0
  6
CONTINUOUS
 62
3
 10
4401.336836
 20
3360.298562
 11
4400.971385
 21
3360.266773
  0
LINE
  8
0
  6
CONTINUOUS
 62
3
 10
4400.971385
 20
3360.266773
 11
4400.788783
 21
3360.249246
  0
LINE
  8
0
  6
CONTINUOUS
 62
3
 10
4400.788783
 20
3360.249246
 11
4400.606336
 21
3360.230636
  0
LINE
  8
0
  6
CONTINUOUS
 62
3
 10
4400.606336
 20
3360.230636
 11
4400.242133
 21
3360.190177
  0
LINE
  8
0
  6
CONTINUOUS
 62
3
 10
4400.242133
 20
3360.190177
 11
4400.060493
 21
3360.168342
  0
LINE
  8
0
  6
CONTINUOUS
 62
3
 10
4400.060493
 20
3360.168342
 11
4399.879233
 21
3360.145449
  0
LINE
  8
0
  6
CONTINUOUS
 62
3
 10
4399.879233
 20
3360.145449
 11
4399.518067
 21
3360.096524
  0
LINE
  8
0
  6
CONTINUOUS
 62
3
 10
4399.518067
 20
3360.096524
 11
4399.338269
 21
3360.070510
  0
LINE
  8
0
  6
CONTINUOUS
 62
3
 10
4399.338269
 20
3360.070510
 11
4399.159065
 21
3360.043472
  0
LINE
  8
0
  6
CONTINUOUS
 62
3
 10
4399.159065
 20
3360.043472
 11
4398.802657
 21
3359.986363
  0
LINE
  8
0
  6
CONTINUOUS
 62
3
 10
4398.802657
 20
3359.986363
 11
4398.625559
 21
3359.956310
  0
LINE
  8
0
  6
CONTINUOUS
 62
3
 10
4398.625559
 20
3359.956310
 11
4398.449271
 21
3359.925269
  0
LINE
  8
0
  6
CONTINUOUS
 62
3
 10
4398.449271
 20
3359.925269
 11
4398.099336
 21
3359.860261
  0
LINE
  8
0
  6
CONTINUOUS
 62
3
 10
4398.099336
 20
3359.860261
 11
4397.925798
 21
3359.826311
  0
LINE
  8
0
  6
CONTINUOUS
 62
3
 10
4397.925798
 20
3359.826311
 11
4397.753284
 21
3359.791409
  0
LINE
  8
0
  6
CONTINUOUS
 62
3
 10
4397.753284
 20
3359.791409
 11
4397.411542
 21
3359.718784
  0
LINE
  8
0
  6
CONTINUOUS
 62
3
 10
4397.411542
 20
3359.718784
 11
4397.242421
 21
3359.681079
  0
LINE
  8
0
  6
CONTINUOUS
 62
3
 10
4397.242421
 20
3359.681079
 11
4397.074541
 21
3359.642459
  0
LINE
  8
0
  6
CONTINUOUS
 62
3
 10
4397.074541
 20
3359.642459
 11
4396.742707
 21
3359.562525
  0
LINE
  8
0
  6
CONTINUOUS
 62
3
 10
4396.742707
 20
3359.562525
 11
4396.578846
 21
3359.521240
  0
LINE
  8
0
  6
CONTINUOUS
 62
3
 10
4396.578846
 20
3359.521240
 11
4396.416418
 21
3359.479092
  0
LINE
  8
0
  6
CONTINUOUS
 62
3
 10
4396.416418
 20
3359.479092
 11
4396.096044
 21
3359.392268
  0
LINE
  8
0
  6
CONTINUOUS
 62
3
 10
4396.096044
 20
3359.392268
 11
4395.938192
 21
3359.347618
  0
LINE
  8
0
  6
CONTINUOUS
 62
3
 10
4395.938192
 20
3359.347618
 11
4395.781959
 21
3359.302160
  0
LINE
  8
0
  6
CONTINUOUS
 62
3
 10
4395.781959
 20
3359.302160
 11
4395.474533
 21
3359.208877
  0
LINE
  8
0
  6
CONTINUOUS
 62
3
 10
4395.474533
 20
3359.208877
 11
4395.323434
 21
3359.161078
  0
LINE
  8
0
  6
CONTINUOUS
 62
3
 10
4395.323434
 20
3359.161078
 11
4395.174139
 21
3359.112526
  0
LINE
  8
0
  6
CONTINUOUS
 62
3
 10
4395.174139
 20
3359.112526
 11
4394.881148
 21
3359.013216
  0
LINE
  8
0
  6
CONTINUOUS
 62
3
 10
4394.881148
 20
3359.013216
 11
4394.737545
 21
3358.962485
  0
LINE
  8
0
  6
CONTINUOUS
 62
3
 10
4394.737545
 20
3358.962485
 11
4394.595933
 21
3358.911054
  0
LINE
  8
0
  6
CONTINUOUS
 62
3
 10
4394.595933
 20
3358.911054
 11
4394.318864
 21
3358.806150
  0
LINE
  8
0
  6
CONTINUOUS
 62
3
 10
4394.318864
 20
3358.806150
 11
4394.183500
 21
3358.752708
  0
LINE
  8
0
  6
CONTINUOUS
 62
3
 10
4394.183500
 20
3358.752708
 11
4394.050299
 21
3358.698629
  0
LINE
  8
0
  6
CONTINUOUS
 62
3
 10
4394.050299
 20
3358.698629
 11
4393.790525
 21
3358.588621
  0
LINE
  8
0
  6
CONTINUOUS
 62
3
 10
4393.790525
 20
3358.588621
 11
4393.664019
 21
3358.532722
  0
LINE
  8
0
  6
CONTINUOUS
 62
3
 10
4393.664019
 20
3358.532722
 11
4393.539814
 21
3358.476248
  0
LINE
  8
0
  6
CONTINUOUS
 62
3
 10
4393.539814
 20
3358.476248
 11
4393.298440
 21
3358.361635
  0
LINE
  8
0
  6
CONTINUOUS
 62
3
 10
4393.298440
 20
3358.361635
 11
4393.181340
 21
3358.303527
  0
LINE
  8
0
  6
CONTINUOUS
 62
3
 10
4393.181340
 20
3358.303527
 11
4393.066676
 21
3358.244905
  0
LINE
  8
0
  6
CONTINUOUS
 62
3
 10
4393.066676
 20
3358.244905
 11
4392.844796
 21
3358.126182
  0
LINE
  8
0
  6
CONTINUOUS
 62
3
 10
4392.844796
 20
3358.126182
 11
4392.737648
 21
3358.066112
  0
LINE
  8
0
  6
CONTINUOUS
 62
3
 10
4392.737648
 20
3358.066112
 11
4392.633073
 21
3358.005589
  0
LINE
  8
0
  6
CONTINUOUS
 62
3
 10
4392.633073
 20
3358.005589
 11
4392.431780
 21
3357.883251
  0
LINE
  8
0
  6
CONTINUOUS
 62
3
 10
4392.431780
 20
3357.883251
 11
4392.335131
 21
3357.821466
  0
LINE
  8
0
  6
CONTINUOUS
 62
3
 10
4392.335131
 20
3357.821466
 11
4392.241191
 21
3357.759290
  0
LINE
  8
0
  6
CONTINUOUS
 62
3
 10
4392.241191
 20
3357.759290
 11
4392.061532
 21
3357.633841
  0
LINE
  8
0
  6
CONTINUOUS
 62
3
 10
4392.061532
 20
3357.633841
 11
4391.975853
 21
3357.570594
  0
LINE
  8
0
  6
CONTINUOUS
 62
3
 10
4391.975853
 20
3357.570594
 11
4391.892972
 21
3357.507014
  0
LINE
  8
0
  6
CONTINUOUS
 62
3
 10
4391.892972
 20
3357.507014
 11
4391.735698
 21
3357.378896
  0
LINE
  8
0
  6
CONTINUOUS
 62
3
 10
4391.735698
 20
3357.378896
 11
4391.661350
 21
3357.314382
  0
LINE
  8
0
  6
CONTINUOUS
 62
3
 10
4391.661350
 20
3357.314382
 11
4391.589894
 21
3357.249579
  0
LINE
  8
0
  6
CONTINUOUS
 62
3
 10
4391.589894
 20
3357.249579
 11
4391.455746
 21
3357.119150
  0
LINE
  8
0
  6
CONTINUOUS
 62
3
 10
4391.455746
 20
3357.119150
 11
4391.393101
 21
3357.053548
  0
LINE
  8
0
  6
CONTINUOUS
 62
3
 10
4391.393101
 20
3357.053548
 11
4391.333439
 21
3356.987701
  0
LINE
  8
0
  6
CONTINUOUS
 62
3
 10
4391.333439
 20
3356.987701
 11
4391.223159
 21
3356.855320
  0
LINE
  8
0
  6
CONTINUOUS
 62
3
 10
4391.223159
 20
3356.855320
 11
4391.172587
 21
3356.788808
  0
LINE
  8
0
  6
CONTINUOUS
 62
3
 10
4391.172587
 20
3356.788808
 11
4391.125090
 21
3356.722096
  0
LINE
  8
0
  6
CONTINUOUS
 62
3
 10
4391.125090
 20
3356.722096
 11
4391.039418
 21
3356.588120
  0
LINE
  8
0
  6
CONTINUOUS
 62
3
 10
4391.039418
 20
3356.588120
 11
4391.001291
 21
3356.520871
  0
LINE
  8
0
  6
CONTINUOUS
 62
3
 10
4391.001291
 20
3356.520871
 11
4390.966346
 21
3356.453439
  0
LINE
  8
0
  6
CONTINUOUS
 62
3
 10
4390.966346
 20
3356.453439
 11
4390.906115
 21
3356.318138
  0
LINE
  8
0
  6
CONTINUOUS
 62
3
 10
4390.906115
 20
3356.318138
 11
4390.880881
 21
3356.250336
  0
LINE
  8
0
  6
CONTINUOUS
 62
3
 10
4390.880881
 20
3356.250336
 11
4390.858938
 21
3356.182477
  0
LINE
  8
0
  6
CONTINUOUS
 62
3
 10
4390.858938
 20
3356.182477
 11
4390.825030
 21
3356.046717
  0
LINE
  8
0
  6
CONTINUOUS
 62
3
 10
4390.825030
 20
3356.046717
 11
4390.813118
 21
3355.978888
  0
LINE
  8
0
  6
CONTINUOUS
 62
3
 10
4390.813118
 20
3355.978888
 11
4390.804602
 21
3355.911129
  0
LINE
  8
0
  6
CONTINUOUS
 62
3
 10
4390.804602
 20
3355.911129
 11
4390.797867
 21
3355.775967
  0
LINE
  8
0
  6
CONTINUOUS
 62
3
 10
4459.802901
 20
3438.318677
 11
4459.802901
 21
3459.318677
  0
LINE
  8
0
  6
CONTINUOUS
 62
3
 10
4459.802901
 20
3438.318677
 11
4457.802901
 21
3438.318677
  0
LINE
  8
0
  6
CONTINUOUS
 62
3
 10
4459.802901
 20
3459.318677
 11
4457.802901
 21
3459.318677
  0
LINE
  8
0
  6
CONTINUOUS
 62
3
 10
4467.043712
 20
3458.467488
 11
4467.136876
 21
3458.357224
  0
LINE
  8
0
  6
CONTINUOUS
 62
3
 10
4467.136876
 20
3458.357224
 11
4467.223365
 21
3458.249006
  0
LINE
  8
0
  6
CONTINUOUS
 62
3
 10
4467.223365
 20
3458.249006
 11
4467.303375
 21
3458.142634
  0
LINE
  8
0
  6
CONTINUOUS
 62
3
 10
4467.303375
 20
3458.142634
 11
4467.377077
 21
3458.037916
  0
LINE
  8
0
  6
CONTINUOUS
 62
3
 10
4467.377077
 20
3458.037916
 11
4467.444618
 21
3457.934667
  0
LINE
  8
0
  6
CONTINUOUS
 62
3
 10
4467.444618
 20
3457.934667
 11
4467.506124
 21
3457.832710
  0
LINE
  8
0
  6
CONTINUOUS
 62
3
 10
4467.043712
 20
3439.169867
 11
4467.279099
 21
3439.461722
  0
LINE
  8
0
  6
CONTINUOUS
 62
3
 10
4467.279099
 20
3439.461722
 11
4467.468450
 21
3439.741173
  0
LINE
  8
0
  6
CONTINUOUS
 62
3
 10
4467.468450
 20
3439.741173
 11
4467.614435
 21
3440.011770
  0
LINE
  8
0
  6
CONTINUOUS
 62
3
 10
4467.614435
 20
3440.011770
 11
4467.718639
 21
3440.276839
  0
LINE
  8
0
  6
CONTINUOUS
 62
3
 10
4467.718639
 20
3440.276839
 11
4467.781620
 21
3440.539618
  0
LINE
  8
0
  6
CONTINUOUS
 62
3
 10
4467.781620
 20
3440.539618
 11
4467.797545
 21
3440.671167
  0
LINE
  8
0
  6
CONTINUOUS
 62
3
 10
4467.797545
 20
3440.671167
 11
4467.802901
 21
3440.803391
  0
LINE
  8
0
  6
CONTINUOUS
 62
3
 10
4459.802901
 20
3440.803394
 11
4459.824182
 21
3440.539618
  0
LINE
  8
0
  6
CONTINUOUS
 62
3
 10
4459.824182
 20
3440.539618
 11
4459.887163
 21
3440.276839
  0
LINE
  8
0
  6
CONTINUOUS
 62
3
 10
4459.887163
 20
3440.276839
 11
4459.991367
 21
3440.011770
  0
LINE
  8
0
  6
CONTINUOUS
 62
3
 10
4459.991367
 20
3440.011770
 11
4460.137352
 21
3439.741173
  0
LINE
  8
0
  6
CONTINUOUS
 62
3
 10
4460.137352
 20
3439.741173
 11
4460.326703
 21
3439.461722
  0
LINE
  8
0
  6
CONTINUOUS
 62
3
 10
4460.326703
 20
3439.461722
 11
4460.562087
 21
3439.169871
  0
LINE
  8
0
  6
CONTINUOUS
 62
3
 10
4460.099676
 20
3457.832707
 11
4460.161184
 21
3457.934667
  0
LINE
  8
0
  6
CONTINUOUS
 62
3
 10
4460.161184
 20
3457.934667
 11
4460.228725
 21
3458.037916
  0
LINE
  8
0
  6
CONTINUOUS
 62
3
 10
4460.228725
 20
3458.037916
 11
4460.302427
 21
3458.142634
  0
LINE
  8
0
  6
CONTINUOUS
 62
3
 10
4460.302427
 20
3458.142634
 11
4460.382437
 21
3458.249006
  0
LINE
  8
0
  6
CONTINUOUS
 62
3
 10
4460.382437
 20
3458.249006
 11
4460.468926
 21
3458.357224
  0
LINE
  8
0
  6
CONTINUOUS
 62
3
 10
4460.468926
 20
3458.357224
 11
4460.562087
 21
3458.467484
  0
LINE
  8
0
  6
CONTINUOUS
 62
3
 10
4467.802901
 20
3457.318677
 11
4467.506126
 21
3457.832706
  0
LINE
  8
0
  6
CONTINUOUS
 62
3
 10
4459.802901
 20
3457.318677
 11
4460.099676
 21
3457.832706
  0
LINE
  8
0
  6
CONTINUOUS
 62
3
 10
4467.043711
 20
3439.169867
 11
4460.562090
 21
3439.169867
  0
LINE
  8
0
  6
CONTINUOUS
 62
3
 10
4467.043711
 20
3458.467488
 11
4460.562090
 21
3458.467488
  0
LINE
  8
0
  6
CONTINUOUS
 62
3
 10
4458.802901
 20
3406.116873
 11
4486.408366
 21
3407.433489
  0
LINE
  8
0
  6
CONTINUOUS
 62
3
 10
4458.802901
 20
3386.455132
 11
4486.238257
 21
3384.734171
  0
LINE
  8
0
  6
CONTINUOUS
 62
3
 10
4523.296760
 20
3395.806749
 11
4522.213281
 21
3386.691955
  0
LINE
  8
0
  6
CONTINUOUS
 62
3
 10
4523.296760
 20
3395.806749
 11
4522.350009
 21
3404.936758
  0
LINE
  8
0
  6
CONTINUOUS
 62
3
 10
4522.350009
 20
3404.936759
 11
4522.347068
 21
3404.964724
  0
LINE
  8
0
  6
CONTINUOUS
 62
3
 10
4522.347068
 20
3404.964724
 11
4522.344069
 21
3404.992442
  0
LINE
  8
0
  6
CONTINUOUS
 62
3
 10
4522.344069
 20
3404.992442
 11
4522.341002
 21
3405.019942
  0
LINE
  8
0
  6
CONTINUOUS
 62
3
 10
4522.341002
 20
3405.019942
 11
4522.337862
 21
3405.047254
  0
LINE
  8
0
  6
CONTINUOUS
 62
3
 10
4522.337862
 20
3405.047254
 11
4522.334638
 21
3405.074407
  0
LINE
  8
0
  6
CONTINUOUS
 62
3
 10
4522.334638
 20
3405.074407
 11
4522.331325
 21
3405.101433
  0
LINE
  8
0
  6
CONTINUOUS
 62
3
 10
4522.331325
 20
3405.101433
 11
4522.327913
 21
3405.128361
  0
LINE
  8
0
  6
CONTINUOUS
 62
3
 10
4522.327913
 20
3405.128361
 11
4522.324396
 21
3405.155220
  0
LINE
  8
0
  6
CONTINUOUS
 62
3
 10
4522.324396
 20
3405.155220
 11
4522.320769
 21
3405.182033
  0
LINE
  8
0
  6
CONTINUOUS
 62
3
 10
4522.320769
 20
3405.182033
 11
4522.317016
 21
3405.208857
  0
LINE
  8
0
  6
CONTINUOUS
 62
3
 10
4522.317016
 20
3405.208857
 11
4522.313109
 21
3405.235772
  0
LINE
  8
0
  6
CONTINUOUS
 62
3
 10
4522.313109
 20
3405.235772
 11
4522.309021
 21
3405.262858
  0
LINE
  8
0
  6
CONTINUOUS
 62
3
 10
4522.309021
 20
3405.262858
 11
4522.304725
 21
3405.290197
  0
LINE
  8
0
  6
CONTINUOUS
 62
3
 10
4522.304725
 20
3405.290197
 11
4522.300192
 21
3405.317869
  0
LINE
  8
0
  6
CONTINUOUS
 62
3
 10
4522.300192
 20
3405.317869
 11
4522.295395
 21
3405.345955
  0
LINE
  8
0
  6
CONTINUOUS
 62
3
 10
4522.295395
 20
3405.345955
 11
4522.290307
 21
3405.374535
  0
LINE
  8
0
  6
CONTINUOUS
 62
3
 10
4522.290307
 20
3405.374535
 11
4522.284938
 21
3405.403645
  0
LINE
  8
0
  6
CONTINUOUS
 62
3
 10
4522.284938
 20
3405.403645
 11
4522.279220
 21
3405.433455
  0
LINE
  8
0
  6
CONTINUOUS
 62
3
 10
4522.279220
 20
3405.433455
 11
4522.273012
 21
3405.464247
  0
LINE
  8
0
  6
CONTINUOUS
 62
3
 10
4522.273012
 20
3405.464247
 11
4522.266169
 21
3405.496302
  0
LINE
  8
0
  6
CONTINUOUS
 62
3
 10
4522.266169
 20
3405.496302
 11
4522.258550
 21
3405.529902
  0
LINE
  8
0
  6
CONTINUOUS
 62
3
 10
4522.258550
 20
3405.529902
 11
4522.250012
 21
3405.565329
  0
LINE
  8
0
  6
CONTINUOUS
 62
3
 10
4522.250012
 20
3405.565329
 11
4522.240411
 21
3405.602863
  0
LINE
  8
0
  6
CONTINUOUS
 62
3
 10
4522.240411
 20
3405.602863
 11
4522.229606
 21
3405.642788
  0
LINE
  8
0
  6
CONTINUOUS
 62
3
 10
4522.229606
 20
3405.642788
 11
4522.217373
 21
3405.685527
  0
LINE
  8
0
  6
CONTINUOUS
 62
3
 10
4522.217373
 20
3405.685527
 11
4522.203140
 21
3405.731892
  0
LINE
  8
0
  6
CONTINUOUS
 62
3
 10
4522.203140
 20
3405.731892
 11
4522.186244
 21
3405.782745
  0
LINE
  8
0
  6
CONTINUOUS
 62
3
 10
4522.186244
 20
3405.782745
 11
4522.166020
 21
3405.838948
  0
LINE
  8
0
  6
CONTINUOUS
 62
3
 10
4522.166020
 20
3405.838948
 11
4522.141610
 21
3405.901542
  0
LINE
  8
0
  6
CONTINUOUS
 62
3
 10
4522.141610
 20
3405.901542
 11
4522.111305
 21
3405.972128
  0
LINE
  8
0
  6
CONTINUOUS
 62
3
 10
4522.111305
 20
3405.972128
 11
4522.073313
 21
3406.052441
  0
LINE
  8
0
  6
CONTINUOUS
 62
3
 10
4522.073313
 20
3406.052441
 11
4522.025356
 21
3406.144676
  0
LINE
  8
0
  6
CONTINUOUS
 62
3
 10
4522.025356
 20
3406.144676
 11
4521.961243
 21
3406.251112
  0
LINE
  8
0
  6
CONTINUOUS
 62
3
 10
4521.961243
 20
3406.251112
 11
4521.874214
 21
3406.373982
  0
LINE
  8
0
  6
CONTINUOUS
 62
3
 10
4521.874214
 20
3406.373982
 11
4521.756926
 21
3406.515943
  0
LINE
  8
0
  6
CONTINUOUS
 62
3
 10
4521.756926
 20
3406.515943
 11
4521.595735
 21
3406.676438
  0
LINE
  8
0
  6
CONTINUOUS
 62
3
 10
4521.595735
 20
3406.676438
 11
4521.493621
 21
3406.760321
  0
LINE
  8
0
  6
CONTINUOUS
 62
3
 10
4521.493621
 20
3406.760321
 11
4521.374503
 21
3406.844663
  0
LINE
  8
0
  6
CONTINUOUS
 62
3
 10
4521.374503
 20
3406.844663
 11
4521.236368
 21
3406.927968
  0
LINE
  8
0
  6
CONTINUOUS
 62
3
 10
4521.236368
 20
3406.927968
 11
4521.077256
 21
3407.006692
  0
LINE
  8
0
  6
CONTINUOUS
 62
3
 10
4521.077256
 20
3407.006692
 11
4520.990239
 21
3407.042724
  0
LINE
  8
0
  6
CONTINUOUS
 62
3
 10
4520.990239
 20
3407.042724
 11
4520.898691
 21
3407.075758
  0
LINE
  8
0
  6
CONTINUOUS
 62
3
 10
4520.898691
 20
3407.075758
 11
4520.703339
 21
3407.130502
  0
LINE
  8
0
  6
CONTINUOUS
 62
3
 10
4520.703339
 20
3407.130502
 11
4520.600256
 21
3407.151036
  0
LINE
  8
0
  6
CONTINUOUS
 62
3
 10
4520.600256
 20
3407.151036
 11
4520.494050
 21
3407.166277
  0
LINE
  8
0
  6
CONTINUOUS
 62
3
 10
4520.494050
 20
3407.166277
 11
4520.276747
 21
3407.179700
  0
LINE
  8
0
  6
CONTINUOUS
 62
3
 10
4520.106580
 20
3384.480338
 11
4520.534070
 21
3384.523324
  0
LINE
  8
0
  6
CONTINUOUS
 62
3
 10
4520.534070
 20
3384.523324
 11
4520.910112
 21
3384.641165
  0
LINE
  8
0
  6
CONTINUOUS
 62
3
 10
4520.910112
 20
3384.641165
 11
4521.209378
 21
3384.799434
  0
LINE
  8
0
  6
CONTINUOUS
 62
3
 10
4521.209378
 20
3384.799434
 11
4521.433215
 21
3384.965376
  0
LINE
  8
0
  6
CONTINUOUS
 62
3
 10
4521.433215
 20
3384.965376
 11
4521.596593
 21
3385.122369
  0
LINE
  8
0
  6
CONTINUOUS
 62
3
 10
4521.596593
 20
3385.122369
 11
4521.716015
 21
3385.261961
  0
LINE
  8
0
  6
CONTINUOUS
 62
3
 10
4521.716015
 20
3385.261961
 11
4521.803949
 21
3385.383663
  0
LINE
  8
0
  6
CONTINUOUS
 62
3
 10
4521.803949
 20
3385.383663
 11
4521.869322
 21
3385.489199
  0
LINE
  8
0
  6
CONTINUOUS
 62
3
 10
4521.869322
 20
3385.489199
 11
4521.919945
 21
3385.580638
  0
LINE
  8
0
  6
CONTINUOUS
 62
3
 10
4521.919945
 20
3385.580638
 11
4521.959436
 21
3385.660394
  0
LINE
  8
0
  6
CONTINUOUS
 62
3
 10
4521.959436
 20
3385.660394
 11
4521.990504
 21
3385.730417
  0
LINE
  8
0
  6
CONTINUOUS
 62
3
 10
4521.990504
 20
3385.730417
 11
4522.015818
 21
3385.792646
  0
LINE
  8
0
  6
CONTINUOUS
 62
3
 10
4522.015818
 20
3385.792646
 11
4522.036988
 21
3385.848629
  0
LINE
  8
0
  6
CONTINUOUS
 62
3
 10
4522.036988
 20
3385.848629
 11
4522.054689
 21
3385.899265
  0
LINE
  8
0
  6
CONTINUOUS
 62
3
 10
4522.054689
 20
3385.899265
 11
4522.069590
 21
3385.945393
  0
LINE
  8
0
  6
CONTINUOUS
 62
3
 10
4522.069590
 20
3385.945393
 11
4522.082359
 21
3385.987853
  0
LINE
  8
0
  6
CONTINUOUS
 62
3
 10
4522.082359
 20
3385.987853
 11
4522.093646
 21
3386.027475
  0
LINE
  8
0
  6
CONTINUOUS
 62
3
 10
4522.093646
 20
3386.027475
 11
4522.103768
 21
3386.064810
  0
LINE
  8
0
  6
CONTINUOUS
 62
3
 10
4522.103768
 20
3386.064810
 11
4522.112846
 21
3386.100121
  0
LINE
  8
0
  6
CONTINUOUS
 62
3
 10
4522.112846
 20
3386.100121
 11
4522.121007
 21
3386.133662
  0
LINE
  8
0
  6
CONTINUOUS
 62
3
 10
4522.121007
 20
3386.133662
 11
4522.128380
 21
3386.165684
  0
LINE
  8
0
  6
CONTINUOUS
 62
3
 10
4522.128380
 20
3386.165684
 11
4522.135092
 21
3386.196438
  0
LINE
  8
0
  6
CONTINUOUS
 62
3
 10
4522.135092
 20
3386.196438
 11
4522.141271
 21
3386.226177
  0
LINE
  8
0
  6
CONTINUOUS
 62
3
 10
4522.141271
 20
3386.226177
 11
4522.147045
 21
3386.255152
  0
LINE
  8
0
  6
CONTINUOUS
 62
3
 10
4522.147045
 20
3386.255152
 11
4522.152532
 21
3386.283603
  0
LINE
  8
0
  6
CONTINUOUS
 62
3
 10
4522.152532
 20
3386.283603
 11
4522.157744
 21
3386.311603
  0
LINE
  8
0
  6
CONTINUOUS
 62
3
 10
4522.157744
 20
3386.311603
 11
4522.162692
 21
3386.339208
  0
LINE
  8
0
  6
CONTINUOUS
 62
3
 10
4522.162692
 20
3386.339208
 11
4522.167404
 21
3386.366493
  0
LINE
  8
0
  6
CONTINUOUS
 62
3
 10
4522.167404
 20
3386.366493
 11
4522.171905
 21
3386.393532
  0
LINE
  8
0
  6
CONTINUOUS
 62
3
 10
4522.171905
 20
3386.393532
 11
4522.176220
 21
3386.420398
  0
LINE
  8
0
  6
CONTINUOUS
 62
3
 10
4522.176220
 20
3386.420398
 11
4522.180377
 21
3386.447166
  0
LINE
  8
0
  6
CONTINUOUS
 62
3
 10
4522.180377
 20
3386.447166
 11
4522.184400
 21
3386.473909
  0
LINE
  8
0
  6
CONTINUOUS
 62
3
 10
4522.184400
 20
3386.473909
 11
4522.188314
 21
3386.500699
  0
LINE
  8
0
  6
CONTINUOUS
 62
3
 10
4522.188314
 20
3386.500699
 11
4522.192127
 21
3386.527568
  0
LINE
  8
0
  6
CONTINUOUS
 62
3
 10
4522.192127
 20
3386.527568
 11
4522.195845
 21
3386.554540
  0
LINE
  8
0
  6
CONTINUOUS
 62
3
 10
4522.195845
 20
3386.554540
 11
4522.199476
 21
3386.581644
  0
LINE
  8
0
  6
CONTINUOUS
 62
3
 10
4522.199476
 20
3386.581644
 11
4522.203027
 21
3386.608909
  0
LINE
  8
0
  6
CONTINUOUS
 62
3
 10
4522.203027
 20
3386.608909
 11
4522.206506
 21
3386.636363
  0
LINE
  8
0
  6
CONTINUOUS
 62
3
 10
4522.206506
 20
3386.636363
 11
4522.209922
 21
3386.664036
  0
LINE
  8
0
  6
CONTINUOUS
 62
3
 10
4522.209922
 20
3386.664036
 11
4522.213281
 21
3386.691951
  0
LINE
  8
0
  6
CONTINUOUS
 62
3
 10
4520.106580
 20
3384.480338
 11
4486.239058
 21
3384.734143
  0
LINE
  8
0
  6
CONTINUOUS
 62
3
 10
4520.276690
 20
3407.179701
 11
4486.409168
 21
3407.433506
  0
LINE
  8
0
  6
CONTINUOUS
 62
3
 10
3574.602901
 20
2949.813947
 11
3574.602901
 21
2939.713185
  0
ARC
  8
0
  6
CONTINUOUS
 62
3
 10
3604.602901
 20
2939.713185
 40
30.000000
 50
180.000000
 51
270.000000
  0
LINE
  8
0
  6
CONTINUOUS
 62
3
 10
3604.602901
 20
2909.713185
 11
3758.152901
 21
2909.713185
  0
LINE
  8
0
  6
CONTINUOUS
 62
3
 10
3758.152901
 20
2909.713185
 11
3758.152901
 21
2919.813947
  0
LINE
  8
0
  6
CONTINUOUS
 62
3
 10
3805.652901
 20
2909.713185
 11
4103.552901
 21
2909.713185
  0
LINE
  8
0
  6
CONTINUOUS
 62
3
 10
4151.052901
 20
2919.813947
 11
4151.052901
 21
2909.713185
  0
LINE
  8
0
  6
CONTINUOUS
 62
3
 10
4151.052901
 20
2909.713185
 11
4304.602901
 21
2909.713185
  0
ARC
  8
0
  6
CONTINUOUS
 62
3
 10
4304.602901
 20
2939.713185
 40
30.000000
 50
270.000000
 51
0.000000
  0
LINE
  8
0
  6
CONTINUOUS
 62
3
 10
4334.602901
 20
2939.713185
 11
4334.602901
 21
2949.813947
  0
LINE
  8
0
  6
CONTINUOUS
 62
3
 10
3805.652901
 20
2919.813947
 11
3805.652901
 21
2909.713185
  0
LINE
  8
0
  6
CONTINUOUS
 62
3
 10
3805.652901
 20
2909.713185
 11
3758.152901
 21
2909.713185
  0
LINE
  8
0
  6
CONTINUOUS
 62
3
 10
4103.552901
 20
2909.713185
 11
4103.552901
 21
2919.813947
  0
LINE
  8
0
  6
CONTINUOUS
 62
3
 10
4151.052901
 20
2909.713185
 11
4103.552901
 21
2909.713185
  0
LINE
  8
0
  6
CONTINUOUS
 62
3
 10
4311.602901
 20
2955.738222
 11
4311.602901
 21
2951.813947
  0
ARC
  8
0
  6
CONTINUOUS
 62
3
 10
4301.602901
 20
2951.813947
 40
10.000000
 50
270.000000
 51
0.000000
  0
LINE
  8
0
  6
CONTINUOUS
 62
3
 10
4301.602901
 20
2941.813947
 11
3607.602901
 21
2941.813947
  0
ARC
  8
0
  6
CONTINUOUS
 62
3
 10
3607.602901
 20
2951.813947
 40
10.000000
 50
180.000000
 51
270.000000
  0
LINE
  8
0
  6
CONTINUOUS
 62
3
 10
3597.602901
 20
2951.813947
 11
3597.602901
 21
2955.738222
  0
LINE
  8
0
  6
CONTINUOUS
 62
3
 10
3574.602901
 20
2955.846084
 11
3574.602901
 21
2949.813947
  0
ARC
  8
0
  6
CONTINUOUS
 62
3
 10
3604.602901
 20
2949.813947
 40
30.000000
 50
180.000000
 51
270.000000
  0
LINE
  8
0
  6
CONTINUOUS
 62
3
 10
3604.602901
 20
2919.813947
 11
3758.152901
 21
2919.813947
  0
LINE
  8
0
  6
CONTINUOUS
 62
3
 10
3758.152901
 20
2919.813947
 11
3758.152901
 21
2936.413947
  0
LINE
  8
0
  6
CONTINUOUS
 62
3
 10
3805.652901
 20
2919.813947
 11
4103.552901
 21
2919.813947
  0
LINE
  8
0
  6
CONTINUOUS
 62
3
 10
4151.052901
 20
2936.413947
 11
4151.052901
 21
2919.813947
  0
LINE
  8
0
  6
CONTINUOUS
 62
3
 10
4151.052901
 20
2919.813947
 11
4304.602901
 21
2919.813947
  0
ARC
  8
0
  6
CONTINUOUS
 62
3
 10
4304.602901
 20
2949.813947
 40
30.000000
 50
270.000000
 51
0.000000
  0
LINE
  8
0
  6
CONTINUOUS
 62
3
 10
4334.602901
 20
2949.813947
 11
4334.602901
 21
2970.686793
  0
LINE
  8
0
  6
CONTINUOUS
 62
3
 10
3758.152901
 20
2936.413947
 11
3805.652901
 21
2936.413947
  0
LINE
  8
0
  6
CONTINUOUS
 62
3
 10
3805.652901
 20
2936.413947
 11
3805.652901
 21
2919.813947
  0
LINE
  8
0
  6
CONTINUOUS
 62
3
 10
4103.552901
 20
2919.813947
 11
4103.552901
 21
2936.413947
  0
LINE
  8
0
  6
CONTINUOUS
 62
3
 10
4103.552901
 20
2936.413947
 11
4151.052901
 21
2936.413947
  0
LINE
  8
0
  6
CONTINUOUS
 62
3
 10
4354.902901
 20
3197.816793
 11
4349.902901
 21
3197.816793
  0
LINE
  8
0
  6
CONTINUOUS
 62
3
 10
4429.902901
 20
3197.816793
 11
4424.902901
 21
3197.816793
  0
LINE
  8
0
  6
CONTINUOUS
 62
3
 10
4349.902901
 20
3242.816793
 11
4349.902901
 21
3197.816793
  0
LINE
  8
0
  6
CONTINUOUS
 62
3
 10
4424.902901
 20
3242.816793
 11
4429.902901
 21
3242.816793
  0
LINE
  8
0
  6
CONTINUOUS
 62
3
 10
4429.902901
 20
3197.816793
 11
4429.902901
 21
3242.816793
  0
LINE
  8
0
  6
CONTINUOUS
 62
3
 10
4354.902901
 20
3197.816793
 11
4424.902901
 21
3197.816793
  0
LINE
  8
0
  6
CONTINUOUS
 62
3
 10
4424.902901
 20
3242.816793
 11
4354.902901
 21
3242.816793
  0
CIRCLE
  8
0
  6
CONTINUOUS
 62
3
 10
4389.902901
 20
3226.816793
 40
9.188000
  0
LINE
  8
0
  6
CONTINUOUS
 62
3
 10
4424.902901
 20
3190.816793
 11
4429.902901
 21
3190.816793
  0
LINE
  8
0
  6
CONTINUOUS
 62
3
 10
4424.902901
 20
3190.816793
 11
4354.902901
 21
3190.816793
  0
LINE
  8
0
  6
CONTINUOUS
 62
3
 10
4349.902901
 20
3190.816793
 11
4354.902901
 21
3190.816793
  0
LINE
  8
0
  6
CONTINUOUS
 62
3
 10
4429.902901
 20
3190.816793
 11
4429.902901
 21
3197.316793
  0
LINE
  8
0
  6
CONTINUOUS
 62
3
 10
4424.902901
 20
3197.316793
 11
4429.902901
 21
3197.316793
  0
LINE
  8
0
  6
CONTINUOUS
 62
3
 10
4424.902901
 20
3197.316793
 11
4354.902901
 21
3197.316793
  0
LINE
  8
0
  6
CONTINUOUS
 62
3
 10
4349.902901
 20
3197.316793
 11
4354.902901
 21
3197.316793
  0
LINE
  8
0
  6
CONTINUOUS
 62
3
 10
4349.902901
 20
3190.816793
 11
4349.902901
 21
3197.316793
  0
LINE
  8
0
  6
CONTINUOUS
 62
3
 10
4364.452901
 20
3190.116793
 11
4364.452901
 21
3190.816793
  0
LINE
  8
0
  6
CONTINUOUS
 62
3
 10
4385.352901
 20
3190.116793
 11
4385.352901
 21
3190.816793
  0
LINE
  8
0
  6
CONTINUOUS
 62
3
 10
4385.352901
 20
3190.116793
 11
4386.902901
 21
3189.616793
  0
LINE
  8
0
  6
CONTINUOUS
 62
3
 10
4364.452901
 20
3190.116793
 11
4362.902901
 21
3189.616793
  0
LINE
  8
0
  6
CONTINUOUS
 62
3
 10
4389.102901
 20
3189.616793
 11
4376.402901
 21
3189.616793
  0
LINE
  8
0
  6
CONTINUOUS
 62
3
 10
4376.402901
 20
3189.616793
 11
4360.702901
 21
3189.616793
  0
LINE
  8
0
  6
CONTINUOUS
 62
3
 10
4389.102901
 20
3182.316793
 11
4360.702901
 21
3182.316793
  0
LINE
  8
0
  6
CONTINUOUS
 62
3
 10
4389.102901
 20
3189.616793
 11
4389.102901
 21
3182.316793
  0
LINE
  8
0
  6
CONTINUOUS
 62
3
 10
4360.702901
 20
3189.616793
 11
4360.702901
 21
3182.316793
  0
ARC
  8
0
  6
CONTINUOUS
 62
3
 10
4383.402901
 20
3186.216793
 40
5.000000
 50
270.000000
 51
287.114433
  0
ARC
  8
0
  6
CONTINUOUS
 62
3
 10
4366.402901
 20
3186.216793
 40
5.000000
 50
252.885567
 51
270.000000
  0
LINE
  8
0
  6
CONTINUOUS
 62
3
 10
4366.402901
 20
3181.216793
 11
4383.402901
 21
3181.216793
  0
LINE
  8
0
  6
CONTINUOUS
 62
3
 10
4364.931495
 20
3181.438199
 11
4362.402901
 21
3182.216793
  0
LINE
  8
0
  6
CONTINUOUS
 62
3
 10
4384.874306
 20
3181.438199
 11
4387.402901
 21
3182.216793
  0
LINE
  8
0
  6
CONTINUOUS
 62
3
 10
4362.402901
 20
3182.216793
 11
4362.402901
 21
3182.316793
  0
LINE
  8
0
  6
CONTINUOUS
 62
3
 10
4387.402901
 20
3182.216793
 11
4387.402901
 21
3182.316793
  0
LINE
  8
0
  6
CONTINUOUS
 62
3
 10
4418.402901
 20
3183.866793
 11
4391.402901
 21
3183.866793
  0
LINE
  8
0
  6
CONTINUOUS
 62
3
 10
4390.702901
 20
3184.566793
 11
4419.102901
 21
3184.566793
  0
LINE
  8
0
  6
CONTINUOUS
 62
3
 10
4391.402901
 20
3183.866793
 11
4390.702901
 21
3184.566793
  0
LINE
  8
0
  6
CONTINUOUS
 62
3
 10
4418.402901
 20
3183.866793
 11
4419.102901
 21
3184.566793
  0
LINE
  8
0
  6
CONTINUOUS
 62
3
 10
4419.102901
 20
3189.616793
 11
4406.402901
 21
3189.616793
  0
LINE
  8
0
  6
CONTINUOUS
 62
3
 10
4403.402901
 20
3189.616793
 11
4390.702901
 21
3189.616793
  0
LINE
  8
0
  6
CONTINUOUS
 62
3
 10
4419.102901
 20
3189.616793
 11
4419.102901
 21
3184.566793
  0
LINE
  8
0
  6
CONTINUOUS
 62
3
 10
4390.702901
 20
3189.616793
 11
4390.702901
 21
3184.566793
  0
LINE
  8
0
  6
CONTINUOUS
 62
3
 10
4403.402901
 20
3189.616793
 11
4406.402901
 21
3189.616793
  0
LINE
  8
0
  6
CONTINUOUS
 62
3
 10
4394.452901
 20
3190.116793
 11
4394.452901
 21
3190.816793
  0
LINE
  8
0
  6
CONTINUOUS
 62
3
 10
4415.352901
 20
3190.116793
 11
4415.352901
 21
3190.816793
  0
LINE
  8
0
  6
CONTINUOUS
 62
3
 10
4415.352901
 20
3190.116793
 11
4416.902901
 21
3189.616793
  0
LINE
  8
0
  6
CONTINUOUS
 62
3
 10
4394.452901
 20
3190.116793
 11
4392.902901
 21
3189.616793
  0
LINE
  8
0
  6
CONTINUOUS
 62
3
 10
4385.323787
 20
3161.371424
 11
4385.358504
 21
3161.371424
  0
LINE
  8
0
  6
CONTINUOUS
 62
3
 10
4385.131438
 20
3161.371424
 11
4385.323787
 21
3161.371424
  0
LINE
  8
0
  6
CONTINUOUS
 62
3
 10
4385.017039
 20
3159.871425
 11
4385.019202
 21
3159.763709
  0
LINE
  8
0
  6
CONTINUOUS
 62
3
 10
4385.019202
 20
3159.763709
 11
4385.025669
 21
3159.653161
  0
LINE
  8
0
  6
CONTINUOUS
 62
3
 10
4385.025669
 20
3159.653161
 11
4385.036404
 21
3159.540651
  0
LINE
  8
0
  6
CONTINUOUS
 62
3
 10
4385.036404
 20
3159.540651
 11
4385.051373
 21
3159.427049
  0
LINE
  8
0
  6
CONTINUOUS
 62
3
 10
4385.051373
 20
3159.427049
 11
4385.070542
 21
3159.313227
  0
LINE
  8
0
  6
CONTINUOUS
 62
3
 10
4385.070542
 20
3159.313227
 11
4385.093876
 21
3159.200056
  0
LINE
  8
0
  6
CONTINUOUS
 62
3
 10
4385.093876
 20
3159.200056
 11
4385.121340
 21
3159.088407
  0
LINE
  8
0
  6
CONTINUOUS
 62
3
 10
4385.121340
 20
3159.088407
 11
4385.152898
 21
3158.979159
  0
LINE
  8
0
  6
CONTINUOUS
 62
3
 10
4385.017039
 20
3161.371424
 11
4385.017039
 21
3159.871424
  0
LINE
  8
0
  6
CONTINUOUS
 62
3
 10
4385.152901
 20
3158.979149
 11
4385.182915
 21
3158.887975
  0
LINE
  8
0
  6
CONTINUOUS
 62
3
 10
4385.182915
 20
3158.887975
 11
4385.215162
 21
3158.799428
  0
LINE
  8
0
  6
CONTINUOUS
 62
3
 10
4385.215162
 20
3158.799428
 11
4385.249441
 21
3158.713547
  0
LINE
  8
0
  6
CONTINUOUS
 62
3
 10
4385.249441
 20
3158.713547
 11
4385.285548
 21
3158.630369
  0
LINE
  8
0
  6
CONTINUOUS
 62
3
 10
4385.285548
 20
3158.630369
 11
4385.323279
 21
3158.549933
  0
LINE
  8
0
  6
CONTINUOUS
 62
3
 10
4385.323279
 20
3158.549933
 11
4385.362432
 21
3158.472274
  0
LINE
  8
0
  6
CONTINUOUS
 62
3
 10
4385.362432
 20
3158.472274
 11
4385.402803
 21
3158.397433
  0
LINE
  8
0
  6
CONTINUOUS
 62
3
 10
4385.402803
 20
3158.397433
 11
4385.444157
 21
3158.325496
  0
LINE
  8
0
  6
CONTINUOUS
 62
3
 10
4385.444157
 20
3158.325496
 11
4385.485506
 21
3158.257676
  0
LINE
  8
0
  6
CONTINUOUS
 62
3
 10
4385.485506
 20
3158.257676
 11
4385.526284
 21
3158.194370
  0
LINE
  8
0
  6
CONTINUOUS
 62
3
 10
4385.526284
 20
3158.194370
 11
4385.566245
 21
3158.135444
  0
LINE
  8
0
  6
CONTINUOUS
 62
3
 10
4385.566245
 20
3158.135444
 11
4385.605145
 21
3158.080763
  0
LINE
  8
0
  6
CONTINUOUS
 62
3
 10
4385.605145
 20
3158.080763
 11
4385.642740
 21
3158.030193
  0
LINE
  8
0
  6
CONTINUOUS
 62
3
 10
4385.642740
 20
3158.030193
 11
4385.678802
 21
3157.983584
  0
LINE
  8
0
  6
CONTINUOUS
 62
3
 10
4385.678802
 20
3157.983584
 11
4385.713713
 21
3157.940124
  0
LINE
  8
0
  6
CONTINUOUS
 62
3
 10
4385.713713
 20
3157.940124
 11
4385.747378
 21
3157.899660
  0
LINE
  8
0
  6
CONTINUOUS
 62
3
 10
4385.747378
 20
3157.899660
 11
4385.779301
 21
3157.862508
  0
LINE
  8
0
  6
CONTINUOUS
 62
3
 10
4385.779301
 20
3157.862508
 11
4385.808987
 21
3157.828986
  0
LINE
  8
0
  6
CONTINUOUS
 62
3
 10
4385.808987
 20
3157.828986
 11
4385.835717
 21
3157.799617
  0
LINE
  8
0
  6
CONTINUOUS
 62
3
 10
4385.835717
 20
3157.799617
 11
4385.858743
 21
3157.774909
  0
LINE
  8
0
  6
CONTINUOUS
 62
3
 10
4385.858743
 20
3157.774909
 11
4385.877528
 21
3157.755151
  0
LINE
  8
0
  6
CONTINUOUS
 62
3
 10
4385.877528
 20
3157.755151
 11
4385.891483
 21
3157.740683
  0
LINE
  8
0
  6
CONTINUOUS
 62
3
 10
4385.891483
 20
3157.740683
 11
4385.900010
 21
3157.731924
  0
LINE
  8
0
  6
CONTINUOUS
 62
3
 10
4385.900010
 20
3157.731924
 11
4385.902898
 21
3157.728992
  0
LINE
  8
0
  6
CONTINUOUS
 62
3
 10
4388.494941
 20
3161.371424
 11
4389.325610
 21
3161.371424
  0
LINE
  8
0
  6
CONTINUOUS
 62
3
 10
4388.434667
 20
3161.371424
 11
4388.494941
 21
3161.371424
  0
LINE
  8
0
  6
CONTINUOUS
 62
3
 10
4393.657736
 20
3161.371424
 11
4393.731183
 21
3161.371424
  0
LINE
  8
0
  6
CONTINUOUS
 62
3
 10
4392.644771
 20
3161.371424
 11
4393.657736
 21
3161.371424
  0
LINE
  8
0
  6
CONTINUOUS
 62
3
 10
4392.519120
 20
3161.371424
 11
4392.644771
 21
3161.371424
  0
LINE
  8
0
  6
CONTINUOUS
 62
3
 10
4390.311143
 20
3161.371424
 11
4390.407212
 21
3161.371424
  0
LINE
  8
0
  6
CONTINUOUS
 62
3
 10
4390.407212
 20
3161.371424
 11
4391.371803
 21
3161.371424
  0
LINE
  8
0
  6
CONTINUOUS
 62
3
 10
4402.025161
 20
3161.371424
 11
4402.644748
 21
3161.371424
  0
LINE
  8
0
  6
CONTINUOUS
 62
3
 10
4401.163732
 20
3161.371424
 11
4402.025161
 21
3161.371424
  0
LINE
  8
0
  6
CONTINUOUS
 62
3
 10
4401.157699
 20
3161.371424
 11
4401.163732
 21
3161.371424
  0
LINE
  8
0
  6
CONTINUOUS
 62
3
 10
4407.780641
 20
3161.371424
 11
4408.642070
 21
3161.371424
  0
LINE
  8
0
  6
CONTINUOUS
 62
3
 10
4407.161053
 20
3161.371424
 11
4407.780641
 21
3161.371424
  0
LINE
  8
0
  6
CONTINUOUS
 62
3
 10
4408.642070
 20
3161.371424
 11
4408.648103
 21
3161.371424
  0
LINE
  8
0
  6
CONTINUOUS
 62
3
 10
4404.902901
 20
3161.371424
 11
4405.652901
 21
3161.371424
  0
LINE
  8
0
  6
CONTINUOUS
 62
3
 10
4404.152901
 20
3161.371424
 11
4404.902901
 21
3161.371424
  0
LINE
  8
0
  6
CONTINUOUS
 62
3
 10
4416.148065
 20
3161.371424
 11
4417.161030
 21
3161.371424
  0
LINE
  8
0
  6
CONTINUOUS
 62
3
 10
4416.074619
 20
3161.371424
 11
4416.148065
 21
3161.371424
  0
LINE
  8
0
  6
CONTINUOUS
 62
3
 10
4417.161030
 20
3161.371424
 11
4417.286681
 21
3161.371424
  0
LINE
  8
0
  6
CONTINUOUS
 62
3
 10
4420.480191
 20
3161.371424
 11
4421.310860
 21
3161.371424
  0
LINE
  8
0
  6
CONTINUOUS
 62
3
 10
4421.310860
 20
3161.371424
 11
4421.371134
 21
3161.371424
  0
LINE
  8
0
  6
CONTINUOUS
 62
3
 10
4419.398590
 20
3161.371424
 11
4419.494659
 21
3161.371424
  0
LINE
  8
0
  6
CONTINUOUS
 62
3
 10
4418.433998
 20
3161.371424
 11
4419.398590
 21
3161.371424
  0
LINE
  8
0
  6
CONTINUOUS
 62
3
 10
4424.447298
 20
3161.371424
 11
4421.371134
 21
3161.371424
  0
LINE
  8
0
  6
CONTINUOUS
 62
3
 10
4420.480191
 20
3161.371424
 11
4419.494659
 21
3161.371424
  0
LINE
  8
0
  6
CONTINUOUS
 62
3
 10
4418.433998
 20
3161.371424
 11
4417.286681
 21
3161.371424
  0
LINE
  8
0
  6
CONTINUOUS
 62
3
 10
4416.074619
 20
3161.371424
 11
4408.648103
 21
3161.371424
  0
LINE
  8
0
  6
CONTINUOUS
 62
3
 10
4407.161053
 20
3161.371424
 11
4405.652901
 21
3161.371424
  0
LINE
  8
0
  6
CONTINUOUS
 62
3
 10
4404.152901
 20
3161.371424
 11
4402.644748
 21
3161.371424
  0
LINE
  8
0
  6
CONTINUOUS
 62
3
 10
4401.157699
 20
3161.371424
 11
4393.731183
 21
3161.371424
  0
LINE
  8
0
  6
CONTINUOUS
 62
3
 10
4392.519120
 20
3161.371424
 11
4391.371803
 21
3161.371424
  0
LINE
  8
0
  6
CONTINUOUS
 62
3
 10
4390.311143
 20
3161.371424
 11
4389.325610
 21
3161.371424
  0
LINE
  8
0
  6
CONTINUOUS
 62
3
 10
4388.434667
 20
3161.371424
 11
4385.358504
 21
3161.371424
  0
LINE
  8
0
  6
CONTINUOUS
 62
3
 10
4385.131438
 20
3161.371424
 11
4385.017039
 21
3161.371424
  0
LINE
  8
0
  6
CONTINUOUS
 62
3
 10
4422.673008
 20
3157.000377
 11
4387.132794
 21
3157.000377
  0
LINE
  8
0
  6
CONTINUOUS
 62
3
 10
4418.902901
 20
3172.866793
 11
4390.902901
 21
3172.866793
  0
LINE
  8
0
  6
CONTINUOUS
 62
3
 10
4424.788763
 20
3161.371424
 11
4424.674364
 21
3161.371424
  0
LINE
  8
0
  6
CONTINUOUS
 62
3
 10
4419.902901
 20
3162.866793
 11
4389.902901
 21
3162.866793
  0
LINE
  8
0
  6
CONTINUOUS
 62
3
 10
4419.902901
 20
3171.866793
 11
4389.902901
 21
3171.866793
  0
ARC
  8
0
  6
CONTINUOUS
 62
3
 10
4421.802901
 20
3159.871424
 40
3.000000
 50
286.860093
 51
314.427004
  0
ARC
  8
0
  6
CONTINUOUS
 62
3
 10
4388.002901
 20
3159.871424
 40
3.000000
 50
225.572996
 51
253.139907
  0
ARC
  8
0
  6
CONTINUOUS
 62
3
 10
4404.902901
 20
3215.635483
 40
61.268690
 50
278.919970
 51
286.860093
  0
ARC
  8
0
  6
CONTINUOUS
 62
3
 10
4404.902901
 20
3215.635483
 40
61.268690
 50
253.139907
 51
261.080030
  0
ARC
  8
0
  6
CONTINUOUS
 62
3
 10
4422.652901
 20
3161.371424
 40
1.250000
 50
0.000000
 51
85.000000
  0
ARC
  8
0
  6
CONTINUOUS
 62
3
 10
4387.152901
 20
3161.371424
 40
1.250000
 50
95.000000
 51
180.000000
  0
LINE
  8
0
  6
CONTINUOUS
 62
3
 10
4419.902901
 20
3162.866793
 11
4422.761845
 21
3162.616668
  0
LINE
  8
0
  6
CONTINUOUS
 62
3
 10
4389.902901
 20
3162.866793
 11
4387.043956
 21
3162.616668
  0
LINE
  8
0
  6
CONTINUOUS
 62
3
 10
4389.902901
 20
3162.866793
 11
4389.902901
 21
3171.866793
  0
LINE
  8
0
  6
CONTINUOUS
 62
3
 10
4419.902901
 20
3162.866793
 11
4419.902901
 21
3171.866793
  0
LINE
  8
0
  6
CONTINUOUS
 62
3
 10
4418.902901
 20
3172.866793
 11
4419.902901
 21
3171.866793
  0
LINE
  8
0
  6
CONTINUOUS
 62
3
 10
4390.902901
 20
3172.866793
 11
4389.902901
 21
3171.866793
  0
LINE
  8
0
  6
CONTINUOUS
 62
3
 10
4423.902903
 20
3157.728994
 11
4423.904912
 21
3157.731027
  0
LINE
  8
0
  6
CONTINUOUS
 62
3
 10
4423.904912
 20
3157.731027
 11
4423.910849
 21
3157.737105
  0
LINE
  8
0
  6
CONTINUOUS
 62
3
 10
4423.910849
 20
3157.737105
 11
4423.920596
 21
3157.747170
  0
LINE
  8
0
  6
CONTINUOUS
 62
3
 10
4423.920596
 20
3157.747170
 11
4423.933965
 21
3157.761101
  0
LINE
  8
0
  6
CONTINUOUS
 62
3
 10
4423.933965
 20
3157.761101
 11
4423.950517
 21
3157.778586
  0
LINE
  8
0
  6
CONTINUOUS
 62
3
 10
4423.950517
 20
3157.778586
 11
4423.969925
 21
3157.799442
  0
LINE
  8
0
  6
CONTINUOUS
 62
3
 10
4423.969925
 20
3157.799442
 11
4423.991874
 21
3157.823500
  0
LINE
  8
0
  6
CONTINUOUS
 62
3
 10
4423.991874
 20
3157.823500
 11
4424.016065
 21
3157.850602
  0
LINE
  8
0
  6
CONTINUOUS
 62
3
 10
4424.016065
 20
3157.850602
 11
4424.042578
 21
3157.881018
  0
LINE
  8
0
  6
CONTINUOUS
 62
3
 10
4424.042578
 20
3157.881018
 11
4424.071406
 21
3157.915010
  0
LINE
  8
0
  6
CONTINUOUS
 62
3
 10
4424.071406
 20
3157.915010
 11
4424.102394
 21
3157.952704
  0
LINE
  8
0
  6
CONTINUOUS
 62
3
 10
4424.102394
 20
3157.952704
 11
4424.135387
 21
3157.994225
  0
LINE
  8
0
  6
CONTINUOUS
 62
3
 10
4424.135387
 20
3157.994225
 11
4424.170230
 21
3158.039699
  0
LINE
  8
0
  6
CONTINUOUS
 62
3
 10
4424.170230
 20
3158.039699
 11
4424.206486
 21
3158.088886
  0
LINE
  8
0
  6
CONTINUOUS
 62
3
 10
4424.206486
 20
3158.088886
 11
4424.242788
 21
3158.140252
  0
LINE
  8
0
  6
CONTINUOUS
 62
3
 10
4424.242788
 20
3158.140252
 11
4424.278792
 21
3158.193431
  0
LINE
  8
0
  6
CONTINUOUS
 62
3
 10
4424.278792
 20
3158.193431
 11
4424.314276
 21
3158.248217
  0
LINE
  8
0
  6
CONTINUOUS
 62
3
 10
4424.314276
 20
3158.248217
 11
4424.349024
 21
3158.304404
  0
LINE
  8
0
  6
CONTINUOUS
 62
3
 10
4424.349024
 20
3158.304404
 11
4424.382932
 21
3158.361966
  0
LINE
  8
0
  6
CONTINUOUS
 62
3
 10
4424.382932
 20
3158.361966
 11
4424.416334
 21
3158.421584
  0
LINE
  8
0
  6
CONTINUOUS
 62
3
 10
4424.416334
 20
3158.421584
 11
4424.449166
 21
3158.483371
  0
LINE
  8
0
  6
CONTINUOUS
 62
3
 10
4424.449166
 20
3158.483371
 11
4424.481309
 21
3158.547353
  0
LINE
  8
0
  6
CONTINUOUS
 62
3
 10
4424.481309
 20
3158.547353
 11
4424.512641
 21
3158.613558
  0
LINE
  8
0
  6
CONTINUOUS
 62
3
 10
4424.512641
 20
3158.613558
 11
4424.543044
 21
3158.682014
  0
LINE
  8
0
  6
CONTINUOUS
 62
3
 10
4424.543044
 20
3158.682014
 11
4424.572396
 21
3158.752747
  0
LINE
  8
0
  6
CONTINUOUS
 62
3
 10
4424.572396
 20
3158.752747
 11
4424.600584
 21
3158.825820
  0
LINE
  8
0
  6
CONTINUOUS
 62
3
 10
4424.600584
 20
3158.825820
 11
4424.627476
 21
3158.901300
  0
LINE
  8
0
  6
CONTINUOUS
 62
3
 10
4424.627476
 20
3158.901300
 11
4424.652899
 21
3158.979141
  0
LINE
  8
0
  6
CONTINUOUS
 62
3
 10
4424.652901
 20
3158.979149
 11
4424.684462
 21
3159.088407
  0
LINE
  8
0
  6
CONTINUOUS
 62
3
 10
4424.684462
 20
3159.088407
 11
4424.711926
 21
3159.200056
  0
LINE
  8
0
  6
CONTINUOUS
 62
3
 10
4424.711926
 20
3159.200056
 11
4424.735260
 21
3159.313227
  0
LINE
  8
0
  6
CONTINUOUS
 62
3
 10
4424.735260
 20
3159.313227
 11
4424.754429
 21
3159.427049
  0
LINE
  8
0
  6
CONTINUOUS
 62
3
 10
4424.754429
 20
3159.427049
 11
4424.769398
 21
3159.540651
  0
LINE
  8
0
  6
CONTINUOUS
 62
3
 10
4424.769398
 20
3159.540651
 11
4424.780133
 21
3159.653161
  0
LINE
  8
0
  6
CONTINUOUS
 62
3
 10
4424.780133
 20
3159.653161
 11
4424.786600
 21
3159.763709
  0
LINE
  8
0
  6
CONTINUOUS
 62
3
 10
4424.786600
 20
3159.763709
 11
4424.788763
 21
3159.871415
  0
LINE
  8
0
  6
CONTINUOUS
 62
3
 10
4424.447298
 20
3161.371424
 11
4424.482015
 21
3161.371424
  0
LINE
  8
0
  6
CONTINUOUS
 62
3
 10
4424.482015
 20
3161.371424
 11
4424.674364
 21
3161.371424
  0
LINE
  8
0
  6
CONTINUOUS
 62
3
 10
4424.788763
 20
3159.871424
 11
4424.788763
 21
3161.371424
  0
LINE
  8
0
  6
CONTINUOUS
 62
3
 10
4414.402901
 20
3154.366793
 11
4395.402901
 21
3154.366793
  0
LINE
  8
0
  6
CONTINUOUS
 62
3
 10
4414.402901
 20
3155.107784
 11
4395.402901
 21
3155.107784
  0
LINE
  8
0
  6
CONTINUOUS
 62
3
 10
4395.402901
 20
3154.366793
 11
4395.402901
 21
3155.107784
  0
LINE
  8
0
  6
CONTINUOUS
 62
3
 10
4414.402901
 20
3154.366793
 11
4414.402901
 21
3155.107784
  0
LINE
  8
0
  6
CONTINUOUS
 62
3
 10
4391.402901
 20
3172.866793
 11
4391.402901
 21
3183.866793
  0
LINE
  8
0
  6
CONTINUOUS
 62
3
 10
4418.402901
 20
3172.866793
 11
4418.402901
 21
3183.866793
  0
LINE
  8
0
  6
CONTINUOUS
 62
3
 10
3422.799528
 20
3489.772510
 11
3420.710001
 21
3490.688578
  0
LINE
  8
0
  6
CONTINUOUS
 62
3
 10
3420.710001
 20
3490.688578
 11
3418.636403
 21
3491.510827
  0
LINE
  8
0
  6
CONTINUOUS
 62
3
 10
3418.636403
 20
3491.510827
 11
3417.613716
 21
3491.882286
  0
LINE
  8
0
  6
CONTINUOUS
 62
3
 10
3417.613716
 20
3491.882286
 11
3416.604750
 21
3492.225178
  0
LINE
  8
0
  6
CONTINUOUS
 62
3
 10
3416.604750
 20
3492.225178
 11
3415.612739
 21
3492.537913
  0
LINE
  8
0
  6
CONTINUOUS
 62
3
 10
3415.612739
 20
3492.537913
 11
3414.640918
 21
3492.818898
  0
LINE
  8
0
  6
CONTINUOUS
 62
3
 10
3414.640918
 20
3492.818898
 11
3413.692518
 21
3493.066545
  0
LINE
  8
0
  6
CONTINUOUS
 62
3
 10
3413.692518
 20
3493.066545
 11
3412.770202
 21
3493.279835
  0
LINE
  8
0
  6
CONTINUOUS
 62
3
 10
3412.770202
 20
3493.279835
 11
3412.319286
 21
3493.373649
  0
LINE
  8
0
  6
CONTINUOUS
 62
3
 10
3412.319286
 20
3493.373649
 11
3411.875412
 21
3493.458970
  0
LINE
  8
0
  6
CONTINUOUS
 62
3
 10
3411.875412
 20
3493.458970
 11
3411.009427
 21
3493.604317
  0
LINE
  8
0
  6
CONTINUOUS
 62
3
 10
3411.009427
 20
3493.604317
 11
3410.587637
 21
3493.664432
  0
LINE
  8
0
  6
CONTINUOUS
 62
3
 10
3410.587637
 20
3493.664432
 11
3410.173529
 21
3493.716236
  0
LINE
  8
0
  6
CONTINUOUS
 62
3
 10
3410.173529
 20
3493.716236
 11
3409.369000
 21
3493.795094
  0
LINE
  8
0
  6
CONTINUOUS
 62
3
 10
3409.369000
 20
3493.795094
 11
3408.978899
 21
3493.822238
  0
LINE
  8
0
  6
CONTINUOUS
 62
3
 10
3408.978899
 20
3493.822238
 11
3408.597120
 21
3493.841253
  0
LINE
  8
0
  6
CONTINUOUS
 62
3
 10
3408.597120
 20
3493.841253
 11
3407.858973
 21
3493.855116
  0
LINE
  8
0
  6
CONTINUOUS
 62
3
 10
3407.858973
 20
3493.855116
 11
3407.502289
 21
3493.850185
  0
LINE
  8
0
  6
CONTINUOUS
 62
3
 10
3407.502289
 20
3493.850185
 11
3407.153452
 21
3493.837534
  0
LINE
  8
0
  6
CONTINUOUS
 62
3
 10
3407.153452
 20
3493.837534
 11
3406.478069
 21
3493.789635
  0
LINE
  8
0
  6
CONTINUOUS
 62
3
 10
3406.478069
 20
3493.789635
 11
3406.313638
 21
3493.773057
  0
LINE
  8
0
  6
CONTINUOUS
 62
3
 10
3406.313638
 20
3493.773057
 11
3406.150895
 21
3493.754672
  0
LINE
  8
0
  6
CONTINUOUS
 62
3
 10
3406.150895
 20
3493.754672
 11
3405.830315
 21
3493.712555
  0
LINE
  8
0
  6
CONTINUOUS
 62
3
 10
3405.830315
 20
3493.712555
 11
3405.207683
 21
3493.607426
  0
LINE
  8
0
  6
CONTINUOUS
 62
3
 10
3405.207683
 20
3493.607426
 11
3405.055657
 21
3493.576894
  0
LINE
  8
0
  6
CONTINUOUS
 62
3
 10
3405.055657
 20
3493.576894
 11
3404.905004
 21
3493.544698
  0
LINE
  8
0
  6
CONTINUOUS
 62
3
 10
3404.905004
 20
3493.544698
 11
3404.607665
 21
3493.475383
  0
LINE
  8
0
  6
CONTINUOUS
 62
3
 10
3404.607665
 20
3493.475383
 11
3404.027752
 21
3493.317559
  0
LINE
  8
0
  6
CONTINUOUS
 62
3
 10
3404.027752
 20
3493.317559
 11
3403.885608
 21
3493.274194
  0
LINE
  8
0
  6
CONTINUOUS
 62
3
 10
3403.885608
 20
3493.274194
 11
3403.744488
 21
3493.229270
  0
LINE
  8
0
  6
CONTINUOUS
 62
3
 10
3403.744488
 20
3493.229270
 11
3403.465071
 21
3493.134729
  0
LINE
  8
0
  6
CONTINUOUS
 62
3
 10
3403.465071
 20
3493.134729
 11
3402.915789
 21
3492.926729
  0
LINE
  8
0
  6
CONTINUOUS
 62
3
 10
3402.915789
 20
3492.926729
 11
3402.780095
 21
3492.870758
  0
LINE
  8
0
  6
CONTINUOUS
 62
3
 10
3402.780095
 20
3492.870758
 11
3402.644927
 21
3492.813190
  0
LINE
  8
0
  6
CONTINUOUS
 62
3
 10
3402.644927
 20
3492.813190
 11
3402.375918
 21
3492.693239
  0
LINE
  8
0
  6
CONTINUOUS
 62
3
 10
3402.375918
 20
3492.693239
 11
3401.841469
 21
3492.433941
  0
LINE
  8
0
  6
CONTINUOUS
 62
3
 10
3401.841469
 20
3492.433941
 11
3401.708236
 21
3492.365047
  0
LINE
  8
0
  6
CONTINUOUS
 62
3
 10
3401.708236
 20
3492.365047
 11
3401.575030
 21
3492.294515
  0
LINE
  8
0
  6
CONTINUOUS
 62
3
 10
3401.575030
 20
3492.294515
 11
3401.308452
 21
3492.148517
  0
LINE
  8
0
  6
CONTINUOUS
 62
3
 10
3401.308452
 20
3492.148517
 11
3400.772879
 21
3491.836648
  0
LINE
  8
0
  6
CONTINUOUS
 62
3
 10
3400.772879
 20
3491.836648
 11
3400.638119
 21
3491.754512
  0
LINE
  8
0
  6
CONTINUOUS
 62
3
 10
3400.638119
 20
3491.754512
 11
3400.502888
 21
3491.670698
  0
LINE
  8
0
  6
CONTINUOUS
 62
3
 10
3400.502888
 20
3491.670698
 11
3400.230762
 21
3491.498119
  0
LINE
  8
0
  6
CONTINUOUS
 62
3
 10
3400.230762
 20
3491.498119
 11
3399.678122
 21
3491.134229
  0
LINE
  8
0
  6
CONTINUOUS
 62
3
 10
3399.678122
 20
3491.134229
 11
3399.608104
 21
3491.087081
  0
LINE
  8
0
  6
CONTINUOUS
 62
3
 10
3399.608104
 20
3491.087081
 11
3399.537852
 21
3491.039580
  0
LINE
  8
0
  6
CONTINUOUS
 62
3
 10
3399.537852
 20
3491.039580
 11
3399.396615
 21
3490.943536
  0
LINE
  8
0
  6
CONTINUOUS
 62
3
 10
3399.396615
 20
3490.943536
 11
3399.110987
 21
3490.747423
  0
LINE
  8
0
  6
CONTINUOUS
 62
3
 10
3399.110987
 20
3490.747423
 11
3398.525383
 21
3490.340174
  0
LINE
  8
0
  6
CONTINUOUS
 62
3
 10
3398.525383
 20
3490.340174
 11
3398.450686
 21
3490.287954
  0
LINE
  8
0
  6
CONTINUOUS
 62
3
 10
3398.450686
 20
3490.287954
 11
3398.375631
 21
3490.235457
  0
LINE
  8
0
  6
CONTINUOUS
 62
3
 10
3398.375631
 20
3490.235457
 11
3398.224414
 21
3490.129656
  0
LINE
  8
0
  6
CONTINUOUS
 62
3
 10
3398.224414
 20
3490.129656
 11
3397.917339
 21
3489.914955
  0
LINE
  8
0
  6
CONTINUOUS
 62
3
 10
3397.917339
 20
3489.914955
 11
3397.282883
 21
3489.474240
  0
LINE
  8
0
  6
CONTINUOUS
 62
3
 10
3397.282883
 20
3489.474240
 11
3397.201521
 21
3489.418184
  0
LINE
  8
0
  6
CONTINUOUS
 62
3
 10
3397.201521
 20
3489.418184
 11
3397.119676
 21
3489.361930
  0
LINE
  8
0
  6
CONTINUOUS
 62
3
 10
3397.119676
 20
3489.361930
 11
3396.954509
 21
3489.248844
  0
LINE
  8
0
  6
CONTINUOUS
 62
3
 10
3396.954509
 20
3489.248844
 11
3396.618042
 21
3489.020502
  0
LINE
  8
0
  6
CONTINUOUS
 62
3
 10
3396.618042
 20
3489.020502
 11
3395.918545
 21
3488.557015
  0
LINE
  8
0
  6
CONTINUOUS
 62
3
 10
3395.918545
 20
3488.557015
 11
3395.828414
 21
3488.498675
  0
LINE
  8
0
  6
CONTINUOUS
 62
3
 10
3395.828414
 20
3488.498675
 11
3395.737649
 21
3488.440287
  0
LINE
  8
0
  6
CONTINUOUS
 62
3
 10
3395.737649
 20
3488.440287
 11
3395.554175
 21
3488.323416
  0
LINE
  8
0
  6
CONTINUOUS
 62
3
 10
3395.554175
 20
3488.323416
 11
3395.179151
 21
3488.089643
  0
LINE
  8
0
  6
CONTINUOUS
 62
3
 10
3395.179151
 20
3488.089643
 11
3394.394424
 21
3487.624772
  0
LINE
  8
0
  6
CONTINUOUS
 62
3
 10
3394.394424
 20
3487.624772
 11
3394.190522
 21
3487.509694
  0
LINE
  8
0
  6
CONTINUOUS
 62
3
 10
3394.190522
 20
3487.509694
 11
3393.983370
 21
3487.395277
  0
LINE
  8
0
  6
CONTINUOUS
 62
3
 10
3393.983370
 20
3487.395277
 11
3393.559087
 21
3487.168907
  0
LINE
  8
0
  6
CONTINUOUS
 62
3
 10
3393.559087
 20
3487.168907
 11
3392.669029
 21
3486.729399
  0
LINE
  8
0
  6
CONTINUOUS
 62
3
 10
3392.669029
 20
3486.729399
 11
3392.437543
 21
3486.622985
  0
LINE
  8
0
  6
CONTINUOUS
 62
3
 10
3392.437543
 20
3486.622985
 11
3392.202356
 21
3486.518196
  0
LINE
  8
0
  6
CONTINUOUS
 62
3
 10
3392.202356
 20
3486.518196
 11
3391.720657
 21
3486.313982
  0
LINE
  8
0
  6
CONTINUOUS
 62
3
 10
3391.720657
 20
3486.313982
 11
3390.710381
 21
3485.930388
  0
LINE
  8
0
  6
CONTINUOUS
 62
3
 10
3390.710381
 20
3485.930388
 11
3390.447718
 21
3485.840368
  0
LINE
  8
0
  6
CONTINUOUS
 62
3
 10
3390.447718
 20
3485.840368
 11
3390.180906
 21
3485.752941
  0
LINE
  8
0
  6
CONTINUOUS
 62
3
 10
3390.180906
 20
3485.752941
 11
3389.634610
 21
3485.586350
  0
LINE
  8
0
  6
CONTINUOUS
 62
3
 10
3389.634610
 20
3485.586350
 11
3388.489741
 21
3485.289364
  0
LINE
  8
0
  6
CONTINUOUS
 62
3
 10
3388.489741
 20
3485.289364
 11
3385.978023
 21
3484.860992
  0
LINE
  8
0
  6
CONTINUOUS
 62
3
 10
3385.978023
 20
3484.860992
 11
3384.603944
 21
3484.741196
  0
LINE
  8
0
  6
CONTINUOUS
 62
3
 10
3384.603944
 20
3484.741196
 11
3383.145896
 21
3484.692025
  0
LINE
  8
0
  6
CONTINUOUS
 62
3
 10
3383.145739
 20
3484.692023
 11
3383.099722
 21
3490.691847
  0
LINE
  8
0
  6
CONTINUOUS
 62
3
 10
3422.802901
 20
3496.316444
 11
3421.349092
 21
3496.898840
  0
LINE
  8
0
  6
CONTINUOUS
 62
3
 10
3421.349092
 20
3496.898840
 11
3419.898511
 21
3497.439361
  0
LINE
  8
0
  6
CONTINUOUS
 62
3
 10
3419.898511
 20
3497.439361
 11
3418.456675
 21
3497.933761
  0
LINE
  8
0
  6
CONTINUOUS
 62
3
 10
3418.456675
 20
3497.933761
 11
3417.028737
 21
3498.378036
  0
LINE
  8
0
  6
CONTINUOUS
 62
3
 10
3417.028737
 20
3498.378036
 11
3415.617715
 21
3498.769223
  0
LINE
  8
0
  6
CONTINUOUS
 62
3
 10
3415.617715
 20
3498.769223
 11
3414.919339
 21
3498.944052
  0
LINE
  8
0
  6
CONTINUOUS
 62
3
 10
3414.919339
 20
3498.944052
 11
3414.226141
 21
3499.104580
  0
LINE
  8
0
  6
CONTINUOUS
 62
3
 10
3414.226141
 20
3499.104580
 11
3413.538437
 21
3499.250465
  0
LINE
  8
0
  6
CONTINUOUS
 62
3
 10
3413.538437
 20
3499.250465
 11
3412.856546
 21
3499.381364
  0
LINE
  8
0
  6
CONTINUOUS
 62
3
 10
3412.856546
 20
3499.381364
 11
3412.180781
 21
3499.496933
  0
LINE
  8
0
  6
CONTINUOUS
 62
3
 10
3412.180781
 20
3499.496933
 11
3411.511461
 21
3499.596832
  0
LINE
  8
0
  6
CONTINUOUS
 62
3
 10
3411.511461
 20
3499.596832
 11
3411.179317
 21
3499.640797
  0
LINE
  8
0
  6
CONTINUOUS
 62
3
 10
3411.179317
 20
3499.640797
 11
3410.848902
 21
3499.680715
  0
LINE
  8
0
  6
CONTINUOUS
 62
3
 10
3410.848902
 20
3499.680715
 11
3410.193214
 21
3499.748298
  0
LINE
  8
0
  6
CONTINUOUS
 62
3
 10
3410.193214
 20
3499.748298
 11
3409.867954
 21
3499.775921
  0
LINE
  8
0
  6
CONTINUOUS
 62
3
 10
3409.867954
 20
3499.775921
 11
3409.544448
 21
3499.799403
  0
LINE
  8
0
  6
CONTINUOUS
 62
3
 10
3409.544448
 20
3499.799403
 11
3408.902801
 21
3499.833858
  0
LINE
  8
0
  6
CONTINUOUS
 62
3
 10
3408.902801
 20
3499.833858
 11
3408.584708
 21
3499.844787
  0
LINE
  8
0
  6
CONTINUOUS
 62
3
 10
3408.584708
 20
3499.844787
 11
3408.268468
 21
3499.851488
  0
LINE
  8
0
  6
CONTINUOUS
 62
3
 10
3408.268468
 20
3499.851488
 11
3407.641647
 21
3499.852119
  0
LINE
  8
0
  6
CONTINUOUS
 62
3
 10
3407.641647
 20
3499.852119
 11
3407.331115
 21
3499.846006
  0
LINE
  8
0
  6
CONTINUOUS
 62
3
 10
3407.331115
 20
3499.846006
 11
3407.022535
 21
3499.835578
  0
LINE
  8
0
  6
CONTINUOUS
 62
3
 10
3407.022535
 20
3499.835578
 11
3406.411328
 21
3499.801688
  0
LINE
  8
0
  6
CONTINUOUS
 62
3
 10
3406.411328
 20
3499.801688
 11
3406.108775
 21
3499.778066
  0
LINE
  8
0
  6
CONTINUOUS
 62
3
 10
3406.108775
 20
3499.778066
 11
3405.808318
 21
3499.749929
  0
LINE
  8
0
  6
CONTINUOUS
 62
3
 10
3405.808318
 20
3499.749929
 11
3405.213843
 21
3499.680345
  0
LINE
  8
0
  6
CONTINUOUS
 62
3
 10
3405.213843
 20
3499.680345
 11
3404.919897
 21
3499.639018
  0
LINE
  8
0
  6
CONTINUOUS
 62
3
 10
3404.919897
 20
3499.639018
 11
3404.628196
 21
3499.593414
  0
LINE
  8
0
  6
CONTINUOUS
 62
3
 10
3404.628196
 20
3499.593414
 11
3404.051674
 21
3499.489613
  0
LINE
  8
0
  6
CONTINUOUS
 62
3
 10
3404.051674
 20
3499.489613
 11
3403.909004
 21
3499.461083
  0
LINE
  8
0
  6
CONTINUOUS
 62
3
 10
3403.909004
 20
3499.461083
 11
3403.766928
 21
3499.431536
  0
LINE
  8
0
  6
CONTINUOUS
 62
3
 10
3403.766928
 20
3499.431536
 11
3403.484573
 21
3499.369420
  0
LINE
  8
0
  6
CONTINUOUS
 62
3
 10
3403.484573
 20
3499.369420
 11
3402.927186
 21
3499.233311
  0
LINE
  8
0
  6
CONTINUOUS
 62
3
 10
3402.927186
 20
3499.233311
 11
3402.789393
 21
3499.196853
  0
LINE
  8
0
  6
CONTINUOUS
 62
3
 10
3402.789393
 20
3499.196853
 11
3402.652229
 21
3499.159438
  0
LINE
  8
0
  6
CONTINUOUS
 62
3
 10
3402.652229
 20
3499.159438
 11
3402.379811
 21
3499.081764
  0
LINE
  8
0
  6
CONTINUOUS
 62
3
 10
3402.379811
 20
3499.081764
 11
3401.842742
 21
3498.915256
  0
LINE
  8
0
  6
CONTINUOUS
 62
3
 10
3401.842742
 20
3498.915256
 11
3401.710120
 21
3498.871347
  0
LINE
  8
0
  6
CONTINUOUS
 62
3
 10
3401.710120
 20
3498.871347
 11
3401.578165
 21
3498.826541
  0
LINE
  8
0
  6
CONTINUOUS
 62
3
 10
3401.578165
 20
3498.826541
 11
3401.316276
 21
3498.734264
  0
LINE
  8
0
  6
CONTINUOUS
 62
3
 10
3401.316276
 20
3498.734264
 11
3400.800706
 21
3498.539265
  0
LINE
  8
0
  6
CONTINUOUS
 62
3
 10
3400.800706
 20
3498.539265
 11
3400.673551
 21
3498.488383
  0
LINE
  8
0
  6
CONTINUOUS
 62
3
 10
3400.673551
 20
3498.488383
 11
3400.547100
 21
3498.436662
  0
LINE
  8
0
  6
CONTINUOUS
 62
3
 10
3400.547100
 20
3498.436662
 11
3400.296338
 21
3498.330752
  0
LINE
  8
0
  6
CONTINUOUS
 62
3
 10
3400.296338
 20
3498.330752
 11
3399.803643
 21
3498.109990
  0
LINE
  8
0
  6
CONTINUOUS
 62
3
 10
3399.803643
 20
3498.109990
 11
3399.682276
 21
3498.053062
  0
LINE
  8
0
  6
CONTINUOUS
 62
3
 10
3399.682276
 20
3498.053062
 11
3399.561615
 21
3497.995474
  0
LINE
  8
0
  6
CONTINUOUS
 62
3
 10
3399.561615
 20
3497.995474
 11
3399.322380
 21
3497.878392
  0
LINE
  8
0
  6
CONTINUOUS
 62
3
 10
3399.322380
 20
3497.878392
 11
3398.852020
 21
3497.637106
  0
LINE
  8
0
  6
CONTINUOUS
 62
3
 10
3398.852020
 20
3497.637106
 11
3398.736071
 21
3497.575406
  0
LINE
  8
0
  6
CONTINUOUS
 62
3
 10
3398.736071
 20
3497.575406
 11
3398.620763
 21
3497.513191
  0
LINE
  8
0
  6
CONTINUOUS
 62
3
 10
3398.620763
 20
3497.513191
 11
3398.392034
 21
3497.387285
  0
LINE
  8
0
  6
CONTINUOUS
 62
3
 10
3398.392034
 20
3497.387285
 11
3397.941896
 21
3497.130078
  0
LINE
  8
0
  6
CONTINUOUS
 62
3
 10
3397.941896
 20
3497.130078
 11
3397.830837
 21
3497.064758
  0
LINE
  8
0
  6
CONTINUOUS
 62
3
 10
3397.830837
 20
3497.064758
 11
3397.720353
 21
3496.999065
  0
LINE
  8
0
  6
CONTINUOUS
 62
3
 10
3397.720353
 20
3496.999065
 11
3397.501074
 21
3496.866637
  0
LINE
  8
0
  6
CONTINUOUS
 62
3
 10
3397.501074
 20
3496.866637
 11
3397.069042
 21
3496.598112
  0
LINE
  8
0
  6
CONTINUOUS
 62
3
 10
3397.069042
 20
3496.598112
 11
3396.962346
 21
3496.530321
  0
LINE
  8
0
  6
CONTINUOUS
 62
3
 10
3396.962346
 20
3496.530321
 11
3396.856157
 21
3496.462303
  0
LINE
  8
0
  6
CONTINUOUS
 62
3
 10
3396.856157
 20
3496.462303
 11
3396.645271
 21
3496.325654
  0
LINE
  8
0
  6
CONTINUOUS
 62
3
 10
3396.645271
 20
3496.325654
 11
3396.229232
 21
3496.050413
  0
LINE
  8
0
  6
CONTINUOUS
 62
3
 10
3396.229232
 20
3496.050413
 11
3396.126368
 21
3495.981303
  0
LINE
  8
0
  6
CONTINUOUS
 62
3
 10
3396.126368
 20
3495.981303
 11
3396.023947
 21
3495.912109
  0
LINE
  8
0
  6
CONTINUOUS
 62
3
 10
3396.023947
 20
3495.912109
 11
3395.820396
 21
3495.773540
  0
LINE
  8
0
  6
CONTINUOUS
 62
3
 10
3395.820396
 20
3495.773540
 11
3395.418236
 21
3495.496187
  0
LINE
  8
0
  6
CONTINUOUS
 62
3
 10
3395.418236
 20
3495.496187
 11
3395.318676
 21
3495.426916
  0
LINE
  8
0
  6
CONTINUOUS
 62
3
 10
3395.318676
 20
3495.426916
 11
3395.219486
 21
3495.357735
  0
LINE
  8
0
  6
CONTINUOUS
 62
3
 10
3395.219486
 20
3495.357735
 11
3395.022136
 21
3495.219688
  0
LINE
  8
0
  6
CONTINUOUS
 62
3
 10
3395.022136
 20
3495.219688
 11
3394.631033
 21
3494.945156
  0
LINE
  8
0
  6
CONTINUOUS
 62
3
 10
3394.631033
 20
3494.945156
 11
3394.533897
 21
3494.876911
  0
LINE
  8
0
  6
CONTINUOUS
 62
3
 10
3394.533897
 20
3494.876911
 11
3394.436978
 21
3494.808843
  0
LINE
  8
0
  6
CONTINUOUS
 62
3
 10
3394.436978
 20
3494.808843
 11
3394.243720
 21
3494.673280
  0
LINE
  8
0
  6
CONTINUOUS
 62
3
 10
3394.243720
 20
3494.673280
 11
3393.858988
 21
3494.404747
  0
LINE
  8
0
  6
CONTINUOUS
 62
3
 10
3393.858988
 20
3494.404747
 11
3393.763067
 21
3494.338217
  0
LINE
  8
0
  6
CONTINUOUS
 62
3
 10
3393.763067
 20
3494.338217
 11
3393.667213
 21
3494.271950
  0
LINE
  8
0
  6
CONTINUOUS
 62
3
 10
3393.667213
 20
3494.271950
 11
3393.475630
 21
3494.140246
  0
LINE
  8
0
  6
CONTINUOUS
 62
3
 10
3393.475630
 20
3494.140246
 11
3393.092437
 21
3493.880463
  0
LINE
  8
0
  6
CONTINUOUS
 62
3
 10
3393.092437
 20
3493.880463
 11
3392.996524
 21
3493.816335
  0
LINE
  8
0
  6
CONTINUOUS
 62
3
 10
3392.996524
 20
3493.816335
 11
3392.900526
 21
3493.752555
  0
LINE
  8
0
  6
CONTINUOUS
 62
3
 10
3392.900526
 20
3493.752555
 11
3392.708203
 21
3493.626085
  0
LINE
  8
0
  6
CONTINUOUS
 62
3
 10
3392.708203
 20
3493.626085
 11
3392.321718
 21
3493.377801
  0
LINE
  8
0
  6
CONTINUOUS
 62
3
 10
3392.321718
 20
3493.377801
 11
3392.224604
 21
3493.316763
  0
LINE
  8
0
  6
CONTINUOUS
 62
3
 10
3392.224604
 20
3493.316763
 11
3392.127254
 21
3493.256159
  0
LINE
  8
0
  6
CONTINUOUS
 62
3
 10
3392.127254
 20
3493.256159
 11
3391.931775
 21
3493.136298
  0
LINE
  8
0
  6
CONTINUOUS
 62
3
 10
3391.931775
 20
3493.136298
 11
3391.537167
 21
3492.902263
  0
LINE
  8
0
  6
CONTINUOUS
 62
3
 10
3391.537167
 20
3492.902263
 11
3391.337735
 21
3492.788261
  0
LINE
  8
0
  6
CONTINUOUS
 62
3
 10
3391.337735
 20
3492.788261
 11
3391.136684
 21
3492.676384
  0
LINE
  8
0
  6
CONTINUOUS
 62
3
 10
3391.136684
 20
3492.676384
 11
3390.729120
 21
3492.459348
  0
LINE
  8
0
  6
CONTINUOUS
 62
3
 10
3390.729120
 20
3492.459348
 11
3390.522305
 21
3492.354361
  0
LINE
  8
0
  6
CONTINUOUS
 62
3
 10
3390.522305
 20
3492.354361
 11
3390.313266
 21
3492.251842
  0
LINE
  8
0
  6
CONTINUOUS
 62
3
 10
3390.313266
 20
3492.251842
 11
3389.887357
 21
3492.054145
  0
LINE
  8
0
  6
CONTINUOUS
 62
3
 10
3389.887357
 20
3492.054145
 11
3389.669815
 21
3491.959002
  0
LINE
  8
0
  6
CONTINUOUS
 62
3
 10
3389.669815
 20
3491.959002
 11
3389.448829
 21
3491.866436
  0
LINE
  8
0
  6
CONTINUOUS
 62
3
 10
3389.448829
 20
3491.866436
 11
3388.995372
 21
3491.689351
  0
LINE
  8
0
  6
CONTINUOUS
 62
3
 10
3388.995372
 20
3491.689351
 11
3388.524675
 21
3491.523526
  0
LINE
  8
0
  6
CONTINUOUS
 62
3
 10
3388.524675
 20
3491.523526
 11
3388.034427
 21
3491.369599
  0
LINE
  8
0
  6
CONTINUOUS
 62
3
 10
3388.034427
 20
3491.369599
 11
3386.985539
 21
3491.100024
  0
LINE
  8
0
  6
CONTINUOUS
 62
3
 10
3386.985539
 20
3491.100024
 11
3385.827484
 21
3490.889153
  0
LINE
  8
0
  6
CONTINUOUS
 62
3
 10
3385.827484
 20
3490.889153
 11
3384.539206
 21
3490.749038
  0
LINE
  8
0
  6
CONTINUOUS
 62
3
 10
3384.539206
 20
3490.749038
 11
3383.839795
 21
3490.709321
  0
LINE
  8
0
  6
CONTINUOUS
 62
3
 10
3383.839795
 20
3490.709321
 11
3383.099847
 21
3490.691848
  0
LINE
  8
0
  6
CONTINUOUS
 62
3
 10
3422.802901
 20
3489.768540
 11
3421.408319
 21
3490.389072
  0
LINE
  8
0
  6
CONTINUOUS
 62
3
 10
3421.408319
 20
3490.389072
 11
3420.016886
 21
3490.971381
  0
LINE
  8
0
  6
CONTINUOUS
 62
3
 10
3420.016886
 20
3490.971381
 11
3418.636623
 21
3491.510403
  0
LINE
  8
0
  6
CONTINUOUS
 62
3
 10
3418.636623
 20
3491.510403
 11
3417.275551
 21
3492.001073
  0
LINE
  8
0
  6
CONTINUOUS
 62
3
 10
3417.275551
 20
3492.001073
 11
3415.941787
 21
3492.438342
  0
LINE
  8
0
  6
CONTINUOUS
 62
3
 10
3415.941787
 20
3492.438342
 11
3415.287806
 21
3492.635691
  0
LINE
  8
0
  6
CONTINUOUS
 62
3
 10
3415.287806
 20
3492.635691
 11
3414.643376
 21
3492.818616
  0
LINE
  8
0
  6
CONTINUOUS
 62
3
 10
3414.643376
 20
3492.818616
 11
3414.009084
 21
3492.986999
  0
LINE
  8
0
  6
CONTINUOUS
 62
3
 10
3414.009084
 20
3492.986999
 11
3413.385517
 21
3493.140720
  0
LINE
  8
0
  6
CONTINUOUS
 62
3
 10
3413.385517
 20
3493.140720
 11
3412.773260
 21
3493.279660
  0
LINE
  8
0
  6
CONTINUOUS
 62
3
 10
3412.773260
 20
3493.279660
 11
3412.172900
 21
3493.403700
  0
LINE
  8
0
  6
CONTINUOUS
 62
3
 10
3412.172900
 20
3493.403700
 11
3411.585021
 21
3493.512722
  0
LINE
  8
0
  6
CONTINUOUS
 62
3
 10
3411.585021
 20
3493.512722
 11
3411.010212
 21
3493.606605
  0
LINE
  8
0
  6
CONTINUOUS
 62
3
 10
3411.010212
 20
3493.606605
 11
3410.449057
 21
3493.685231
  0
LINE
  8
0
  6
CONTINUOUS
 62
3
 10
3410.449057
 20
3493.685231
 11
3409.902139
 21
3493.748486
  0
LINE
  8
0
  6
CONTINUOUS
 62
3
 10
3409.902139
 20
3493.748486
 11
3409.634128
 21
3493.774409
  0
LINE
  8
0
  6
CONTINUOUS
 62
3
 10
3409.634128
 20
3493.774409
 11
3409.369729
 21
3493.796611
  0
LINE
  8
0
  6
CONTINUOUS
 62
3
 10
3409.369729
 20
3493.796611
 11
3408.851703
 21
3493.830004
  0
LINE
  8
0
  6
CONTINUOUS
 62
3
 10
3408.851703
 20
3493.830004
 11
3408.598047
 21
3493.841272
  0
LINE
  8
0
  6
CONTINUOUS
 62
3
 10
3408.598047
 20
3493.841272
 11
3408.347942
 21
3493.848973
  0
LINE
  8
0
  6
CONTINUOUS
 62
3
 10
3408.347942
 20
3493.848973
 11
3407.858325
 21
3493.853827
  0
LINE
  8
0
  6
CONTINUOUS
 62
3
 10
3407.858325
 20
3493.853827
 11
3407.618782
 21
3493.851057
  0
LINE
  8
0
  6
CONTINUOUS
 62
3
 10
3407.618782
 20
3493.851057
 11
3407.382731
 21
3493.844875
  0
LINE
  8
0
  6
CONTINUOUS
 62
3
 10
3407.382731
 20
3493.844875
 11
3406.921040
 21
3493.822424
  0
LINE
  8
0
  6
CONTINUOUS
 62
3
 10
3406.921040
 20
3493.822424
 11
3406.695373
 21
3493.806238
  0
LINE
  8
0
  6
CONTINUOUS
 62
3
 10
3406.695373
 20
3493.806238
 11
3406.473162
 21
3493.786885
  0
LINE
  8
0
  6
CONTINUOUS
 62
3
 10
3406.473162
 20
3493.786885
 11
3406.038672
 21
3493.738858
  0
LINE
  8
0
  6
CONTINUOUS
 62
3
 10
3406.038672
 20
3493.738858
 11
3405.826135
 21
3493.710224
  0
LINE
  8
0
  6
CONTINUOUS
 62
3
 10
3405.826135
 20
3493.710224
 11
3405.616563
 21
3493.678538
  0
LINE
  8
0
  6
CONTINUOUS
 62
3
 10
3405.616563
 20
3493.678538
 11
3405.205800
 21
3493.606086
  0
LINE
  8
0
  6
CONTINUOUS
 62
3
 10
3405.205800
 20
3493.606086
 11
3405.004350
 21
3493.565360
  0
LINE
  8
0
  6
CONTINUOUS
 62
3
 10
3405.004350
 20
3493.565360
 11
3404.805348
 21
3493.521663
  0
LINE
  8
0
  6
CONTINUOUS
 62
3
 10
3404.805348
 20
3493.521663
 11
3404.414173
 21
3493.425431
  0
LINE
  8
0
  6
CONTINUOUS
 62
3
 10
3404.414173
 20
3493.425431
 11
3404.221740
 21
3493.372937
  0
LINE
  8
0
  6
CONTINUOUS
 62
3
 10
3404.221740
 20
3493.372937
 11
3404.031238
 21
3493.317552
  0
LINE
  8
0
  6
CONTINUOUS
 62
3
 10
3404.031238
 20
3493.317552
 11
3403.655508
 21
3493.198186
  0
LINE
  8
0
  6
CONTINUOUS
 62
3
 10
3403.655508
 20
3493.198186
 11
3403.470022
 21
3493.134246
  0
LINE
  8
0
  6
CONTINUOUS
 62
3
 10
3403.470022
 20
3493.134246
 11
3403.285950
 21
3493.067495
  0
LINE
  8
0
  6
CONTINUOUS
 62
3
 10
3403.285950
 20
3493.067495
 11
3402.921527
 21
3492.925641
  0
LINE
  8
0
  6
CONTINUOUS
 62
3
 10
3402.921527
 20
3492.925641
 11
3402.831102
 21
3492.888452
  0
LINE
  8
0
  6
CONTINUOUS
 62
3
 10
3402.831102
 20
3492.888452
 11
3402.740917
 21
3492.850578
  0
LINE
  8
0
  6
CONTINUOUS
 62
3
 10
3402.740917
 20
3492.850578
 11
3402.561179
 21
3492.772736
  0
LINE
  8
0
  6
CONTINUOUS
 62
3
 10
3402.561179
 20
3492.772736
 11
3402.203448
 21
3492.608162
  0
LINE
  8
0
  6
CONTINUOUS
 62
3
 10
3402.203448
 20
3492.608162
 11
3402.114276
 21
3492.565174
  0
LINE
  8
0
  6
CONTINUOUS
 62
3
 10
3402.114276
 20
3492.565174
 11
3402.025173
 21
3492.521454
  0
LINE
  8
0
  6
CONTINUOUS
 62
3
 10
3402.025173
 20
3492.521454
 11
3401.847110
 21
3492.431830
  0
LINE
  8
0
  6
CONTINUOUS
 62
3
 10
3401.847110
 20
3492.431830
 11
3401.491077
 21
3492.243925
  0
LINE
  8
0
  6
CONTINUOUS
 62
3
 10
3401.491077
 20
3492.243925
 11
3401.401989
 21
3492.195162
  0
LINE
  8
0
  6
CONTINUOUS
 62
3
 10
3401.401989
 20
3492.195162
 11
3401.312835
 21
3492.145691
  0
LINE
  8
0
  6
CONTINUOUS
 62
3
 10
3401.312835
 20
3492.145691
 11
3401.134262
 21
3492.044634
  0
LINE
  8
0
  6
CONTINUOUS
 62
3
 10
3401.134262
 20
3492.044634
 11
3400.775578
 21
3491.834144
  0
LINE
  8
0
  6
CONTINUOUS
 62
3
 10
3400.775578
 20
3491.834144
 11
3400.685488
 21
3491.779793
  0
LINE
  8
0
  6
CONTINUOUS
 62
3
 10
3400.685488
 20
3491.779793
 11
3400.595196
 21
3491.724757
  0
LINE
  8
0
  6
CONTINUOUS
 62
3
 10
3400.595196
 20
3491.724757
 11
3400.413938
 21
3491.612640
  0
LINE
  8
0
  6
CONTINUOUS
 62
3
 10
3400.413938
 20
3491.612640
 11
3400.048254
 21
3491.380310
  0
LINE
  8
0
  6
CONTINUOUS
 62
3
 10
3400.048254
 20
3491.380310
 11
3399.956074
 21
3491.320558
  0
LINE
  8
0
  6
CONTINUOUS
 62
3
 10
3399.956074
 20
3491.320558
 11
3399.863556
 21
3491.260143
  0
LINE
  8
0
  6
CONTINUOUS
 62
3
 10
3399.863556
 20
3491.260143
 11
3399.677440
 21
3491.137339
  0
LINE
  8
0
  6
CONTINUOUS
 62
3
 10
3399.677440
 20
3491.137339
 11
3399.300408
 21
3490.883915
  0
LINE
  8
0
  6
CONTINUOUS
 62
3
 10
3399.300408
 20
3490.883915
 11
3399.205051
 21
3490.818947
  0
LINE
  8
0
  6
CONTINUOUS
 62
3
 10
3399.205051
 20
3490.818947
 11
3399.109220
 21
3490.753340
  0
LINE
  8
0
  6
CONTINUOUS
 62
3
 10
3399.109220
 20
3490.753340
 11
3398.916071
 21
3490.620222
  0
LINE
  8
0
  6
CONTINUOUS
 62
3
 10
3398.916071
 20
3490.620222
 11
3398.523363
 21
3490.346382
  0
LINE
  8
0
  6
CONTINUOUS
 62
3
 10
3398.523363
 20
3490.346382
 11
3398.423762
 21
3490.276330
  0
LINE
  8
0
  6
CONTINUOUS
 62
3
 10
3398.423762
 20
3490.276330
 11
3398.323552
 21
3490.205676
  0
LINE
  8
0
  6
CONTINUOUS
 62
3
 10
3398.323552
 20
3490.205676
 11
3398.121213
 21
3490.062661
  0
LINE
  8
0
  6
CONTINUOUS
 62
3
 10
3398.121213
 20
3490.062661
 11
3397.708244
 21
3489.770489
  0
LINE
  8
0
  6
CONTINUOUS
 62
3
 10
3397.708244
 20
3489.770489
 11
3397.603145
 21
3489.696310
  0
LINE
  8
0
  6
CONTINUOUS
 62
3
 10
3397.603145
 20
3489.696310
 11
3397.497259
 21
3489.621726
  0
LINE
  8
0
  6
CONTINUOUS
 62
3
 10
3397.497259
 20
3489.621726
 11
3397.283037
 21
3489.471440
  0
LINE
  8
0
  6
CONTINUOUS
 62
3
 10
3397.283037
 20
3489.471440
 11
3396.844175
 21
3489.167084
  0
LINE
  8
0
  6
CONTINUOUS
 62
3
 10
3396.844175
 20
3489.167084
 11
3396.732160
 21
3489.090350
  0
LINE
  8
0
  6
CONTINUOUS
 62
3
 10
3396.732160
 20
3489.090350
 11
3396.619180
 21
3489.013407
  0
LINE
  8
0
  6
CONTINUOUS
 62
3
 10
3396.619180
 20
3489.013407
 11
3396.390239
 21
3488.858993
  0
LINE
  8
0
  6
CONTINUOUS
 62
3
 10
3396.390239
 20
3488.858993
 11
3395.919812
 21
3488.548739
  0
LINE
  8
0
  6
CONTINUOUS
 62
3
 10
3395.919812
 20
3488.548739
 11
3395.799463
 21
3488.471022
  0
LINE
  8
0
  6
CONTINUOUS
 62
3
 10
3395.799463
 20
3488.471022
 11
3395.677972
 21
3488.393292
  0
LINE
  8
0
  6
CONTINUOUS
 62
3
 10
3395.677972
 20
3488.393292
 11
3395.431476
 21
3488.237893
  0
LINE
  8
0
  6
CONTINUOUS
 62
3
 10
3395.431476
 20
3488.237893
 11
3394.923813
 21
3487.928027
  0
LINE
  8
0
  6
CONTINUOUS
 62
3
 10
3394.923813
 20
3487.928027
 11
3394.793711
 21
3487.850898
  0
LINE
  8
0
  6
CONTINUOUS
 62
3
 10
3394.793711
 20
3487.850898
 11
3394.662291
 21
3487.773952
  0
LINE
  8
0
  6
CONTINUOUS
 62
3
 10
3394.662291
 20
3487.773952
 11
3394.395405
 21
3487.620712
  0
LINE
  8
0
  6
CONTINUOUS
 62
3
 10
3394.395405
 20
3487.620712
 11
3393.844834
 21
3487.317519
  0
LINE
  8
0
  6
CONTINUOUS
 62
3
 10
3393.844834
 20
3487.317519
 11
3393.703562
 21
3487.242550
  0
LINE
  8
0
  6
CONTINUOUS
 62
3
 10
3393.703562
 20
3487.242550
 11
3393.560794
 21
3487.167960
  0
LINE
  8
0
  6
CONTINUOUS
 62
3
 10
3393.560794
 20
3487.167960
 11
3393.270682
 21
3487.020021
  0
LINE
  8
0
  6
CONTINUOUS
 62
3
 10
3393.270682
 20
3487.020021
 11
3392.671533
 21
3486.729838
  0
LINE
  8
0
  6
CONTINUOUS
 62
3
 10
3392.671533
 20
3486.729838
 11
3392.517679
 21
3486.658764
  0
LINE
  8
0
  6
CONTINUOUS
 62
3
 10
3392.517679
 20
3486.658764
 11
3392.362164
 21
3486.588392
  0
LINE
  8
0
  6
CONTINUOUS
 62
3
 10
3392.362164
 20
3486.588392
 11
3392.046088
 21
3486.449893
  0
LINE
  8
0
  6
CONTINUOUS
 62
3
 10
3392.046088
 20
3486.449893
 11
3391.393322
 21
3486.182866
  0
LINE
  8
0
  6
CONTINUOUS
 62
3
 10
3391.393322
 20
3486.182866
 11
3391.056384
 21
3486.054898
  0
LINE
  8
0
  6
CONTINUOUS
 62
3
 10
3391.056384
 20
3486.054898
 11
3390.712244
 21
3485.931003
  0
LINE
  8
0
  6
CONTINUOUS
 62
3
 10
3390.712244
 20
3485.931003
 11
3390.001863
 21
3485.696553
  0
LINE
  8
0
  6
CONTINUOUS
 62
3
 10
3390.001863
 20
3485.696553
 11
3389.635375
 21
3485.586560
  0
LINE
  8
0
  6
CONTINUOUS
 62
3
 10
3389.635375
 20
3485.586560
 11
3389.261190
 21
3485.481763
  0
LINE
  8
0
  6
CONTINUOUS
 62
3
 10
3389.261190
 20
3485.481763
 11
3388.489459
 21
3485.288912
  0
LINE
  8
0
  6
CONTINUOUS
 62
3
 10
3388.489459
 20
3485.288912
 11
3386.849037
 21
3484.976514
  0
LINE
  8
0
  6
CONTINUOUS
 62
3
 10
3386.849037
 20
3484.976514
 11
3385.071095
 21
3484.773067
  0
LINE
  8
0
  6
CONTINUOUS
 62
3
 10
3385.071095
 20
3484.773067
 11
3384.127613
 21
3484.716410
  0
LINE
  8
0
  6
CONTINUOUS
 62
3
 10
3384.127613
 20
3484.716410
 11
3383.145896
 21
3484.692024
  0
LINE
  8
0
  6
CONTINUOUS
 62
3
 10
4467.802901
 20
3436.818677
 11
4467.802901
 21
3460.818677
  0
LINE
  8
0
  6
CONTINUOUS
 62
3
 10
4487.802901
 20
3430.318677
 11
4487.802901
 21
3467.318677
  0
LINE
  8
0
  6
CONTINUOUS
 62
3
 10
4490.002712
 20
3429.839569
 11
4490.002712
 21
3467.797785
  0
LINE
  8
0
  6
CONTINUOUS
 62
3
 10
4467.802901
 20
3460.818677
 11
4487.802901
 21
3467.318677
  0
LINE
  8
0
  6
CONTINUOUS
 62
3
 10
4467.802901
 20
3436.818677
 11
4487.802901
 21
3430.318677
  0
ARC
  8
0
  6
CONTINUOUS
 62
3
 10
4488.846083
 20
3429.818677
 40
1.156818
 50
1.034820
 51
154.391468
  0
ARC
  8
0
  6
CONTINUOUS
 62
3
 10
4488.846083
 20
3467.818677
 40
1.156818
 50
205.608532
 51
358.965180
  0
ARC
  8
0
  6
CONTINUOUS
 62
3
 10
4488.784753
 20
3448.818677
 40
19.018148
 50
273.671847
 51
86.328153
  0
POLYLINE
  8
0
  6
CONTINUOUS
 62
3
 66
1
 70
2
  0
VERTEX
  8
0
 10
4357.802901
 20
3319.286536
 70
0
 42
0.000064
  0
VERTEX
  8
0
 10
4358.802901
 20
3319.291515
 70
0
  0
SEQEND
  0
LINE
  8
0
  6
CONTINUOUS
 62
3
 10
4358.802901
 20
3320.311415
 11
4357.802901
 21
3320.535923
  0
LINE
  8
0
  6
CONTINUOUS
 62
3
 10
4358.802901
 20
3319.248841
 11
4357.802901
 21
3319.243448
  0
LINE
  8
0
  6
CONTINUOUS
 62
3
 10
4358.802901
 20
3312.936856
 11
4357.802901
 21
3312.931463
  0
LINE
  8
0
  6
CONTINUOUS
 62
3
 10
4357.802901
 20
3317.731377
 11
4358.802901
 21
3317.736770
  0
LINE
  8
0
  6
CONTINUOUS
 62
3
 10
4358.802901
 20
3311.448933
 11
4357.802901
 21
3311.443540
  0
LINE
  8
0
  6
CONTINUOUS
 62
3
 10
4455.802901
 20
3361.264500
 11
4455.802901
 21
3394.908662
  0
LINE
  8
0
  6
CONTINUOUS
 62
3
 10
4457.802901
 20
3363.264500
 11
4457.802901
 21
3396.588241
  0
LINE
  8
0
  6
CONTINUOUS
 62
3
 10
4457.802901
 20
3363.264500
 11
4455.802901
 21
3361.264500
  0
LINE
  8
0
  6
CONTINUOUS
 62
3
 10
4360.802901
 20
3361.264500
 11
4360.802901
 21
3396.306231
  0
LINE
  8
0
  6
CONTINUOUS
 62
3
 10
4357.802901
 20
3363.264500
 11
4357.802901
 21
3397.972500
  0
LINE
  8
0
  6
CONTINUOUS
 62
3
 10
4360.802901
 20
3361.264500
 11
4360.427932
 21
3361.514546
  0
LINE
  8
0
  6
CONTINUOUS
 62
3
 10
4360.427932
 20
3361.514546
 11
4360.052954
 21
3361.764579
  0
LINE
  8
0
  6
CONTINUOUS
 62
3
 10
4360.052954
 20
3361.764579
 11
4359.677967
 21
3362.014599
  0
LINE
  8
0
  6
CONTINUOUS
 62
3
 10
4359.677967
 20
3362.014599
 11
4359.302971
 21
3362.264606
  0
LINE
  8
0
  6
CONTINUOUS
 62
3
 10
4359.302971
 20
3362.264606
 11
4358.927967
 21
3362.514600
  0
LINE
  8
0
  6
CONTINUOUS
 62
3
 10
4358.927967
 20
3362.514600
 11
4358.552954
 21
3362.764580
  0
LINE
  8
0
  6
CONTINUOUS
 62
3
 10
4358.552954
 20
3362.764580
 11
4358.177932
 21
3363.014547
  0
LINE
  8
0
  6
CONTINUOUS
 62
3
 10
4358.177932
 20
3363.014547
 11
4357.802909
 21
3363.264495
  0
LINE
  8
0
  6
CONTINUOUS
 62
3
 10
4453.302901
 20
3399.100181
 11
4360.802901
 21
3399.100181
  0
LINE
  8
0
  6
CONTINUOUS
 62
3
 10
4360.802901
 20
3399.100181
 11
4360.802901
 21
3396.306231
  0
LINE
  8
0
  6
CONTINUOUS
 62
3
 10
4453.302901
 20
3399.100181
 11
4455.802898
 21
3396.306234
  0
LINE
  8
0
  6
CONTINUOUS
 62
3
 10
4358.802901
 20
3512.513791
 11
4358.802901
 21
3398.254944
  0
LINE
  8
0
  6
CONTINUOUS
 62
3
 10
4358.802901
 20
3398.254944
 11
4360.802901
 21
3399.100181
  0
LINE
  8
0
  6
CONTINUOUS
 62
3
 10
4360.802901
 20
3513.359028
 11
4358.802901
 21
3512.513791
  0
LINE
  8
0
  6
CONTINUOUS
 62
3
 10
4079.302901
 20
3480.466473
 11
4079.302901
 21
3480.387829
  0
LINE
  8
0
  6
CONTINUOUS
 62
3
 10
4387.212023
 20
3382.795438
 11
4376.802901
 21
3382.795438
  0
LINE
  8
0
  6
CONTINUOUS
 62
3
 10
4441.274950
 20
3360.207925
 11
4441.274950
 21
3361.264500
  0
LINE
  8
0
  6
CONTINUOUS
 62
3
 10
4442.901183
 20
3361.264500
 11
4441.274950
 21
3361.264500
  0
LINE
  8
0
  6
CONTINUOUS
 62
3
 10
4426.406624
 20
3376.034510
 11
4429.766030
 21
3376.034510
  0
LINE
  8
0
  6
CONTINUOUS
 62
3
 10
4079.302901
 20
3369.543068
 11
4084.645398
 21
3370.387829
  0
LINE
  8
0
  6
CONTINUOUS
 62
3
 10
4333.802901
 20
2974.556215
 11
4331.302901
 21
2974.556215
  0
LINE
  8
0
  6
CONTINUOUS
 62
3
 10
4331.302901
 20
2975.688183
 11
4331.302901
 21
2974.556215
  0
LINE
  8
0
  6
CONTINUOUS
 62
3
 10
4422.802901
 20
3245.816793
 11
4422.802901
 21
3250.986793
  0
DIMENSION
  8
0
 62
1
  2
*D1
 70
0
  1
<>
 10
3940.802901
 20
4379.603050
 11
3940.802901
 21
4379.603050
 13
3422.802901
 23
4165.186793
 14
4458.802901
 24
4165.186793
 50
0.000000
  0
DIMENSION
  8
0
 62
1
  2
*D2
 70
0
  1
<>
 10
3217.322932
 20
3566.556187
 11
3217.322932
 21
3566.556187
 13
3555.552901
 23
4223.399189
 14
3604.602901
 24
2909.713185
 50
-90.000000
  0
INSERT
  2
A1-SHEET
  8
BORDER
 10
100.000000
 20
100.000000
 41
10.000000
 42
10.000000
 50
0.000000
  0
ENDSEC
  0
EOF
