  0
SECTION
  2
HEADER
  9
$LIMMIN
 10
0.000000
 20
0.000000
  9
$LIMMAX
 10
8408.964153
 20
5946.035575
  9
$EXTMIN
 10
0.000000
 20
0.000000
  9
$EXTMAX
 10
8408.964153
 20
5946.035575
  9
$ANGBASE
 50
0.0
  9
$ANGDIR
 70
0
  9
$DIMRND
 40
0.100000
  9
$DIMSE1
 70
0
  9
$DIMSE2
 70
0
  9
$DIMTXT
 40
3.500000
  9
$LTSCALE
 40
1.000000
  9
$LUPREC
 70
0
  9
$AUPREC
 70
0
  9
$PDMODE
 70
2
  9
$PDSIZE
 40
42.044821
  0
ENDSEC
  0
SECTION
  2
TABLES
  0
TABLE
  2
VPORT
  70
1
  0
VPORT
  2
*ACTIVE
 70
0
  10
0.0
 20
0.0
 11
1.0
 21
1.0
 12
594.0
 22
420.0
 13
0.0
 23
0.0
 14
10.0
 24
10.0
 15
10.0
 25
10.0
 16
0.0
 26
0.0
 36
1.0
 17
594.0
 27
420.0
 37
100.0
 40
1000.0
 41
1.0
 42
50.0
 43
0.0
 44
0.0
 50
0.0
 51
0.0
 71
0
 72
2000
 73
1
 74
3
 75
0
 76
0
 77
0
 78
1
  0
ENDTAB
  0
TABLE
  2
LTYPE
 70
4
  0
LTYPE
  2
CONTINUOUS
 70
0
  3
Solid line
 72
65
 73
0
 40
0.0
  0
LTYPE
  2
DASHED
 70
0
  3
Dashed line
 72
65
 73
2
 40
60.000000
 49
30.000000
 49
-30.000000
  0
LTYPE
  2
CENTER
 70
0
  3
Chain line
 72
65
 73
4
 40
240.000000
 49
150.000000
 49
-30.000000
 49
30.000000
 49
-30.000000
  0
LTYPE
  2
RANDOM
 70
0
  3
Random line
 72
65
 73
4
 40
225.000000
 49
60.000000
 49
-30.000000
 49
45.000000
 49
-90.000000
  0
ENDTAB
  0
TABLE
  2
STYLE
 70
9
  0
STYLE
  2
STANDARD
 40
0
 41
1.0
 50
0.0
 71
0
 42
0
  3
simplex
  4

 70
0
  0
ENDTAB
  0
TABLE
  2
LAYER
 70
3
  0
LAYER
  2
0
 70
0
 62
7
  6
CONTINUOUS
  0
LAYER
  2
0
 62
1
  6
CONTINUOUS
 70
0
  0
LAYER
  2
BORDER
 62
1
  6
CONTINUOUS
 70
0
  0
ENDTAB
  0
ENDSEC
  0
SECTION
  2
BLOCKS
  0
BLOCK
  2
A1-SHEET
  8
0
 70
0
 10
0.0
 20
0.0
 30
0.0
  0
LINE
  8
0
  6
CONTINUOUS
 62
1
 10
0.000000
 20
0.293588
 11
0.000000
 21
570.293588
  0
LINE
  8
0
  6
CONTINUOUS
 62
1
 10
810.896415
 20
0.293588
 11
0.000000
 21
0.293588
  0
LINE
  8
0
  6
CONTINUOUS
 62
1
 10
0.000000
 20
570.293588
 11
810.896415
 21
570.293588
  0
LINE
  8
0
  6
CONTINUOUS
 62
1
 10
810.896415
 20
0.293588
 11
810.896415
 21
570.293588
  0
LINE
  8
0
  6
CONTINUOUS
 62
1
 10
405.448208
 20
570.293588
 11
405.448208
 21
573.293588
  0
LINE
  8
0
  6
CONTINUOUS
 62
1
 10
608.172311
 20
570.293588
 11
608.172311
 21
573.293588
  0
LINE
  8
0
  6
CONTINUOUS
 62
1
 10
202.724104
 20
570.293588
 11
202.724104
 21
573.293588
  0
LINE
  8
0
  6
CONTINUOUS
 62
1
 10
101.362052
 20
570.293588
 11
101.362052
 21
573.293588
  0
LINE
  8
0
  6
CONTINUOUS
 62
1
 10
304.086156
 20
570.293588
 11
304.086156
 21
569.894507
  0
LINE
  8
0
  6
CONTINUOUS
 62
1
 10
304.086156
 20
569.894507
 11
304.086156
 21
573.293588
  0
LINE
  8
0
  6
CONTINUOUS
 62
1
 10
506.810260
 20
570.293588
 11
506.810260
 21
573.293588
  0
LINE
  8
0
  6
CONTINUOUS
 62
1
 10
709.534363
 20
570.293588
 11
709.534363
 21
573.293588
  0
TEXT
  8
0
  6
CONTINUOUS
 62
2
 10
99.855229
 20
574.935709
 40
3.000000
  1
1
 50
0.000000
 41
1.000000
 51
0.000000
  7
STANDARD
  0
TEXT
  8
0
  6
CONTINUOUS
 62
2
 10
201.603454
 20
574.761780
 40
3.000000
  1
2
 50
0.000000
 41
1.000000
 51
0.000000
  7
STANDARD
  0
TEXT
  8
0
  6
CONTINUOUS
 62
2
 10
303.425760
 20
574.928387
 40
3.000000
  1
3
 50
0.000000
 41
1.000000
 51
0.000000
  7
STANDARD
  0
TEXT
  8
0
  6
CONTINUOUS
 62
2
 10
403.692370
 20
574.751238
 40
3.000000
  1
4
 50
0.000000
 41
1.000000
 51
0.000000
  7
STANDARD
  0
TEXT
  8
0
  6
CONTINUOUS
 62
2
 10
505.761611
 20
574.628257
 40
3.000000
  1
5
 50
0.000000
 41
1.000000
 51
0.000000
  7
STANDARD
  0
TEXT
  8
0
  6
CONTINUOUS
 62
2
 10
607.243575
 20
575.166148
 40
3.000000
  1
6
 50
0.000000
 41
1.000000
 51
0.000000
  7
STANDARD
  0
TEXT
  8
0
  6
CONTINUOUS
 62
2
 10
708.456940
 20
573.963183
 40
3.000000
  1
7
 50
0.000000
 41
1.000000
 51
0.000000
  7
STANDARD
  0
LINE
  8
0
  6
CONTINUOUS
 62
3
 10
405.448208
 20
570.293588
 11
405.448208
 21
565.293588
  0
LINE
  8
0
  6
CONTINUOUS
 62
1
 10
810.896415
 20
285.293588
 11
813.896415
 21
285.293588
  0
LINE
  8
0
  6
CONTINUOUS
 62
1
 10
810.896415
 20
427.793588
 11
813.896415
 21
427.793588
  0
LINE
  8
0
  6
CONTINUOUS
 62
1
 10
810.896415
 20
142.793588
 11
813.896415
 21
142.793588
  0
LINE
  8
0
  6
CONTINUOUS
 62
1
 10
810.896415
 20
499.043588
 11
813.896415
 21
499.043588
  0
LINE
  8
0
  6
CONTINUOUS
 62
1
 10
810.896415
 20
356.543588
 11
813.896415
 21
356.543588
  0
LINE
  8
0
  6
CONTINUOUS
 62
1
 10
810.896415
 20
214.043588
 11
813.896415
 21
214.043588
  0
LINE
  8
0
  6
CONTINUOUS
 62
1
 10
810.896415
 20
71.543588
 11
813.896415
 21
71.543588
  0
TEXT
  8
0
  6
CONTINUOUS
 62
2
 10
814.731259
 20
497.682453
 40
3.000000
  1
A
 50
0.000000
 41
1.000000
 51
0.000000
  7
STANDARD
  0
TEXT
  8
0
  6
CONTINUOUS
 62
2
 10
814.617524
 20
426.633648
 40
3.000000
  1
B
 50
0.000000
 41
1.000000
 51
0.000000
  7
STANDARD
  0
TEXT
  8
0
  6
CONTINUOUS
 62
2
 10
815.378220
 20
355.128239
 40
3.000000
  1
C
 50
0.000000
 41
1.000000
 51
0.000000
  7
STANDARD
  0
TEXT
  8
0
  6
CONTINUOUS
 62
2
 10
815.265962
 20
284.354684
 40
3.000000
  1
D
 50
0.000000
 41
1.000000
 51
0.000000
  7
STANDARD
  0
TEXT
  8
0
  6
CONTINUOUS
 62
2
 10
815.477184
 20
212.961533
 40
3.000000
  1
E
 50
0.000000
 41
1.000000
 51
0.000000
  7
STANDARD
  0
TEXT
  8
0
  6
CONTINUOUS
 62
2
 10
814.828747
 20
141.734274
 40
3.000000
  1
F
 50
0.000000
 41
1.000000
 51
0.000000
  7
STANDARD
  0
TEXT
  8
0
  6
CONTINUOUS
 62
2
 10
815.320614
 20
69.921633
 40
3.000000
  1
G
 50
0.000000
 41
1.000000
 51
0.000000
  7
STANDARD
  0
LINE
  8
0
  6
CONTINUOUS
 62
3
 10
810.896415
 20
285.293588
 11
807.896415
 21
285.293588
  0
LINE
  8
0
  6
CONTINUOUS
 62
1
 10
578.313470
 20
19.293588
 11
578.313470
 21
0.000000
  0
LINE
  8
0
  6
CONTINUOUS
 62
1
 10
284.611031
 20
19.293588
 11
284.611031
 21
0.293588
  0
LINE
  8
0
  6
CONTINUOUS
 62
1
 10
810.896415
 20
563.293588
 11
653.667813
 21
563.293588
  0
LINE
  8
0
  6
CONTINUOUS
 62
1
 10
107.451868
 20
563.293588
 11
0.000000
 21
563.293588
  0
LINE
  8
0
  6
CONTINUOUS
 62
1
 10
0.000000
 20
19.293588
 11
623.352368
 21
19.293588
  0
TEXT
  8
0
  6
CONTINUOUS
 62
2
 10
46.453288
 20
10.796613
 40
3.105000
  1
1998 - THIS DESIGN/DRAWING IS THE PROPERTY OF MONO EQUIPMENT AND MUST NOT BE
 50
0.000000
 41
1.000000
 51
0.000000
  7
STANDARD
  0
TEXT
  8
0
  6
CONTINUOUS
 62
2
 10
41.107749
 20
4.310541
 40
3.105000
  1
REPRODUCED, COPIED, OR ITS CONTENTS DIVULGED WITHOUT PRIOR WRITTEN PERMISSION.
 50
0.000000
 41
1.000000
 51
0.000000
  7
STANDARD
  0
CIRCLE
  8
0
  6
CONTINUOUS
 62
3
 10
42.276047
 20
14.388236
 40
2.173500
  0
TEXT
  8
0
  6
CONTINUOUS
 62
2
 10
16.991737
 20
10.697820
 40
3.105000
  1
COPYRIGHT
 50
0.000000
 41
1.000000
 51
0.000000
  7
STANDARD
  0
TEXT
  8
0
  6
CONTINUOUS
 62
2
 10
41.713660
 20
13.712616
 40
1.630125
  1
C
 50
0.000000
 41
1.000000
 51
0.000000
  7
STANDARD
  0
TEXT
  8
0
  6
CONTINUOUS
 62
3
 10
286.872128
 20
14.527338
 40
3.003000
  1
REMOVE ALL BURRS & SHARP EDGES - ON SHEET METAL PARTS
 50
0.000000
 41
1.000000
 51
0.000000
  7
STANDARD
  0
LINE
  8
0
  6
CONTINUOUS
 62
1
 10
578.313470
 20
13.293588
 11
284.611031
 21
13.293588
  0
LINE
  8
0
  6
CONTINUOUS
 62
1
 10
284.611031
 20
6.293588
 11
578.313470
 21
6.293588
  0
TEXT
  8
0
  6
CONTINUOUS
 62
3
 10
292.717676
 20
1.450699
 40
3.003000
  1
OPEN TOL,150 & BELOW -.5,OVER 150 -1.0
 50
0.000000
 41
1.000000
 51
0.000000
  7
STANDARD
  0
TEXT
  8
0
  6
CONTINUOUS
 62
3
 10
343.153184
 20
2.995429
 40
3.003000
  1
+
 50
0.000000
 41
1.000000
 51
0.000000
  7
STANDARD
  0
TEXT
  8
0
  6
CONTINUOUS
 62
3
 10
374.360063
 20
3.082114
 40
3.003000
  1
+
 50
0.000000
 41
1.000000
 51
0.000000
  7
STANDARD
  0
TEXT
  8
0
  6
CONTINUOUS
 62
3
 10
396.025848
 20
1.552562
 40
3.003000
  1
DECIMAL DIMs,75 & BELOW -.25, 75 TO 300-.4, 300 TO 600-.5, OVER 600-1.0
 50
0.000000
 41
1.000000
 51
0.000000
  7
STANDARD
  0
TEXT
  8
0
  6
CONTINUOUS
 62
3
 10
453.503115
 20
3.046556
 40
3.003000
  1
+
 50
0.000000
 41
1.000000
 51
0.000000
  7
STANDARD
  0
TEXT
  8
0
  6
CONTINUOUS
 62
3
 10
489.694740
 20
3.046556
 40
3.003000
  1
+
 50
0.000000
 41
1.000000
 51
0.000000
  7
STANDARD
  0
TEXT
  8
0
  6
CONTINUOUS
 62
3
 10
525.686413
 20
3.046556
 40
3.003000
  1
+
 50
0.000000
 41
1.000000
 51
0.000000
  7
STANDARD
  0
TEXT
  8
0
  6
CONTINUOUS
 62
3
 10
557.079149
 20
3.046556
 40
3.003000
  1
+
 50
0.000000
 41
1.000000
 51
0.000000
  7
STANDARD
  0
TEXT
  8
0
  6
CONTINUOUS
 62
3
 10
298.372755
 20
8.027002
 40
3.003000
  1
SURFACE MACHINING,         COARSE FINISH,          MEDIUM FINISH
 50
0.000000
 41
1.000000
 51
0.000000
  7
STANDARD
  0
LINE
  8
0
  6
CONTINUOUS
 62
3
 10
358.454200
 20
7.938625
 11
357.376430
 21
9.477839
  0
LINE
  8
0
  6
CONTINUOUS
 62
3
 10
355.061002
 20
7.938625
 11
361.601409
 21
7.938625
  0
LINE
  8
0
  6
CONTINUOUS
 62
3
 10
355.461530
 20
7.938625
 11
356.552531
 21
6.847623
  0
LINE
  8
0
  6
CONTINUOUS
 62
3
 10
358.675973
 20
6.847623
 11
357.584972
 21
7.938625
  0
LINE
  8
0
  6
CONTINUOUS
 62
3
 10
359.708413
 20
7.938625
 11
360.799415
 21
6.847623
  0
LINE
  8
0
  6
CONTINUOUS
 62
3
 10
357.376430
 20
9.477839
 11
359.531969
 21
9.477839
  0
TEXT
  8
0
  6
CONTINUOUS
 62
3
 10
355.059729
 20
10.350713
 40
1.911000
  1
3.2
 50
0.000000
 41
1.000000
 51
0.000000
  7
STANDARD
  0
LINE
  8
0
  6
CONTINUOUS
 62
3
 10
361.472631
 20
12.249391
 11
358.454200
 21
7.938625
  0
LINE
  8
0
  6
CONTINUOUS
 62
3
 10
415.064989
 20
7.939383
 11
413.987220
 21
9.478597
  0
LINE
  8
0
  6
CONTINUOUS
 62
3
 10
411.671791
 20
7.939383
 11
418.212199
 21
7.939383
  0
LINE
  8
0
  6
CONTINUOUS
 62
3
 10
412.072320
 20
7.939383
 11
413.163321
 21
6.848381
  0
LINE
  8
0
  6
CONTINUOUS
 62
3
 10
415.286763
 20
6.848381
 11
414.195761
 21
7.939383
  0
LINE
  8
0
  6
CONTINUOUS
 62
3
 10
416.319203
 20
7.939383
 11
417.410204
 21
6.848381
  0
LINE
  8
0
  6
CONTINUOUS
 62
3
 10
413.987220
 20
9.478597
 11
416.142758
 21
9.478597
  0
TEXT
  8
0
  6
CONTINUOUS
 62
3
 10
411.670519
 20
10.351471
 40
1.911000
  1
1.6
 50
0.000000
 41
1.000000
 51
0.000000
  7
STANDARD
  0
LINE
  8
0
  6
CONTINUOUS
 62
3
 10
418.083420
 20
12.250149
 11
415.064989
 21
7.939383
  0
TEXT
  8
0
  6
CONTINUOUS
 62
3
 10
471.656054
 20
7.835044
 40
3.003000
  1
FINE FINISH,          GROUND FINISH
 50
0.000000
 41
1.000000
 51
0.000000
  7
STANDARD
  0
LINE
  8
0
  6
CONTINUOUS
 62
3
 10
520.028258
 20
7.857540
 11
518.950489
 21
9.396754
  0
LINE
  8
0
  6
CONTINUOUS
 62
3
 10
516.635060
 20
7.857540
 11
523.175468
 21
7.857540
  0
LINE
  8
0
  6
CONTINUOUS
 62
3
 10
517.035588
 20
7.857540
 11
518.126590
 21
6.766538
  0
LINE
  8
0
  6
CONTINUOUS
 62
3
 10
520.250032
 20
6.766538
 11
519.159030
 21
7.857540
  0
LINE
  8
0
  6
CONTINUOUS
 62
3
 10
521.282472
 20
7.857540
 11
522.373473
 21
6.766538
  0
LINE
  8
0
  6
CONTINUOUS
 62
3
 10
518.950489
 20
9.396754
 11
521.106027
 21
9.396754
  0
TEXT
  8
0
  6
CONTINUOUS
 62
3
 10
516.633788
 20
10.269628
 40
1.911000
  1
0.4
 50
0.000000
 41
1.000000
 51
0.000000
  7
STANDARD
  0
LINE
  8
0
  6
CONTINUOUS
 62
3
 10
523.046689
 20
12.168306
 11
520.028258
 21
7.857540
  0
LINE
  8
0
  6
CONTINUOUS
 62
3
 10
466.978169
 20
7.991505
 11
465.900400
 21
9.530719
  0
LINE
  8
0
  6
CONTINUOUS
 62
3
 10
463.584971
 20
7.991505
 11
470.125378
 21
7.991505
  0
LINE
  8
0
  6
CONTINUOUS
 62
3
 10
463.985499
 20
7.991505
 11
465.076501
 21
6.900503
  0
LINE
  8
0
  6
CONTINUOUS
 62
3
 10
467.199942
 20
6.900503
 11
466.108941
 21
7.991505
  0
LINE
  8
0
  6
CONTINUOUS
 62
3
 10
468.232382
 20
7.991505
 11
469.323384
 21
6.900503
  0
LINE
  8
0
  6
CONTINUOUS
 62
3
 10
465.900400
 20
9.530719
 11
468.055938
 21
9.530719
  0
TEXT
  8
0
  6
CONTINUOUS
 62
3
 10
463.583698
 20
10.403593
 40
1.911000
  1
0.8
 50
0.000000
 41
1.000000
 51
0.000000
  7
STANDARD
  0
LINE
  8
0
  6
CONTINUOUS
 62
3
 10
469.996600
 20
12.302271
 11
466.978169
 21
7.991505
  0
TEXT
  8
0
  6
CONTINUOUS
 62
3
 10
417.615816
 20
14.532113
 40
3.003000
  1
EXTERNAL CORNERS TO BE SAFETY RADIUSED 2mm UNLESS STATED OTHERWISE
 50
0.000000
 41
1.000000
 51
0.000000
  7
STANDARD
  0
TEXT
  8
0
  6
CONTINUOUS
 62
3
 10
656.297578
 20
564.567124
 40
4.000000
  1
ALL DIMENSIONS IN mm UNLESS OTHERWISE STATED
 50
0.000000
 41
1.000000
 51
0.000000
  7
STANDARD
  0
LINE
  8
0
  6
CONTINUOUS
 62
1
 10
653.667813
 20
570.293588
 11
653.667813
 21
563.293588
  0
LINE
  8
0
  6
CONTINUOUS
 62
1
 10
107.451868
 20
570.293588
 11
107.451868
 21
563.293588
  0
TEXT
  8
0
  6
CONTINUOUS
 62
3
 10
3.972877
 20
564.871493
 40
4.000000
  1
DO NOT SCALE - IF IN DOUBT ASK !
 50
0.000000
 41
1.000000
 51
0.000000
  7
STANDARD
  0
LINE
  8
0
  6
CONTINUOUS
 62
1
 10
587.525727
 20
13.926050
 11
596.525727
 21
16.337592
  0
LINE
  8
0
  6
CONTINUOUS
 62
1
 10
587.525727
 20
10.249192
 11
596.525727
 21
7.837650
  0
LINE
  8
0
  6
CONTINUOUS
 62
1
 10
587.525727
 20
10.249192
 11
587.525727
 21
13.926050
  0
LINE
  8
0
  6
CONTINUOUS
 62
1
 10
596.525727
 20
16.337592
 11
596.525727
 21
7.837650
  0
CIRCLE
  8
0
  6
CONTINUOUS
 62
1
 10
607.775727
 20
12.087621
 40
4.500000
  0
CIRCLE
  8
0
  6
CONTINUOUS
 62
1
 10
607.775727
 20
12.087621
 40
1.838429
  0
LINE
  8
0
  6
CENTER
 62
3
 10
585.650727
 20
12.087621
 11
598.400727
 21
12.087621
  0
LINE
  8
0
  6
CENTER
 62
3
 10
602.150727
 20
12.087621
 11
613.400727
 21
12.087621
  0
LINE
  8
0
  6
CENTER
 62
3
 10
607.775727
 20
6.462621
 11
607.775727
 21
17.712621
  0
TEXT
  8
0
  6
CONTINUOUS
 62
3
 10
592.291645
 20
1.750190
 40
2.500000
  1
1st ANGLE
 50
0.000000
 41
1.000000
 51
0.000000
  7
STANDARD
  0
LINE
  8
0
  6
CONTINUOUS
 62
1
 10
623.352368
 20
0.293588
 11
623.352368
 21
62.274256
  0
LINE
  8
0
  6
CONTINUOUS
 62
1
 10
623.352368
 20
0.293588
 11
810.896415
 21
0.293588
  0
LINE
  8
0
  6
CONTINUOUS
 62
1
 10
727.208958
 20
33.293588
 11
727.208958
 21
0.293588
  0
TEXT
  8
0
  6
CONTINUOUS
 62
3
 10
727.766174
 20
10.487504
 40
2.500000
  1
DRAWING NO.
 50
0.000000
 41
1.000000
 51
0.000000
  7
STANDARD
  0
TEXT
  8
0
  6
CONTINUOUS
 62
3
 10
800.510911
 20
10.225253
 40
2.500000
  1
REV:
 50
0.000000
 41
1.000000
 51
0.000000
  7
STANDARD
  0
LINE
  8
0
  6
CONTINUOUS
 62
1
 10
798.482467
 20
14.293588
 11
798.482467
 21
0.293588
  0
LINE
  8
0
  6
CONTINUOUS
 62
1
 10
633.753828
 20
71.698567
 11
633.753828
 21
62.274256
  0
LINE
  8
0
  6
CONTINUOUS
 62
1
 10
791.352368
 20
62.274256
 11
727.208958
 21
62.274256
  0
LINE
  8
0
  6
CONTINUOUS
 62
1
 10
810.896415
 20
62.274256
 11
623.352368
 21
62.274256
  0
LINE
  8
0
  6
CONTINUOUS
 62
1
 10
633.753828
 20
77.604799
 11
633.753828
 21
62.274256
  0
LINE
  8
0
  6
CONTINUOUS
 62
1
 10
623.352368
 20
69.274256
 11
810.896415
 21
69.274256
  0
LINE
  8
0
  6
CONTINUOUS
 62
1
 10
793.896415
 20
69.274256
 11
793.896415
 21
62.274256
  0
LINE
  8
0
  6
CONTINUOUS
 62
1
 10
623.352368
 20
62.274256
 11
623.352368
 21
77.604799
  0
TEXT
  8
0
  6
CONTINUOUS
 62
3
 10
718.950436
 20
64.569995
 40
2.500000
  1
REVISION
 50
0.000000
 41
1.000000
 51
0.000000
  7
STANDARD
  0
TEXT
  8
0
  6
CONTINUOUS
 62
3
 10
795.462895
 20
64.646654
 40
2.500000
  1
ECN NO.
 50
0.000000
 41
1.000000
 51
0.000000
  7
STANDARD
  0
LINE
  8
0
  6
CONTINUOUS
 62
1
 10
764.317856
 20
14.293588
 11
764.317856
 21
33.293588
  0
LINE
  8
0
  6
CONTINUOUS
 62
1
 10
623.352368
 20
14.293588
 11
623.352368
 21
0.293588
  0
LINE
  8
0
  6
CONTINUOUS
 62
1
 10
623.352368
 20
16.727379
 11
623.352368
 21
2.727379
  0
LINE
  8
0
  6
CONTINUOUS
 62
1
 10
646.753828
 20
77.604799
 11
646.753828
 21
62.274256
  0
LINE
  8
0
  6
CONTINUOUS
 62
1
 10
670.486609
 20
77.604799
 11
670.486609
 21
62.274256
  0
TEXT
  8
0
  6
CONTINUOUS
 62
3
 10
636.962453
 20
64.332177
 40
2.500000
  1
SIG
 50
0.000000
 41
1.000000
 51
0.000000
  7
STANDARD
  0
TEXT
  8
0
  6
CONTINUOUS
 62
3
 10
624.865220
 20
64.110210
 40
2.500000
  1
REV
 50
0.000000
 41
1.000000
 51
0.000000
  7
STANDARD
  0
TEXT
  8
0
  6
CONTINUOUS
 62
3
 10
653.166086
 20
64.110210
 40
2.500000
  1
DATE
 50
0.000000
 41
1.000000
 51
0.000000
  7
STANDARD
  0
LINE
  8
0
  6
CONTINUOUS
 62
1
 10
810.896415
 20
14.293588
 11
727.208958
 21
14.293588
  0
LINE
  8
0
  6
CONTINUOUS
 62
1
 10
810.896415
 20
0.293588
 11
810.896415
 21
570.293588
  0
LINE
  8
0
  6
CONTINUOUS
 62
1
 10
700.168430
 20
0.293588
 11
700.168430
 21
62.274256
  0
LINE
  8
0
  6
CONTINUOUS
 62
1
 10
810.896415
 20
33.293588
 11
700.168430
 21
33.293588
  0
LINE
  8
0
  6
CONTINUOUS
 62
1
 10
700.168430
 20
22.293588
 11
727.208958
 21
22.293588
  0
LINE
  8
0
  6
CONTINUOUS
 62
1
 10
727.208958
 20
11.293588
 11
700.168430
 21
11.293588
  0
TEXT
  8
0
  6
CONTINUOUS
 62
3
 10
701.350188
 20
29.612613
 40
2.500000
  1
DRAWN:
 50
0.000000
 41
1.000000
 51
0.000000
  7
STANDARD
  0
TEXT
  8
0
  6
CONTINUOUS
 62
3
 10
701.350188
 20
18.637009
 40
2.500000
  1
DATE:
 50
0.000000
 41
1.000000
 51
0.000000
  7
STANDARD
  0
TEXT
  8
0
  6
CONTINUOUS
 62
3
 10
701.111588
 20
7.661404
 40
2.500000
  1
SCALE:
 50
0.000000
 41
1.000000
 51
0.000000
  7
STANDARD
  0
TEXT
  8
0
  6
CONTINUOUS
 62
2
 10
772.768519
 20
28.719478
 40
2.500000
  1
WORKS ORDER NO.
 50
0.000000
 41
1.000000
 51
0.000000
  7
STANDARD
  0
TEXT
  8
0
  6
CONTINUOUS
 62
2
 10
728.589229
 20
28.541629
 40
2.500000
  1
PURCHASE ORDER NO.
 50
0.000000
 41
1.000000
 51
0.000000
  7
STANDARD
  0
LINE
  8
0
  6
CONTINUOUS
 62
1
 10
700.168430
 20
33.293588
 11
623.352368
 21
33.293588
  0
LINE
  8
0
  6
CONTINUOUS
 62
1
 10
700.168430
 20
22.293588
 11
623.352368
 21
22.293588
  0
LINE
  8
0
  6
CONTINUOUS
 62
1
 10
700.168430
 20
11.293588
 11
623.352368
 21
11.293588
  0
TEXT
  8
0
  6
CONTINUOUS
 62
3
 10
624.026517
 20
29.753879
 40
2.500000
  1
MAT'L:
 50
0.000000
 41
1.000000
 51
0.000000
  7
STANDARD
  0
LINE
  8
0
  6
CONTINUOUS
 62
1
 10
661.760399
 20
11.293588
 11
661.760399
 21
22.293588
  0
TEXT
  8
0
  6
CONTINUOUS
 62
3
 10
623.981266
 20
19.055406
 40
2.500000
  1
MAT'L
 50
0.000000
 41
1.000000
 51
0.000000
  7
STANDARD
  0
TEXT
  8
0
  6
CONTINUOUS
 62
3
 10
624.092805
 20
15.374627
 40
2.500000
  1
QTY:
 50
0.000000
 41
1.000000
 51
0.000000
  7
STANDARD
  0
TEXT
  8
0
  6
CONTINUOUS
 62
3
 10
662.350599
 20
15.263088
 40
2.500000
  1
REQ:
 50
0.000000
 41
1.000000
 51
0.000000
  7
STANDARD
  0
TEXT
  8
0
  6
CONTINUOUS
 62
3
 10
662.573677
 20
18.832329
 40
2.500000
  1
NO.
 50
0.000000
 41
1.000000
 51
0.000000
  7
STANDARD
  0
TEXT
  8
0
  6
CONTINUOUS
 62
3
 10
623.981266
 20
7.678453
 40
2.500000
  1
FINISH:
 50
0.000000
 41
1.000000
 51
0.000000
  7
STANDARD
  0
TEXT
  8
0
  6
CONTINUOUS
 62
4
 10
651.498402
 20
48.650078
 40
2.475000
  1
SWANSEA WEST IND PARK
 50
0.000000
 41
1.000000
 51
0.000000
  7
STANDARD
  0
TEXT
  8
0
  6
CONTINUOUS
 62
4
 10
651.517078
 20
44.988659
 40
2.475000
  1
SWANSEA.
 50
0.000000
 41
1.000000
 51
0.000000
  7
STANDARD
  0
TEXT
  8
0
  6
CONTINUOUS
 62
4
 10
651.481443
 20
38.080873
 40
2.300000
  1
TEL: (01792) 561234
 50
0.000000
 41
1.000000
 51
0.000000
  7
STANDARD
  0
TEXT
  8
0
  6
CONTINUOUS
 62
4
 10
651.498402
 20
34.324330
 40
2.300000
  1
FAX: (01792) 561016
 50
0.000000
 41
1.000000
 51
0.000000
  7
STANDARD
  0
TEXT
  8
0
  6
CONTINUOUS
 62
5
 10
651.490386
 20
56.703235
 40
3.000000
  1
MONO EQUIPMENT
 50
0.000000
 41
1.000000
 51
0.000000
  7
STANDARD
  0
TEXT
  8
0
  6
CONTINUOUS
 62
4
 10
651.517078
 20
52.286738
 40
2.475000
  1
QUEENSWAY
 50
0.000000
 41
1.000000
 51
0.000000
  7
STANDARD
  0
TEXT
  8
0
  6
CONTINUOUS
 62
3
 10
701.350188
 20
58.593282
 40
2.500000
  1
TITLE:
 50
0.000000
 41
1.000000
 51
0.000000
  7
STANDARD
  0
TEXT
  8
0
  6
CONTINUOUS
 62
3
 10
681.570971
 20
7.556337
 40
2.500000
  1
DRAWING
 50
0.000000
 41
1.000000
 51
0.000000
  7
STANDARD
  0
TEXT
  8
0
  6
CONTINUOUS
 62
3
 10
681.570971
 20
2.802509
 40
2.500000
  1
SIZE
 50
0.000000
 41
1.000000
 51
0.000000
  7
STANDARD
  0
TEXT
  8
0
  6
CONTINUOUS
 62
3
 10
691.816292
 20
2.802509
 40
3.250000
  1
A1
 50
0.000000
 41
1.000000
 51
0.000000
  7
STANDARD
  0
LINE
  8
0
  6
CONTINUOUS
 62
1
 10
680.669383
 20
0.293588
 11
680.669383
 21
11.293588
  0
TEXT
  8
0
  6
CONTINUOUS
 62
4
 10
651.498402
 20
41.547751
 40
2.475000
  1
SA5 4EB.
 50
0.000000
 41
1.000000
 51
0.000000
  7
STANDARD
  0
INSERT
  2
MONO-LOGO
  8
0
 10
637.541247
 20
48.776781
 41
0.500000
 42
0.500000
 50
0.000000
  0
ENDBLK
  0
BLOCK
  2
MONO-LOGO
  8
0
 70
0
 10
0.0
 20
0.0
 30
0.0
  0
LINE
  8
0
  6
CONTINUOUS
 62
2
 10
-19.875000
 20
-11.812500
 11
19.875000
 21
-11.812500
  0
LINE
  8
0
  6
CONTINUOUS
 62
2
 10
19.875000
 20
-11.812500
 11
19.875000
 21
-9.562500
  0
LINE
  8
0
  6
CONTINUOUS
 62
2
 10
-19.875000
 20
-9.562500
 11
-19.875000
 21
-11.812500
  0
LINE
  8
0
  6
CONTINUOUS
 62
2
 10
-19.875000
 20
-9.562500
 11
-19.875000
 21
-0.562500
  0
LINE
  8
0
  6
CONTINUOUS
 62
2
 10
19.875000
 20
-4.312500
 11
19.875000
 21
-5.812500
  0
LINE
  8
0
  6
CONTINUOUS
 62
2
 10
-19.875000
 20
1.687500
 11
19.875000
 21
1.687500
  0
LINE
  8
0
  6
CONTINUOUS
 62
2
 10
19.875000
 20
1.687500
 11
19.875000
 21
3.562500
  0
LINE
  8
0
  6
CONTINUOUS
 62
2
 10
19.875000
 20
3.562500
 11
-19.875000
 21
3.562500
  0
LINE
  8
0
  6
CONTINUOUS
 62
2
 10
-19.875000
 20
3.562500
 11
-19.875000
 21
1.687500
  0
LINE
  8
0
  6
CONTINUOUS
 62
2
 10
-19.875000
 20
5.812500
 11
19.875000
 21
5.812500
  0
LINE
  8
0
  6
CONTINUOUS
 62
2
 10
19.875000
 20
5.812500
 11
19.875000
 21
7.312500
  0
LINE
  8
0
  6
CONTINUOUS
 62
2
 10
19.875000
 20
7.312500
 11
-19.875000
 21
7.312500
  0
LINE
  8
0
  6
CONTINUOUS
 62
2
 10
-19.875000
 20
7.312500
 11
-19.875000
 21
5.812500
  0
LINE
  8
0
  6
CONTINUOUS
 62
2
 10
-19.875000
 20
9.562500
 11
19.875000
 21
9.562500
  0
LINE
  8
0
  6
CONTINUOUS
 62
2
 10
19.875000
 20
9.562500
 11
19.875000
 21
10.687500
  0
LINE
  8
0
  6
CONTINUOUS
 62
2
 10
19.875000
 20
10.687500
 11
-19.875000
 21
10.687500
  0
LINE
  8
0
  6
CONTINUOUS
 62
2
 10
-19.875000
 20
10.687500
 11
-19.875000
 21
9.562500
  0
LINE
  8
0
  6
CONTINUOUS
 62
2
 10
-19.875000
 20
12.937500
 11
19.875000
 21
12.937500
  0
LINE
  8
0
  6
CONTINUOUS
 62
2
 10
19.875000
 20
12.937500
 11
19.875000
 21
13.687500
  0
LINE
  8
0
  6
CONTINUOUS
 62
2
 10
19.875000
 20
13.687500
 11
-19.875000
 21
13.687500
  0
LINE
  8
0
  6
CONTINUOUS
 62
2
 10
-19.875000
 20
13.687500
 11
-19.875000
 21
12.937500
  0
LINE
  8
0
  6
CONTINUOUS
 62
2
 10
-19.875000
 20
15.937500
 11
19.875000
 21
15.937500
  0
LINE
  8
0
  6
CONTINUOUS
 62
2
 10
19.875000
 20
15.937500
 11
19.875000
 21
16.312500
  0
LINE
  8
0
  6
CONTINUOUS
 62
2
 10
19.875000
 20
16.312500
 11
-19.875000
 21
16.312500
  0
LINE
  8
0
  6
CONTINUOUS
 62
2
 10
-19.875000
 20
16.312500
 11
-19.875000
 21
15.937500
  0
LINE
  8
0
  6
CONTINUOUS
 62
2
 10
-10.125000
 20
-0.562500
 11
-10.125000
 21
-9.562500
  0
LINE
  8
0
  6
CONTINUOUS
 62
2
 10
10.125000
 20
-5.812500
 11
10.125000
 21
-4.312500
  0
LINE
  8
0
  6
CONTINUOUS
 62
2
 10
17.250000
 20
-5.437500
 11
17.250000
 21
-4.687500
  0
LINE
  8
0
  6
CONTINUOUS
 62
2
 10
12.750000
 20
-4.687500
 11
12.750000
 21
-5.437500
  0
ARC
  8
0
  6
CONTINUOUS
 62
2
 10
15.000000
 20
-4.687500
 40
2.250000
 50
0.000000
 51
90.000000
  0
ARC
  8
0
  6
CONTINUOUS
 62
2
 10
15.000000
 20
-4.687500
 40
2.250000
 50
90.000000
 51
180.000000
  0
ARC
  8
0
  6
CONTINUOUS
 62
2
 10
15.000000
 20
-5.437500
 40
2.250000
 50
180.000000
 51
270.000000
  0
ARC
  8
0
  6
CONTINUOUS
 62
2
 10
15.000000
 20
-5.437500
 40
2.250000
 50
270.000000
 51
0.000000
  0
LINE
  8
0
  6
CONTINUOUS
 62
2
 10
13.875000
 20
-0.562500
 11
16.125000
 21
-0.562500
  0
ARC
  8
0
  6
CONTINUOUS
 62
2
 10
16.125000
 20
-4.312500
 40
3.750000
 50
0.000000
 51
90.000000
  0
ARC
  8
0
  6
CONTINUOUS
 62
2
 10
16.125000
 20
-5.812500
 40
3.750000
 50
270.000000
 51
0.000000
  0
ARC
  8
0
  6
CONTINUOUS
 62
2
 10
13.875000
 20
-5.812500
 40
3.750000
 50
180.000000
 51
270.000000
  0
ARC
  8
0
  6
CONTINUOUS
 62
2
 10
13.875000
 20
-4.312500
 40
3.750000
 50
90.000000
 51
180.000000
  0
LINE
  8
0
  6
CONTINUOUS
 62
2
 10
0.208130
 20
-4.293740
 11
0.208130
 21
-5.793740
  0
LINE
  8
0
  6
CONTINUOUS
 62
2
 10
-9.541870
 20
-5.793740
 11
-9.541870
 21
-4.293740
  0
LINE
  8
0
  6
CONTINUOUS
 62
2
 10
-2.416870
 20
-5.418740
 11
-2.416870
 21
-4.668740
  0
LINE
  8
0
  6
CONTINUOUS
 62
2
 10
-6.916870
 20
-4.668740
 11
-6.916870
 21
-5.418740
  0
ARC
  8
0
  6
CONTINUOUS
 62
2
 10
-4.666870
 20
-4.668740
 40
2.250000
 50
0.000000
 51
90.000000
  0
ARC
  8
0
  6
CONTINUOUS
 62
2
 10
-4.666870
 20
-4.668740
 40
2.250000
 50
90.000000
 51
180.000000
  0
ARC
  8
0
  6
CONTINUOUS
 62
2
 10
-4.666870
 20
-5.418740
 40
2.250000
 50
180.000000
 51
270.000000
  0
ARC
  8
0
  6
CONTINUOUS
 62
2
 10
-4.666870
 20
-5.418740
 40
2.250000
 50
270.000000
 51
0.000000
  0
LINE
  8
0
  6
CONTINUOUS
 62
2
 10
-5.791870
 20
-0.543740
 11
-3.541870
 21
-0.543740
  0
ARC
  8
0
  6
CONTINUOUS
 62
2
 10
-3.541870
 20
-4.293740
 40
3.750000
 50
0.000000
 51
90.000000
  0
ARC
  8
0
  6
CONTINUOUS
 62
2
 10
-3.541870
 20
-5.793740
 40
3.750000
 50
270.000000
 51
0.000000
  0
ARC
  8
0
  6
CONTINUOUS
 62
2
 10
-5.791870
 20
-5.793740
 40
3.750000
 50
180.000000
 51
270.000000
  0
LINE
  8
0
  6
CONTINUOUS
 62
2
 10
0.900000
 20
-0.562500
 11
0.900000
 21
-9.562500
  0
LINE
  8
0
  6
CONTINUOUS
 62
2
 10
9.525000
 20
-9.562500
 11
9.525000
 21
-0.562500
  0
LINE
  8
0
  6
CONTINUOUS
 62
2
 10
-17.625000
 20
-3.937500
 11
-17.625000
 21
-9.562500
  0
LINE
  8
0
  6
CONTINUOUS
 62
2
 10
-17.625000
 20
-3.937500
 11
-15.750000
 21
-9.562500
  0
LINE
  8
0
  6
CONTINUOUS
 62
2
 10
-12.375000
 20
-9.562500
 11
-12.375000
 21
-3.937500
  0
LINE
  8
0
  6
CONTINUOUS
 62
2
 10
-14.250000
 20
-9.562500
 11
-12.375000
 21
-3.937500
  0
LINE
  8
0
  6
CONTINUOUS
 62
2
 10
-13.875000
 20
-0.562500
 11
-15.000000
 21
-3.937500
  0
LINE
  8
0
  6
CONTINUOUS
 62
2
 10
-15.000000
 20
-3.937500
 11
-16.125000
 21
-0.562500
  0
LINE
  8
0
  6
CONTINUOUS
 62
2
 10
-10.125000
 20
-0.562500
 11
-13.875000
 21
-0.562500
  0
LINE
  8
0
  6
CONTINUOUS
 62
2
 10
-16.125000
 20
-0.562500
 11
-19.875000
 21
-0.562500
  0
LINE
  8
0
  6
CONTINUOUS
 62
2
 10
-15.750000
 20
-9.562500
 11
-17.625000
 21
-9.562500
  0
LINE
  8
0
  6
CONTINUOUS
 62
2
 10
19.875000
 20
-9.562500
 11
16.125000
 21
-9.562500
  0
LINE
  8
0
  6
CONTINUOUS
 62
2
 10
3.525000
 20
-9.562500
 11
3.525000
 21
-4.687500
  0
LINE
  8
0
  6
CONTINUOUS
 62
2
 10
6.900000
 20
-0.562500
 11
6.900000
 21
-5.437500
  0
LINE
  8
0
  6
CONTINUOUS
 62
2
 10
3.525000
 20
-0.562500
 11
6.900000
 21
-5.437500
  0
LINE
  8
0
  6
CONTINUOUS
 62
2
 10
6.900000
 20
-9.562500
 11
3.525000
 21
-4.687500
  0
LINE
  8
0
  6
CONTINUOUS
 62
2
 10
0.900000
 20
-0.562500
 11
3.525000
 21
-0.562500
  0
LINE
  8
0
  6
CONTINUOUS
 62
2
 10
6.900000
 20
-0.562500
 11
9.525000
 21
-0.562500
  0
LINE
  8
0
  6
CONTINUOUS
 62
2
 10
-3.541870
 20
-9.543740
 11
0.900000
 21
-9.562500
  0
LINE
  8
0
  6
CONTINUOUS
 62
2
 10
3.525000
 20
-9.562500
 11
6.900000
 21
-9.562500
  0
LINE
  8
0
  6
CONTINUOUS
 62
2
 10
9.525000
 20
-9.562500
 11
13.875000
 21
-9.562500
  0
LINE
  8
0
  6
CONTINUOUS
 62
2
 10
-5.791870
 20
-9.562500
 11
-10.125000
 21
-9.562500
  0
LINE
  8
0
  6
CONTINUOUS
 62
2
 10
-12.375000
 20
-9.562500
 11
-14.250000
 21
-9.562500
  0
ARC
  8
0
  6
CONTINUOUS
 62
2
 10
-5.791870
 20
-4.293740
 40
3.750000
 50
90.000000
 51
180.000000
  0
LINE
  8
0
  6
CONTINUOUS
 62
2
 10
-5.791870
 20
-9.543740
 11
-5.791870
 21
-9.562500
  0
LINE
  8
0
  6
CONTINUOUS
 62
2
 10
-19.875000
 20
-11.756886
 11
19.875000
 21
-11.756886
  0
LINE
  8
0
  6
CONTINUOUS
 62
2
 10
-19.875000
 20
-11.456886
 11
19.875000
 21
-11.456886
  0
LINE
  8
0
  6
CONTINUOUS
 62
2
 10
-19.875000
 20
-11.156886
 11
19.875000
 21
-11.156886
  0
LINE
  8
0
  6
CONTINUOUS
 62
2
 10
-19.875000
 20
-10.856886
 11
19.875000
 21
-10.856886
  0
LINE
  8
0
  6
CONTINUOUS
 62
2
 10
-19.875000
 20
-10.556886
 11
19.875000
 21
-10.556886
  0
LINE
  8
0
  6
CONTINUOUS
 62
2
 10
-19.875000
 20
-10.256886
 11
19.875000
 21
-10.256886
  0
LINE
  8
0
  6
CONTINUOUS
 62
2
 10
-19.875000
 20
-9.956886
 11
19.875000
 21
-9.956886
  0
LINE
  8
0
  6
CONTINUOUS
 62
2
 10
-19.875000
 20
-9.656886
 11
19.875000
 21
-9.656886
  0
LINE
  8
0
  6
CONTINUOUS
 62
2
 10
-19.875000
 20
-9.356886
 11
-17.625000
 21
-9.356886
  0
LINE
  8
0
  6
CONTINUOUS
 62
2
 10
-15.818538
 20
-9.356886
 11
-14.181462
 21
-9.356886
  0
LINE
  8
0
  6
CONTINUOUS
 62
2
 10
-12.375000
 20
-9.356886
 11
-10.125000
 21
-9.356886
  0
LINE
  8
0
  6
CONTINUOUS
 62
2
 10
-6.960842
 20
-9.356886
 11
-2.372899
 21
-9.356886
  0
LINE
  8
0
  6
CONTINUOUS
 62
2
 10
0.900000
 20
-9.356886
 11
3.525000
 21
-9.356886
  0
LINE
  8
0
  6
CONTINUOUS
 62
2
 10
6.757652
 20
-9.356886
 11
9.525000
 21
-9.356886
  0
LINE
  8
0
  6
CONTINUOUS
 62
2
 10
12.650325
 20
-9.356886
 11
17.349675
 21
-9.356886
  0
LINE
  8
0
  6
CONTINUOUS
 62
2
 10
-19.875000
 20
-9.056886
 11
-17.625000
 21
-9.056886
  0
LINE
  8
0
  6
CONTINUOUS
 62
2
 10
-15.918538
 20
-9.056886
 11
-14.081462
 21
-9.056886
  0
LINE
  8
0
  6
CONTINUOUS
 62
2
 10
-12.375000
 20
-9.056886
 11
-10.125000
 21
-9.056886
  0
LINE
  8
0
  6
CONTINUOUS
 62
2
 10
-7.639675
 20
-9.056886
 11
-1.694066
 21
-9.056886
  0
LINE
  8
0
  6
CONTINUOUS
 62
2
 10
0.900000
 20
-9.056886
 11
3.525000
 21
-9.056886
  0
LINE
  8
0
  6
CONTINUOUS
 62
2
 10
6.549959
 20
-9.056886
 11
9.525000
 21
-9.056886
  0
LINE
  8
0
  6
CONTINUOUS
 62
2
 10
11.994452
 20
-9.056886
 11
18.005548
 21
-9.056886
  0
LINE
  8
0
  6
CONTINUOUS
 62
2
 10
-19.875000
 20
-8.756886
 11
-17.625000
 21
-8.756886
  0
LINE
  8
0
  6
CONTINUOUS
 62
2
 10
-16.018538
 20
-8.756886
 11
-13.981462
 21
-8.756886
  0
LINE
  8
0
  6
CONTINUOUS
 62
2
 10
-12.375000
 20
-8.756886
 11
-10.125000
 21
-8.756886
  0
LINE
  8
0
  6
CONTINUOUS
 62
2
 10
-8.090189
 20
-8.756886
 11
-1.243552
 21
-8.756886
  0
LINE
  8
0
  6
CONTINUOUS
 62
2
 10
0.900000
 20
-8.756886
 11
3.525000
 21
-8.756886
  0
LINE
  8
0
  6
CONTINUOUS
 62
2
 10
6.342267
 20
-8.756886
 11
9.525000
 21
-8.756886
  0
LINE
  8
0
  6
CONTINUOUS
 62
2
 10
11.552697
 20
-8.756886
 11
18.447303
 21
-8.756886
  0
LINE
  8
0
  6
CONTINUOUS
 62
2
 10
-19.875000
 20
-8.456886
 11
-17.625000
 21
-8.456886
  0
LINE
  8
0
  6
CONTINUOUS
 62
2
 10
-16.118538
 20
-8.456886
 11
-13.881462
 21
-8.456886
  0
LINE
  8
0
  6
CONTINUOUS
 62
2
 10
-12.375000
 20
-8.456886
 11
-10.125000
 21
-8.456886
  0
LINE
  8
0
  6
CONTINUOUS
 62
2
 10
-8.431976
 20
-8.456886
 11
-0.901765
 21
-8.456886
  0
LINE
  8
0
  6
CONTINUOUS
 62
2
 10
0.900000
 20
-8.456886
 11
3.525000
 21
-8.456886
  0
LINE
  8
0
  6
CONTINUOUS
 62
2
 10
6.134575
 20
-8.456886
 11
9.525000
 21
-8.456886
  0
LINE
  8
0
  6
CONTINUOUS
 62
2
 10
11.216105
 20
-8.456886
 11
18.783895
 21
-8.456886
  0
LINE
  8
0
  6
CONTINUOUS
 62
2
 10
-19.875000
 20
-8.156886
 11
-17.625000
 21
-8.156886
  0
LINE
  8
0
  6
CONTINUOUS
 62
2
 10
-16.218538
 20
-8.156886
 11
-13.781462
 21
-8.156886
  0
LINE
  8
0
  6
CONTINUOUS
 62
2
 10
-12.375000
 20
-8.156886
 11
-10.125000
 21
-8.156886
  0
LINE
  8
0
  6
CONTINUOUS
 62
2
 10
-8.703578
 20
-8.156886
 11
-0.630162
 21
-8.156886
  0
LINE
  8
0
  6
CONTINUOUS
 62
2
 10
0.900000
 20
-8.156886
 11
3.525000
 21
-8.156886
  0
LINE
  8
0
  6
CONTINUOUS
 62
2
 10
5.926882
 20
-8.156886
 11
9.525000
 21
-8.156886
  0
LINE
  8
0
  6
CONTINUOUS
 62
2
 10
10.948166
 20
-8.156886
 11
19.051834
 21
-8.156886
  0
LINE
  8
0
  6
CONTINUOUS
 62
2
 10
-19.875000
 20
-7.856886
 11
-17.625000
 21
-7.856886
  0
LINE
  8
0
  6
CONTINUOUS
 62
2
 10
-16.318538
 20
-7.856886
 11
-13.681462
 21
-7.856886
  0
LINE
  8
0
  6
CONTINUOUS
 62
2
 10
-12.375000
 20
-7.856886
 11
-10.125000
 21
-7.856886
  0
LINE
  8
0
  6
CONTINUOUS
 62
2
 10
-8.923313
 20
-7.856886
 11
-0.410428
 21
-7.856886
  0
LINE
  8
0
  6
CONTINUOUS
 62
2
 10
0.900000
 20
-7.856886
 11
3.525000
 21
-7.856886
  0
LINE
  8
0
  6
CONTINUOUS
 62
2
 10
5.719190
 20
-7.856886
 11
9.525000
 21
-7.856886
  0
LINE
  8
0
  6
CONTINUOUS
 62
2
 10
10.731278
 20
-7.856886
 11
19.268722
 21
-7.856886
  0
LINE
  8
0
  6
CONTINUOUS
 62
2
 10
-19.875000
 20
-7.556886
 11
-17.625000
 21
-7.556886
  0
LINE
  8
0
  6
CONTINUOUS
 62
2
 10
-16.418538
 20
-7.556886
 11
-13.581462
 21
-7.556886
  0
LINE
  8
0
  6
CONTINUOUS
 62
2
 10
-12.375000
 20
-7.556886
 11
-10.125000
 21
-7.556886
  0
LINE
  8
0
  6
CONTINUOUS
 62
2
 10
-9.101526
 20
-7.556886
 11
-5.367466
 21
-7.556886
  0
LINE
  8
0
  6
CONTINUOUS
 62
2
 10
-3.966275
 20
-7.556886
 11
-0.232215
 21
-7.556886
  0
LINE
  8
0
  6
CONTINUOUS
 62
2
 10
0.900000
 20
-7.556886
 11
3.525000
 21
-7.556886
  0
LINE
  8
0
  6
CONTINUOUS
 62
2
 10
5.511498
 20
-7.556886
 11
9.525000
 21
-7.556886
  0
LINE
  8
0
  6
CONTINUOUS
 62
2
 10
10.555419
 20
-7.556886
 11
14.244551
 21
-7.556886
  0
LINE
  8
0
  6
CONTINUOUS
 62
2
 10
15.755449
 20
-7.556886
 11
19.444581
 21
-7.556886
  0
LINE
  8
0
  6
CONTINUOUS
 62
2
 10
-19.875000
 20
-7.256886
 11
-17.625000
 21
-7.256886
  0
LINE
  8
0
  6
CONTINUOUS
 62
2
 10
-16.518538
 20
-7.256886
 11
-13.481462
 21
-7.256886
  0
LINE
  8
0
  6
CONTINUOUS
 62
2
 10
-12.375000
 20
-7.256886
 11
-10.125000
 21
-7.256886
  0
LINE
  8
0
  6
CONTINUOUS
 62
2
 10
-9.244653
 20
-7.256886
 11
-5.964453
 21
-7.256886
  0
LINE
  8
0
  6
CONTINUOUS
 62
2
 10
-3.369288
 20
-7.256886
 11
-0.089088
 21
-7.256886
  0
LINE
  8
0
  6
CONTINUOUS
 62
2
 10
0.900000
 20
-7.256886
 11
3.525000
 21
-7.256886
  0
LINE
  8
0
  6
CONTINUOUS
 62
2
 10
5.303806
 20
-7.256886
 11
9.525000
 21
-7.256886
  0
LINE
  8
0
  6
CONTINUOUS
 62
2
 10
10.414328
 20
-7.256886
 11
13.676242
 21
-7.256886
  0
LINE
  8
0
  6
CONTINUOUS
 62
2
 10
16.323758
 20
-7.256886
 11
19.585672
 21
-7.256886
  0
LINE
  8
0
  6
CONTINUOUS
 62
2
 10
-19.875000
 20
-6.956886
 11
-17.625000
 21
-6.956886
  0
LINE
  8
0
  6
CONTINUOUS
 62
2
 10
-16.618538
 20
-6.956886
 11
-13.381462
 21
-6.956886
  0
LINE
  8
0
  6
CONTINUOUS
 62
2
 10
-12.375000
 20
-6.956886
 11
-10.125000
 21
-6.956886
  0
LINE
  8
0
  6
CONTINUOUS
 62
2
 10
-9.356922
 20
-6.956886
 11
-6.309006
 21
-6.956886
  0
LINE
  8
0
  6
CONTINUOUS
 62
2
 10
-3.024735
 20
-6.956886
 11
0.023181
 21
-6.956886
  0
LINE
  8
0
  6
CONTINUOUS
 62
2
 10
0.900000
 20
-6.956886
 11
3.525000
 21
-6.956886
  0
LINE
  8
0
  6
CONTINUOUS
 62
2
 10
5.096113
 20
-6.956886
 11
9.525000
 21
-6.956886
  0
LINE
  8
0
  6
CONTINUOUS
 62
2
 10
10.303882
 20
-6.956886
 11
13.340492
 21
-6.956886
  0
LINE
  8
0
  6
CONTINUOUS
 62
2
 10
16.659508
 20
-6.956886
 11
19.696118
 21
-6.956886
  0
LINE
  8
0
  6
CONTINUOUS
 62
2
 10
-19.875000
 20
-6.656886
 11
-17.625000
 21
-6.656886
  0
LINE
  8
0
  6
CONTINUOUS
 62
2
 10
-16.718538
 20
-6.656886
 11
-13.281462
 21
-6.656886
  0
LINE
  8
0
  6
CONTINUOUS
 62
2
 10
-12.375000
 20
-6.656886
 11
-10.125000
 21
-6.656886
  0
LINE
  8
0
  6
CONTINUOUS
 62
2
 10
-9.441183
 20
-6.656886
 11
-6.545566
 21
-6.656886
  0
LINE
  8
0
  6
CONTINUOUS
 62
2
 10
-2.788175
 20
-6.656886
 11
0.107442
 21
-6.656886
  0
LINE
  8
0
  6
CONTINUOUS
 62
2
 10
0.900000
 20
-6.656886
 11
3.525000
 21
-6.656886
  0
LINE
  8
0
  6
CONTINUOUS
 62
2
 10
4.888421
 20
-6.656886
 11
9.525000
 21
-6.656886
  0
LINE
  8
0
  6
CONTINUOUS
 62
2
 10
10.221302
 20
-6.656886
 11
13.109075
 21
-6.656886
  0
LINE
  8
0
  6
CONTINUOUS
 62
2
 10
16.890925
 20
-6.656886
 11
19.778698
 21
-6.656886
  0
LINE
  8
0
  6
CONTINUOUS
 62
2
 10
-19.875000
 20
-6.356886
 11
-17.625000
 21
-6.356886
  0
LINE
  8
0
  6
CONTINUOUS
 62
2
 10
-16.818538
 20
-6.356886
 11
-13.181462
 21
-6.356886
  0
LINE
  8
0
  6
CONTINUOUS
 62
2
 10
-12.375000
 20
-6.356886
 11
-10.125000
 21
-6.356886
  0
LINE
  8
0
  6
CONTINUOUS
 62
2
 10
-9.499345
 20
-6.356886
 11
-6.711958
 21
-6.356886
  0
LINE
  8
0
  6
CONTINUOUS
 62
2
 10
-2.621783
 20
-6.356886
 11
0.165604
 21
-6.356886
  0
LINE
  8
0
  6
CONTINUOUS
 62
2
 10
0.900000
 20
-6.356886
 11
3.525000
 21
-6.356886
  0
LINE
  8
0
  6
CONTINUOUS
 62
2
 10
4.680729
 20
-6.356886
 11
9.525000
 21
-6.356886
  0
LINE
  8
0
  6
CONTINUOUS
 62
2
 10
10.164725
 20
-6.356886
 11
12.946411
 21
-6.356886
  0
LINE
  8
0
  6
CONTINUOUS
 62
2
 10
17.053589
 20
-6.356886
 11
19.835275
 21
-6.356886
  0
LINE
  8
0
  6
CONTINUOUS
 62
2
 10
-19.875000
 20
-6.056886
 11
-17.625000
 21
-6.056886
  0
LINE
  8
0
  6
CONTINUOUS
 62
2
 10
-16.918538
 20
-6.056886
 11
-13.081462
 21
-6.056886
  0
LINE
  8
0
  6
CONTINUOUS
 62
2
 10
-12.375000
 20
-6.056886
 11
-10.125000
 21
-6.056886
  0
LINE
  8
0
  6
CONTINUOUS
 62
2
 10
-9.532626
 20
-6.056886
 11
-6.824478
 21
-6.056886
  0
LINE
  8
0
  6
CONTINUOUS
 62
2
 10
-2.509263
 20
-6.056886
 11
0.198885
 21
-6.056886
  0
LINE
  8
0
  6
CONTINUOUS
 62
2
 10
0.900000
 20
-6.056886
 11
3.525000
 21
-6.056886
  0
LINE
  8
0
  6
CONTINUOUS
 62
2
 10
4.473036
 20
-6.056886
 11
9.525000
 21
-6.056886
  0
LINE
  8
0
  6
CONTINUOUS
 62
2
 10
10.132972
 20
-6.056886
 11
12.836932
 21
-6.056886
  0
LINE
  8
0
  6
CONTINUOUS
 62
2
 10
17.163068
 20
-6.056886
 11
19.867028
 21
-6.056886
  0
LINE
  8
0
  6
CONTINUOUS
 62
2
 10
-19.875000
 20
-5.756886
 11
-17.625000
 21
-5.756886
  0
LINE
  8
0
  6
CONTINUOUS
 62
2
 10
-17.018538
 20
-5.756886
 11
-12.981462
 21
-5.756886
  0
LINE
  8
0
  6
CONTINUOUS
 62
2
 10
-12.375000
 20
-5.756886
 11
-10.125000
 21
-5.756886
  0
LINE
  8
0
  6
CONTINUOUS
 62
2
 10
-9.541870
 20
-5.756886
 11
-6.891316
 21
-5.756886
  0
LINE
  8
0
  6
CONTINUOUS
 62
2
 10
-2.442425
 20
-5.756886
 11
0.208130
 21
-5.756886
  0
LINE
  8
0
  6
CONTINUOUS
 62
2
 10
0.900000
 20
-5.756886
 11
3.525000
 21
-5.756886
  0
LINE
  8
0
  6
CONTINUOUS
 62
2
 10
4.265344
 20
-5.756886
 11
9.525000
 21
-5.756886
  0
LINE
  8
0
  6
CONTINUOUS
 62
2
 10
10.125000
 20
-5.756886
 11
12.772784
 21
-5.756886
  0
LINE
  8
0
  6
CONTINUOUS
 62
2
 10
17.227216
 20
-5.756886
 11
19.875000
 21
-5.756886
  0
LINE
  8
0
  6
CONTINUOUS
 62
2
 10
-19.875000
 20
-5.456886
 11
-17.625000
 21
-5.456886
  0
LINE
  8
0
  6
CONTINUOUS
 62
2
 10
-17.118538
 20
-5.456886
 11
-12.881462
 21
-5.456886
  0
LINE
  8
0
  6
CONTINUOUS
 62
2
 10
-12.375000
 20
-5.456886
 11
-10.125000
 21
-5.456886
  0
LINE
  8
0
  6
CONTINUOUS
 62
2
 10
-9.541870
 20
-5.456886
 11
-6.916547
 21
-5.456886
  0
LINE
  8
0
  6
CONTINUOUS
 62
2
 10
-2.417194
 20
-5.456886
 11
0.208130
 21
-5.456886
  0
LINE
  8
0
  6
CONTINUOUS
 62
2
 10
0.900000
 20
-5.456886
 11
3.525000
 21
-5.456886
  0
LINE
  8
0
  6
CONTINUOUS
 62
2
 10
4.057652
 20
-5.456886
 11
9.525000
 21
-5.456886
  0
LINE
  8
0
  6
CONTINUOUS
 62
2
 10
10.125000
 20
-5.456886
 11
12.750084
 21
-5.456886
  0
LINE
  8
0
  6
CONTINUOUS
 62
2
 10
17.249916
 20
-5.456886
 11
19.875000
 21
-5.456886
  0
LINE
  8
0
  6
CONTINUOUS
 62
2
 10
-19.875000
 20
-5.156886
 11
-17.625000
 21
-5.156886
  0
LINE
  8
0
  6
CONTINUOUS
 62
2
 10
-17.218538
 20
-5.156886
 11
-12.781462
 21
-5.156886
  0
LINE
  8
0
  6
CONTINUOUS
 62
2
 10
-12.375000
 20
-5.156886
 11
-10.125000
 21
-5.156886
  0
LINE
  8
0
  6
CONTINUOUS
 62
2
 10
-9.541870
 20
-5.156886
 11
-6.916870
 21
-5.156886
  0
LINE
  8
0
  6
CONTINUOUS
 62
2
 10
-2.416870
 20
-5.156886
 11
0.208130
 21
-5.156886
  0
LINE
  8
0
  6
CONTINUOUS
 62
2
 10
0.900000
 20
-5.156886
 11
3.525000
 21
-5.156886
  0
LINE
  8
0
  6
CONTINUOUS
 62
2
 10
3.849959
 20
-5.156886
 11
6.705729
 21
-5.156886
  0
LINE
  8
0
  6
CONTINUOUS
 62
2
 10
6.900000
 20
-5.156886
 11
9.525000
 21
-5.156886
  0
LINE
  8
0
  6
CONTINUOUS
 62
2
 10
10.125000
 20
-5.156886
 11
12.750000
 21
-5.156886
  0
LINE
  8
0
  6
CONTINUOUS
 62
2
 10
17.250000
 20
-5.156886
 11
19.875000
 21
-5.156886
  0
LINE
  8
0
  6
CONTINUOUS
 62
2
 10
-19.875000
 20
-4.856886
 11
-17.625000
 21
-4.856886
  0
LINE
  8
0
  6
CONTINUOUS
 62
2
 10
-17.318538
 20
-4.856886
 11
-12.681462
 21
-4.856886
  0
LINE
  8
0
  6
CONTINUOUS
 62
2
 10
-12.375000
 20
-4.856886
 11
-10.125000
 21
-4.856886
  0
LINE
  8
0
  6
CONTINUOUS
 62
2
 10
-9.541870
 20
-4.856886
 11
-6.916870
 21
-4.856886
  0
LINE
  8
0
  6
CONTINUOUS
 62
2
 10
-2.416870
 20
-4.856886
 11
0.208130
 21
-4.856886
  0
LINE
  8
0
  6
CONTINUOUS
 62
2
 10
0.900000
 20
-4.856886
 11
3.525000
 21
-4.856886
  0
LINE
  8
0
  6
CONTINUOUS
 62
2
 10
3.642267
 20
-4.856886
 11
6.498036
 21
-4.856886
  0
LINE
  8
0
  6
CONTINUOUS
 62
2
 10
6.900000
 20
-4.856886
 11
9.525000
 21
-4.856886
  0
LINE
  8
0
  6
CONTINUOUS
 62
2
 10
10.125000
 20
-4.856886
 11
12.750000
 21
-4.856886
  0
LINE
  8
0
  6
CONTINUOUS
 62
2
 10
17.250000
 20
-4.856886
 11
19.875000
 21
-4.856886
  0
LINE
  8
0
  6
CONTINUOUS
 62
2
 10
-19.875000
 20
-4.556886
 11
-17.625000
 21
-4.556886
  0
LINE
  8
0
  6
CONTINUOUS
 62
2
 10
-17.418538
 20
-4.556886
 11
-12.581462
 21
-4.556886
  0
LINE
  8
0
  6
CONTINUOUS
 62
2
 10
-12.375000
 20
-4.556886
 11
-10.125000
 21
-4.556886
  0
LINE
  8
0
  6
CONTINUOUS
 62
2
 10
-9.541870
 20
-4.556886
 11
-6.914088
 21
-4.556886
  0
LINE
  8
0
  6
CONTINUOUS
 62
2
 10
-2.419652
 20
-4.556886
 11
0.208130
 21
-4.556886
  0
LINE
  8
0
  6
CONTINUOUS
 62
2
 10
0.900000
 20
-4.556886
 11
6.290344
 21
-4.556886
  0
LINE
  8
0
  6
CONTINUOUS
 62
2
 10
6.900000
 20
-4.556886
 11
9.525000
 21
-4.556886
  0
LINE
  8
0
  6
CONTINUOUS
 62
2
 10
10.125000
 20
-4.556886
 11
12.753794
 21
-4.556886
  0
LINE
  8
0
  6
CONTINUOUS
 62
2
 10
17.246206
 20
-4.556886
 11
19.875000
 21
-4.556886
  0
LINE
  8
0
  6
CONTINUOUS
 62
2
 10
-19.875000
 20
-4.256886
 11
-17.625000
 21
-4.256886
  0
LINE
  8
0
  6
CONTINUOUS
 62
2
 10
-17.518538
 20
-4.256886
 11
-12.481462
 21
-4.256886
  0
LINE
  8
0
  6
CONTINUOUS
 62
2
 10
-12.375000
 20
-4.256886
 11
-10.125000
 21
-4.256886
  0
LINE
  8
0
  6
CONTINUOUS
 62
2
 10
-9.541689
 20
-4.256886
 11
-6.878855
 21
-4.256886
  0
LINE
  8
0
  6
CONTINUOUS
 62
2
 10
-2.454886
 20
-4.256886
 11
0.207948
 21
-4.256886
  0
LINE
  8
0
  6
CONTINUOUS
 62
2
 10
0.900000
 20
-4.256886
 11
6.082652
 21
-4.256886
  0
LINE
  8
0
  6
CONTINUOUS
 62
2
 10
6.900000
 20
-4.256886
 11
9.525000
 21
-4.256886
  0
LINE
  8
0
  6
CONTINUOUS
 62
2
 10
10.125412
 20
-4.256886
 11
12.791591
 21
-4.256886
  0
LINE
  8
0
  6
CONTINUOUS
 62
2
 10
17.208409
 20
-4.256886
 11
19.874588
 21
-4.256886
  0
LINE
  8
0
  6
CONTINUOUS
 62
2
 10
-19.875000
 20
-3.956886
 11
-17.625000
 21
-3.956886
  0
LINE
  8
0
  6
CONTINUOUS
 62
2
 10
-17.618538
 20
-3.956886
 11
-12.381462
 21
-3.956886
  0
LINE
  8
0
  6
CONTINUOUS
 62
2
 10
-12.375000
 20
-3.956886
 11
-10.125000
 21
-3.956886
  0
LINE
  8
0
  6
CONTINUOUS
 62
2
 10
-9.526710
 20
-3.956886
 11
-6.801294
 21
-3.956886
  0
LINE
  8
0
  6
CONTINUOUS
 62
2
 10
-2.532447
 20
-3.956886
 11
0.192969
 21
-3.956886
  0
LINE
  8
0
  6
CONTINUOUS
 62
2
 10
0.900000
 20
-3.956886
 11
5.874959
 21
-3.956886
  0
LINE
  8
0
  6
CONTINUOUS
 62
2
 10
6.900000
 20
-3.956886
 11
9.525000
 21
-3.956886
  0
LINE
  8
0
  6
CONTINUOUS
 62
2
 10
10.141900
 20
-3.956886
 11
12.871925
 21
-3.956886
  0
LINE
  8
0
  6
CONTINUOUS
 62
2
 10
17.128075
 20
-3.956886
 11
19.858100
 21
-3.956886
  0
LINE
  8
0
  6
CONTINUOUS
 62
2
 10
-19.875000
 20
-3.656886
 11
-15.093538
 21
-3.656886
  0
LINE
  8
0
  6
CONTINUOUS
 62
2
 10
-14.906462
 20
-3.656886
 11
-10.125000
 21
-3.656886
  0
LINE
  8
0
  6
CONTINUOUS
 62
2
 10
-9.487397
 20
-3.656886
 11
-6.676510
 21
-3.656886
  0
LINE
  8
0
  6
CONTINUOUS
 62
2
 10
-2.657231
 20
-3.656886
 11
0.153656
 21
-3.656886
  0
LINE
  8
0
  6
CONTINUOUS
 62
2
 10
0.900000
 20
-3.656886
 11
5.667267
 21
-3.656886
  0
LINE
  8
0
  6
CONTINUOUS
 62
2
 10
6.900000
 20
-3.656886
 11
9.525000
 21
-3.656886
  0
LINE
  8
0
  6
CONTINUOUS
 62
2
 10
10.182755
 20
-3.656886
 11
12.999916
 21
-3.656886
  0
LINE
  8
0
  6
CONTINUOUS
 62
2
 10
17.000084
 20
-3.656886
 11
19.817245
 21
-3.656886
  0
LINE
  8
0
  6
CONTINUOUS
 62
2
 10
-19.875000
 20
-3.356886
 11
-15.193538
 21
-3.356886
  0
LINE
  8
0
  6
CONTINUOUS
 62
2
 10
-14.806462
 20
-3.356886
 11
-10.125000
 21
-3.356886
  0
LINE
  8
0
  6
CONTINUOUS
 62
2
 10
-9.422959
 20
-3.356886
 11
-6.494858
 21
-3.356886
  0
LINE
  8
0
  6
CONTINUOUS
 62
2
 10
-2.838883
 20
-3.356886
 11
0.089218
 21
-3.356886
  0
LINE
  8
0
  6
CONTINUOUS
 62
2
 10
0.900000
 20
-3.356886
 11
5.459575
 21
-3.356886
  0
LINE
  8
0
  6
CONTINUOUS
 62
2
 10
6.900000
 20
-3.356886
 11
9.525000
 21
-3.356886
  0
LINE
  8
0
  6
CONTINUOUS
 62
2
 10
10.248803
 20
-3.356886
 11
13.185622
 21
-3.356886
  0
LINE
  8
0
  6
CONTINUOUS
 62
2
 10
16.814378
 20
-3.356886
 11
19.751197
 21
-3.356886
  0
LINE
  8
0
  6
CONTINUOUS
 62
2
 10
-19.875000
 20
-3.056886
 11
-15.293538
 21
-3.056886
  0
LINE
  8
0
  6
CONTINUOUS
 62
2
 10
-14.706462
 20
-3.056886
 11
-10.125000
 21
-3.056886
  0
LINE
  8
0
  6
CONTINUOUS
 62
2
 10
-9.332025
 20
-3.056886
 11
-6.236719
 21
-3.056886
  0
LINE
  8
0
  6
CONTINUOUS
 62
2
 10
-3.097022
 20
-3.056886
 11
-0.001716
 21
-3.056886
  0
LINE
  8
0
  6
CONTINUOUS
 62
2
 10
0.900000
 20
-3.056886
 11
5.251882
 21
-3.056886
  0
LINE
  8
0
  6
CONTINUOUS
 62
2
 10
6.900000
 20
-3.056886
 11
9.525000
 21
-3.056886
  0
LINE
  8
0
  6
CONTINUOUS
 62
2
 10
10.341456
 20
-3.056886
 11
13.449646
 21
-3.056886
  0
LINE
  8
0
  6
CONTINUOUS
 62
2
 10
16.550354
 20
-3.056886
 11
19.658544
 21
-3.056886
  0
LINE
  8
0
  6
CONTINUOUS
 62
2
 10
-19.875000
 20
-2.756886
 11
-15.393538
 21
-2.756886
  0
LINE
  8
0
  6
CONTINUOUS
 62
2
 10
-14.606462
 20
-2.756886
 11
-10.125000
 21
-2.756886
  0
LINE
  8
0
  6
CONTINUOUS
 62
2
 10
-9.212481
 20
-2.756886
 11
-5.853172
 21
-2.756886
  0
LINE
  8
0
  6
CONTINUOUS
 62
2
 10
-3.480568
 20
-2.756886
 11
-0.121260
 21
-2.756886
  0
LINE
  8
0
  6
CONTINUOUS
 62
2
 10
0.900000
 20
-2.756886
 11
5.044190
 21
-2.756886
  0
LINE
  8
0
  6
CONTINUOUS
 62
2
 10
6.900000
 20
-2.756886
 11
9.525000
 21
-2.756886
  0
LINE
  8
0
  6
CONTINUOUS
 62
2
 10
10.462880
 20
-2.756886
 11
13.844479
 21
-2.756886
  0
LINE
  8
0
  6
CONTINUOUS
 62
2
 10
16.155521
 20
-2.756886
 11
19.537120
 21
-2.756886
  0
LINE
  8
0
  6
CONTINUOUS
 62
2
 10
-19.875000
 20
-2.456886
 11
-15.493538
 21
-2.456886
  0
LINE
  8
0
  6
CONTINUOUS
 62
2
 10
-14.506462
 20
-2.456886
 11
-10.125000
 21
-2.456886
  0
LINE
  8
0
  6
CONTINUOUS
 62
2
 10
-9.061192
 20
-2.456886
 11
-5.079423
 21
-2.456886
  0
LINE
  8
0
  6
CONTINUOUS
 62
2
 10
-4.254318
 20
-2.456886
 11
-0.272549
 21
-2.456886
  0
LINE
  8
0
  6
CONTINUOUS
 62
2
 10
0.900000
 20
-2.456886
 11
4.836498
 21
-2.456886
  0
LINE
  8
0
  6
CONTINUOUS
 62
2
 10
6.900000
 20
-2.456886
 11
9.525000
 21
-2.456886
  0
LINE
  8
0
  6
CONTINUOUS
 62
2
 10
10.616289
 20
-2.456886
 11
14.705279
 21
-2.456886
  0
LINE
  8
0
  6
CONTINUOUS
 62
2
 10
15.294721
 20
-2.456886
 11
19.383711
 21
-2.456886
  0
LINE
  8
0
  6
CONTINUOUS
 62
2
 10
-19.875000
 20
-2.156886
 11
-15.593538
 21
-2.156886
  0
LINE
  8
0
  6
CONTINUOUS
 62
2
 10
-14.406462
 20
-2.156886
 11
-10.125000
 21
-2.156886
  0
LINE
  8
0
  6
CONTINUOUS
 62
2
 10
-8.873486
 20
-2.156886
 11
-0.460255
 21
-2.156886
  0
LINE
  8
0
  6
CONTINUOUS
 62
2
 10
0.900000
 20
-2.156886
 11
4.628806
 21
-2.156886
  0
LINE
  8
0
  6
CONTINUOUS
 62
2
 10
6.900000
 20
-2.156886
 11
9.525000
 21
-2.156886
  0
LINE
  8
0
  6
CONTINUOUS
 62
2
 10
10.806478
 20
-2.156886
 11
19.193522
 21
-2.156886
  0
LINE
  8
0
  6
CONTINUOUS
 62
2
 10
-19.875000
 20
-1.856886
 11
-15.693538
 21
-1.856886
  0
LINE
  8
0
  6
CONTINUOUS
 62
2
 10
-14.306462
 20
-1.856886
 11
-10.125000
 21
-1.856886
  0
LINE
  8
0
  6
CONTINUOUS
 62
2
 10
-8.642176
 20
-1.856886
 11
-0.691565
 21
-1.856886
  0
LINE
  8
0
  6
CONTINUOUS
 62
2
 10
0.900000
 20
-1.856886
 11
4.421113
 21
-1.856886
  0
LINE
  8
0
  6
CONTINUOUS
 62
2
 10
6.900000
 20
-1.856886
 11
9.525000
 21
-1.856886
  0
LINE
  8
0
  6
CONTINUOUS
 62
2
 10
11.040841
 20
-1.856886
 11
18.959159
 21
-1.856886
  0
LINE
  8
0
  6
CONTINUOUS
 62
2
 10
-19.875000
 20
-1.556886
 11
-15.793538
 21
-1.556886
  0
LINE
  8
0
  6
CONTINUOUS
 62
2
 10
-14.206462
 20
-1.556886
 11
-10.125000
 21
-1.556886
  0
LINE
  8
0
  6
CONTINUOUS
 62
2
 10
-8.355487
 20
-1.556886
 11
-0.978254
 21
-1.556886
  0
LINE
  8
0
  6
CONTINUOUS
 62
2
 10
0.900000
 20
-1.556886
 11
4.213421
 21
-1.556886
  0
LINE
  8
0
  6
CONTINUOUS
 62
2
 10
6.900000
 20
-1.556886
 11
9.525000
 21
-1.556886
  0
LINE
  8
0
  6
CONTINUOUS
 62
2
 10
11.331559
 20
-1.556886
 11
18.668441
 21
-1.556886
  0
LINE
  8
0
  6
CONTINUOUS
 62
2
 10
-19.875000
 20
-1.256886
 11
-15.893538
 21
-1.256886
  0
LINE
  8
0
  6
CONTINUOUS
 62
2
 10
-14.106462
 20
-1.256886
 11
-10.125000
 21
-1.256886
  0
LINE
  8
0
  6
CONTINUOUS
 62
2
 10
-7.991874
 20
-1.256886
 11
-1.341867
 21
-1.256886
  0
LINE
  8
0
  6
CONTINUOUS
 62
2
 10
0.900000
 20
-1.256886
 11
4.005729
 21
-1.256886
  0
LINE
  8
0
  6
CONTINUOUS
 62
2
 10
6.900000
 20
-1.256886
 11
9.525000
 21
-1.256886
  0
LINE
  8
0
  6
CONTINUOUS
 62
2
 10
11.701127
 20
-1.256886
 11
18.298873
 21
-1.256886
  0
LINE
  8
0
  6
CONTINUOUS
 62
2
 10
-19.875000
 20
-0.956886
 11
-15.993538
 21
-0.956886
  0
LINE
  8
0
  6
CONTINUOUS
 62
2
 10
-14.006462
 20
-0.956886
 11
-10.125000
 21
-0.956886
  0
LINE
  8
0
  6
CONTINUOUS
 62
2
 10
-7.502982
 20
-0.956886
 11
-1.830759
 21
-0.956886
  0
LINE
  8
0
  6
CONTINUOUS
 62
2
 10
0.900000
 20
-0.956886
 11
3.798036
 21
-0.956886
  0
LINE
  8
0
  6
CONTINUOUS
 62
2
 10
6.900000
 20
-0.956886
 11
9.525000
 21
-0.956886
  0
LINE
  8
0
  6
CONTINUOUS
 62
2
 10
12.200977
 20
-0.956886
 11
17.799023
 21
-0.956886
  0
LINE
  8
0
  6
CONTINUOUS
 62
2
 10
-19.875000
 20
-0.656886
 11
-16.093538
 21
-0.656886
  0
LINE
  8
0
  6
CONTINUOUS
 62
2
 10
-13.906462
 20
-0.656886
 11
-10.125000
 21
-0.656886
  0
LINE
  8
0
  6
CONTINUOUS
 62
2
 10
-6.706086
 20
-0.656886
 11
-2.627655
 21
-0.656886
  0
LINE
  8
0
  6
CONTINUOUS
 62
2
 10
0.900000
 20
-0.656886
 11
3.590344
 21
-0.656886
  0
LINE
  8
0
  6
CONTINUOUS
 62
2
 10
6.900000
 20
-0.656886
 11
9.525000
 21
-0.656886
  0
LINE
  8
0
  6
CONTINUOUS
 62
2
 10
13.038947
 20
-0.656886
 11
16.961053
 21
-0.656886
  0
LINE
  8
0
  6
CONTINUOUS
 62
2
 10
-19.875000
 20
1.743114
 11
19.875000
 21
1.743114
  0
LINE
  8
0
  6
CONTINUOUS
 62
2
 10
-19.875000
 20
2.043114
 11
19.875000
 21
2.043114
  0
LINE
  8
0
  6
CONTINUOUS
 62
2
 10
-19.875000
 20
2.343114
 11
19.875000
 21
2.343114
  0
LINE
  8
0
  6
CONTINUOUS
 62
2
 10
-19.875000
 20
2.643114
 11
19.875000
 21
2.643114
  0
LINE
  8
0
  6
CONTINUOUS
 62
2
 10
-19.875000
 20
2.943114
 11
19.875000
 21
2.943114
  0
LINE
  8
0
  6
CONTINUOUS
 62
2
 10
-19.875000
 20
3.243114
 11
19.875000
 21
3.243114
  0
LINE
  8
0
  6
CONTINUOUS
 62
2
 10
-19.875000
 20
3.543114
 11
19.875000
 21
3.543114
  0
LINE
  8
0
  6
CONTINUOUS
 62
2
 10
-19.875000
 20
5.943114
 11
19.875000
 21
5.943114
  0
LINE
  8
0
  6
CONTINUOUS
 62
2
 10
-19.875000
 20
6.243114
 11
19.875000
 21
6.243114
  0
LINE
  8
0
  6
CONTINUOUS
 62
2
 10
-19.875000
 20
6.543114
 11
19.875000
 21
6.543114
  0
LINE
  8
0
  6
CONTINUOUS
 62
2
 10
-19.875000
 20
6.843114
 11
19.875000
 21
6.843114
  0
LINE
  8
0
  6
CONTINUOUS
 62
2
 10
-19.875000
 20
7.143114
 11
19.875000
 21
7.143114
  0
LINE
  8
0
  6
CONTINUOUS
 62
2
 10
-19.875000
 20
9.843114
 11
19.875000
 21
9.843114
  0
LINE
  8
0
  6
CONTINUOUS
 62
2
 10
-19.875000
 20
10.143114
 11
19.875000
 21
10.143114
  0
LINE
  8
0
  6
CONTINUOUS
 62
2
 10
-19.875000
 20
10.443114
 11
19.875000
 21
10.443114
  0
LINE
  8
0
  6
CONTINUOUS
 62
2
 10
-19.875000
 20
13.143114
 11
19.875000
 21
13.143114
  0
LINE
  8
0
  6
CONTINUOUS
 62
2
 10
-19.875000
 20
13.443114
 11
19.875000
 21
13.443114
  0
LINE
  8
0
  6
CONTINUOUS
 62
2
 10
-19.875000
 20
16.143114
 11
19.875000
 21
16.143114
  0
ENDBLK
  0
BLOCK
  2
*D1
  8
0
 70
1
 10
0.0
 20
0.0
  0
LINE
  8
0
  6
CONTINUOUS
 62
1
 10
4028.764409
 20
3983.356747
 11
4028.764409
 21
4173.586502
  0
LINE
  8
0
  6
CONTINUOUS
 62
1
 10
4028.764409
 20
4143.586502
 11
4871.764409
 21
4143.586502
  0
LINE
  8
0
  6
CONTINUOUS
 62
1
 10
4028.764409
 20
4143.586502
 11
4063.764409
 21
4138.586502
  0
LINE
  8
0
  6
CONTINUOUS
 62
1
 10
4063.764409
 20
4138.586502
 11
4063.764409
 21
4146.086502
  0
LINE
  8
0
  6
CONTINUOUS
 62
1
 10
4063.764409
 20
4146.086502
 11
4043.764409
 21
4143.586502
  0
LINE
  8
0
  6
CONTINUOUS
 62
1
 10
4043.764409
 20
4143.586502
 11
4063.764409
 21
4141.086502
  0
LINE
  8
0
  6
CONTINUOUS
 62
1
 10
4063.764409
 20
4141.086502
 11
4063.764409
 21
4148.586502
  0
LINE
  8
0
  6
CONTINUOUS
 62
1
 10
4063.764409
 20
4148.586502
 11
4028.764409
 21
4143.586502
  0
LINE
  8
0
  6
CONTINUOUS
 62
1
 10
4871.764409
 20
4143.586502
 11
4836.764409
 21
4148.586502
  0
LINE
  8
0
  6
CONTINUOUS
 62
1
 10
4836.764409
 20
4148.586502
 11
4836.764409
 21
4141.086502
  0
LINE
  8
0
  6
CONTINUOUS
 62
1
 10
4836.764409
 20
4141.086502
 11
4856.764409
 21
4143.586502
  0
LINE
  8
0
  6
CONTINUOUS
 62
1
 10
4856.764409
 20
4143.586502
 11
4836.764409
 21
4146.086502
  0
LINE
  8
0
  6
CONTINUOUS
 62
1
 10
4836.764409
 20
4146.086502
 11
4836.764409
 21
4138.586502
  0
LINE
  8
0
  6
CONTINUOUS
 62
1
 10
4836.764409
 20
4138.586502
 11
4871.764409
 21
4143.586502
  0
LINE
  8
0
  6
CONTINUOUS
 62
1
 10
4871.764409
 20
4173.586502
 11
4871.764409
 21
3983.356747
  0
TEXT
  8
0
  6
CONTINUOUS
 62
1
 10
4385.514409
 20
4161.086502
 40
35.000000
  1
843.0
 50
0.000000
 41
1.000000
 51
0.000000
  7
STANDARD
  0
ENDBLK
  0
BLOCK
  2
*D2
  8
0
 70
1
 10
0.0
 20
0.0
  0
LINE
  8
0
  6
CONTINUOUS
 62
1
 10
3998.764409
 20
3953.356747
 11
3743.093540
 21
3953.356747
  0
LINE
  8
0
  6
CONTINUOUS
 62
1
 10
3773.093540
 20
3953.356747
 11
3773.093540
 21
2643.356747
  0
LINE
  8
0
  6
CONTINUOUS
 62
1
 10
3773.093540
 20
3953.356747
 11
3768.093540
 21
3918.356747
  0
LINE
  8
0
  6
CONTINUOUS
 62
1
 10
3768.093540
 20
3918.356747
 11
3775.593540
 21
3918.356747
  0
LINE
  8
0
  6
CONTINUOUS
 62
1
 10
3775.593540
 20
3918.356747
 11
3773.093540
 21
3938.356747
  0
LINE
  8
0
  6
CONTINUOUS
 62
1
 10
3773.093540
 20
3938.356747
 11
3770.593540
 21
3918.356747
  0
LINE
  8
0
  6
CONTINUOUS
 62
1
 10
3770.593540
 20
3918.356747
 11
3778.093540
 21
3918.356747
  0
LINE
  8
0
  6
CONTINUOUS
 62
1
 10
3778.093540
 20
3918.356747
 11
3773.093540
 21
3953.356747
  0
LINE
  8
0
  6
CONTINUOUS
 62
1
 10
3773.093540
 20
2643.356747
 11
3778.093540
 21
2678.356747
  0
LINE
  8
0
  6
CONTINUOUS
 62
1
 10
3778.093540
 20
2678.356747
 11
3770.593540
 21
2678.356747
  0
LINE
  8
0
  6
CONTINUOUS
 62
1
 10
3770.593540
 20
2678.356747
 11
3773.093540
 21
2658.356747
  0
LINE
  8
0
  6
CONTINUOUS
 62
1
 10
3773.093540
 20
2658.356747
 11
3775.593540
 21
2678.356747
  0
LINE
  8
0
  6
CONTINUOUS
 62
1
 10
3775.593540
 20
2678.356747
 11
3768.093540
 21
2678.356747
  0
LINE
  8
0
  6
CONTINUOUS
 62
1
 10
3768.093540
 20
2678.356747
 11
3773.093540
 21
2643.356747
  0
LINE
  8
0
  6
CONTINUOUS
 62
1
 10
3743.093540
 20
2643.356747
 11
4003.764409
 21
2643.356747
  0
TEXT
  8
0
  6
CONTINUOUS
 62
1
 10
3755.593540
 20
3219.606747
 40
35.000000
  1
1310.0
 50
90.000000
 41
1.000000
 51
0.000000
  7
STANDARD
  0
ENDBLK
  0
ENDSEC
  0
SECTION
  2
ENTITIES
  0
LINE
  8
0
  6
CONTINUOUS
 62
3
 10
4871.764409
 20
3878.356747
 11
4028.764409
 21
3878.356747
  0
LINE
  8
0
  6
CONTINUOUS
 62
3
 10
4028.764409
 20
3953.356747
 11
4028.764409
 21
2718.356747
  0
LINE
  8
0
  6
CONTINUOUS
 62
3
 10
4871.764409
 20
3953.356747
 11
4871.764409
 21
2718.356747
  0
CIRCLE
  8
0
  6
CONTINUOUS
 62
3
 10
4771.764409
 20
3628.356747
 40
25.000000
  0
CIRCLE
  8
0
  6
CONTINUOUS
 62
3
 10
4771.764409
 20
3628.356747
 40
35.000000
  0
LINE
  8
0
  6
CONTINUOUS
 62
3
 10
4033.764409
 20
2643.356747
 11
4033.764409
 21
2718.356747
  0
LINE
  8
0
  6
CONTINUOUS
 62
3
 10
4866.764409
 20
2643.356747
 11
4866.764409
 21
2718.356747
  0
LINE
  8
0
  6
CONTINUOUS
 62
3
 10
4871.764409
 20
2718.356747
 11
4028.764409
 21
2718.356747
  0
LINE
  8
0
  6
CONTINUOUS
 62
3
 10
4673.764409
 20
2718.356747
 11
4673.764409
 21
2643.356747
  0
LINE
  8
0
  6
CONTINUOUS
 62
3
 10
4663.764409
 20
2643.356747
 11
4663.764409
 21
2697.356747
  0
LINE
  8
0
  6
CONTINUOUS
 62
3
 10
4033.764409
 20
2643.356747
 11
4663.764409
 21
2643.356747
  0
LINE
  8
0
  6
CONTINUOUS
 62
3
 10
4130.948577
 20
2706.356747
 11
4626.924585
 21
2706.356747
  0
LINE
  8
0
  6
CONTINUOUS
 62
3
 10
4616.893109
 20
2706.356747
 11
4616.893109
 21
2718.356747
  0
LINE
  8
0
  6
CONTINUOUS
 62
3
 10
4626.924585
 20
2700.356747
 11
4126.396367
 21
2700.356747
  0
LINE
  8
0
  6
CONTINUOUS
 62
3
 10
4124.120261
 20
2697.356747
 11
4663.764409
 21
2697.356747
  0
LINE
  8
0
  6
CONTINUOUS
 62
3
 10
4626.924585
 20
2706.356747
 11
4626.924585
 21
2700.356747
  0
LINE
  8
0
  6
CONTINUOUS
 62
3
 10
4083.150363
 20
2643.356747
 11
4140.052999
 21
2718.356747
  0
LINE
  8
0
  6
CONTINUOUS
 62
3
 10
4609.754245
 20
2700.356747
 11
4609.754245
 21
2697.356747
  0
LINE
  8
0
  6
CONTINUOUS
 62
3
 10
4839.788362
 20
2651.356747
 11
4700.918155
 21
2651.356747
  0
LINE
  8
0
  6
CONTINUOUS
 62
3
 10
4693.764409
 20
2643.356747
 11
4700.918155
 21
2651.356747
  0
LINE
  8
0
  6
CONTINUOUS
 62
3
 10
4846.764409
 20
2643.356747
 11
4839.788362
 21
2651.356747
  0
LINE
  8
0
  6
CONTINUOUS
 62
3
 10
4673.764409
 20
2643.356747
 11
4693.764409
 21
2643.356747
  0
LINE
  8
0
  6
CONTINUOUS
 62
3
 10
4846.764409
 20
2643.356747
 11
4866.764409
 21
2643.356747
  0
LINE
  8
0
  6
CONTINUOUS
 62
3
 10
4587.568191
 20
2618.356747
 11
4587.568191
 21
2643.356747
  0
LINE
  8
0
  6
CONTINUOUS
 62
3
 10
4627.568191
 20
2618.356747
 11
4627.568191
 21
2643.356747
  0
LINE
  8
0
  6
CONTINUOUS
 62
3
 10
4612.568191
 20
2603.356747
 11
4602.568191
 21
2603.356747
  0
ARC
  8
0
  6
CONTINUOUS
 62
3
 10
4602.568191
 20
2618.356747
 40
15.000000
 50
180.000000
 51
270.000000
  0
ARC
  8
0
  6
CONTINUOUS
 62
3
 10
4612.568191
 20
2618.356747
 40
15.000000
 50
270.000000
 51
0.000000
  0
LINE
  8
0
  6
CONTINUOUS
 62
3
 10
4736.204397
 20
3931.217045
 11
4736.204397
 21
3878.356747
  0
LINE
  8
0
  6
CONTINUOUS
 62
3
 10
4762.204397
 20
3931.217045
 11
4762.204397
 21
3878.356747
  0
LINE
  8
0
  6
CONTINUOUS
 62
3
 10
4028.764409
 20
3953.356747
 11
4770.394187
 21
3953.356747
  0
LINE
  8
0
  6
CONTINUOUS
 62
3
 10
4770.394187
 20
3953.356747
 11
4871.764409
 21
3953.356747
  0
ARC
  8
0
  6
CONTINUOUS
 62
1
 10
4796.224748
 20
3931.217045
 40
34.020351
 50
139.399701
 51
180.000000
  0
ARC
  8
0
  6
CONTINUOUS
 62
1
 10
4796.224748
 20
3931.217045
 40
60.020351
 50
158.354061
 51
180.000000
  0
LINE
  8
0
  6
CONTINUOUS
 62
3
 10
4170.097872
 20
3878.356747
 11
4170.097872
 21
3896.801149
  0
LINE
  8
0
  6
CONTINUOUS
 62
3
 10
4150.097872
 20
3896.801149
 11
4150.097872
 21
3878.356747
  0
LINE
  8
0
  6
CONTINUOUS
 62
3
 10
4170.097872
 20
3896.801149
 11
4150.097872
 21
3896.801149
  0
LINE
  8
0
  6
CONTINUOUS
 62
3
 10
4167.592943
 20
3896.529280
 11
4169.654253
 21
3953.356747
  0
LINE
  8
0
  6
CONTINUOUS
 62
3
 10
4152.602802
 20
3897.073019
 11
4154.644388
 21
3953.356747
  0
ARC
  8
0
  6
CENTER
 62
4
 10
4066.693428
 20
2675.929003
 40
597.070981
 50
270.000000
 51
0.000000
  0
LINE
  8
0
  6
CENTER
 62
4
 10
4066.693428
 20
2078.858022
 11
4066.693428
 21
2675.929003
  0
TEXT
  8
0
  6
CONTINUOUS
 62
4
 10
4220.980094
 20
2396.662724
 40
100.000000
  1
LH
 50
0.000000
 41
0.800000
 51
0.000000
  7
STANDARD
  0
LINE
  8
0
  6
CONTINUOUS
 62
4
 10
4249.612145
 20
3023.658738
 11
4690.662289
 21
3022.682908
  0
LINE
  8
0
  6
CONTINUOUS
 62
4
 10
4690.662289
 20
3022.682908
 11
4691.591651
 21
3442.730663
  0
LINE
  8
0
  6
CONTINUOUS
 62
4
 10
4691.591651
 20
3442.730663
 11
4250.541507
 21
3443.706494
  0
LINE
  8
0
  6
CONTINUOUS
 62
4
 10
4250.541507
 20
3443.706494
 11
4249.612145
 21
3023.658738
  0
TEXT
  8
0
  6
CONTINUOUS
 62
4
 10
4341.319514
 20
3338.493193
 40
70.000000
  1
FG180
 50
359.873300
 41
1.000000
 51
-0.000000
  7
STANDARD
  0
TEXT
  8
0
  6
CONTINUOUS
 62
4
 10
4284.970837
 20
3198.601592
 40
70.000000
  1
10 TRAY
 50
359.873300
 41
1.000000
 51
-0.000000
  7
STANDARD
  0
TEXT
  8
0
  6
CONTINUOUS
 62
4
 10
4284.615519
 20
3058.586237
 40
70.000000
  1
18"X26"
 50
359.873300
 41
1.000000
 51
-0.000000
  7
STANDARD
  0
DIMENSION
  8
0
 62
1
  2
*D1
 70
0
  1
<>
 10
4450.264409
 20
4143.586502
 11
4450.264409
 21
4143.586502
 13
4028.764409
 23
3953.356747
 14
4871.764409
 24
3953.356747
 50
0.000000
  0
DIMENSION
  8
0
 62
1
  2
*D2
 70
0
  1
<>
 10
3773.093540
 20
3298.356747
 11
3773.093540
 21
3298.356747
 13
4028.764409
 23
3953.356747
 14
4033.764409
 24
2643.356747
 50
-90.000000
  0
INSERT
  2
A1-SHEET
  8
BORDER
 10
100.000000
 20
100.000000
 41
10.000000
 42
10.000000
 50
0.000000
  0
ENDSEC
  0
EOF
