  0
SECTION
  2
HEADER
  9
$LIMMIN
 10
0.000000
 20
0.000000
  9
$LIMMAX
 10
8408.964153
 20
5946.035575
  9
$EXTMIN
 10
0.000000
 20
0.000000
  9
$EXTMAX
 10
8408.964153
 20
5946.035575
  9
$ANGBASE
 50
0.0
  9
$ANGDIR
 70
0
  9
$DIMRND
 40
0.100000
  9
$DIMSE1
 70
0
  9
$DIMSE2
 70
0
  9
$DIMTXT
 40
3.500000
  9
$LTSCALE
 40
1.000000
  9
$LUPREC
 70
0
  9
$AUPREC
 70
0
  9
$PDMODE
 70
2
  9
$PDSIZE
 40
42.044821
  0
ENDSEC
  0
SECTION
  2
TABLES
  0
TABLE
  2
VPORT
  70
1
  0
VPORT
  2
*ACTIVE
 70
0
  10
0.0
 20
0.0
 11
1.0
 21
1.0
 12
594.0
 22
420.0
 13
0.0
 23
0.0
 14
10.0
 24
10.0
 15
10.0
 25
10.0
 16
0.0
 26
0.0
 36
1.0
 17
594.0
 27
420.0
 37
100.0
 40
1000.0
 41
1.0
 42
50.0
 43
0.0
 44
0.0
 50
0.0
 51
0.0
 71
0
 72
2000
 73
1
 74
3
 75
0
 76
0
 77
0
 78
1
  0
ENDTAB
  0
TABLE
  2
LTYPE
 70
4
  0
LTYPE
  2
CONTINUOUS
 70
0
  3
Solid line
 72
65
 73
0
 40
0.0
  0
LTYPE
  2
DASHED
 70
0
  3
Dashed line
 72
65
 73
2
 40
60.000000
 49
30.000000
 49
-30.000000
  0
LTYPE
  2
CENTER
 70
0
  3
Chain line
 72
65
 73
4
 40
240.000000
 49
150.000000
 49
-30.000000
 49
30.000000
 49
-30.000000
  0
LTYPE
  2
RANDOM
 70
0
  3
Random line
 72
65
 73
4
 40
225.000000
 49
60.000000
 49
-30.000000
 49
45.000000
 49
-90.000000
  0
ENDTAB
  0
TABLE
  2
STYLE
 70
9
  0
STYLE
  2
STANDARD
 40
0
 41
1.0
 50
0.0
 71
0
 42
0
  3
simplex
  4

 70
0
  0
ENDTAB
  0
TABLE
  2
LAYER
 70
3
  0
LAYER
  2
0
 70
0
 62
7
  6
CONTINUOUS
  0
LAYER
  2
0
 62
1
  6
CONTINUOUS
 70
0
  0
LAYER
  2
BORDER
 62
1
  6
CONTINUOUS
 70
0
  0
ENDTAB
  0
ENDSEC
  0
SECTION
  2
BLOCKS
  0
BLOCK
  2
A1-SHEET
  8
0
 70
0
 10
0.0
 20
0.0
 30
0.0
  0
LINE
  8
0
  6
CONTINUOUS
 62
1
 10
0.000000
 20
0.293588
 11
0.000000
 21
570.293588
  0
LINE
  8
0
  6
CONTINUOUS
 62
1
 10
810.896415
 20
0.293588
 11
0.000000
 21
0.293588
  0
LINE
  8
0
  6
CONTINUOUS
 62
1
 10
0.000000
 20
570.293588
 11
810.896415
 21
570.293588
  0
LINE
  8
0
  6
CONTINUOUS
 62
1
 10
810.896415
 20
0.293588
 11
810.896415
 21
570.293588
  0
LINE
  8
0
  6
CONTINUOUS
 62
1
 10
405.448208
 20
570.293588
 11
405.448208
 21
573.293588
  0
LINE
  8
0
  6
CONTINUOUS
 62
1
 10
608.172311
 20
570.293588
 11
608.172311
 21
573.293588
  0
LINE
  8
0
  6
CONTINUOUS
 62
1
 10
202.724104
 20
570.293588
 11
202.724104
 21
573.293588
  0
LINE
  8
0
  6
CONTINUOUS
 62
1
 10
101.362052
 20
570.293588
 11
101.362052
 21
573.293588
  0
LINE
  8
0
  6
CONTINUOUS
 62
1
 10
304.086156
 20
570.293588
 11
304.086156
 21
569.894507
  0
LINE
  8
0
  6
CONTINUOUS
 62
1
 10
304.086156
 20
569.894507
 11
304.086156
 21
573.293588
  0
LINE
  8
0
  6
CONTINUOUS
 62
1
 10
506.810260
 20
570.293588
 11
506.810260
 21
573.293588
  0
LINE
  8
0
  6
CONTINUOUS
 62
1
 10
709.534363
 20
570.293588
 11
709.534363
 21
573.293588
  0
TEXT
  8
0
  6
CONTINUOUS
 62
2
 10
99.855229
 20
574.935709
 40
3.000000
  1
1
 50
0.000000
 41
1.000000
 51
0.000000
  7
STANDARD
  0
TEXT
  8
0
  6
CONTINUOUS
 62
2
 10
201.603454
 20
574.761780
 40
3.000000
  1
2
 50
0.000000
 41
1.000000
 51
0.000000
  7
STANDARD
  0
TEXT
  8
0
  6
CONTINUOUS
 62
2
 10
303.425760
 20
574.928387
 40
3.000000
  1
3
 50
0.000000
 41
1.000000
 51
0.000000
  7
STANDARD
  0
TEXT
  8
0
  6
CONTINUOUS
 62
2
 10
403.692370
 20
574.751238
 40
3.000000
  1
4
 50
0.000000
 41
1.000000
 51
0.000000
  7
STANDARD
  0
TEXT
  8
0
  6
CONTINUOUS
 62
2
 10
505.761611
 20
574.628257
 40
3.000000
  1
5
 50
0.000000
 41
1.000000
 51
0.000000
  7
STANDARD
  0
TEXT
  8
0
  6
CONTINUOUS
 62
2
 10
607.243575
 20
575.166148
 40
3.000000
  1
6
 50
0.000000
 41
1.000000
 51
0.000000
  7
STANDARD
  0
TEXT
  8
0
  6
CONTINUOUS
 62
2
 10
708.456940
 20
573.963183
 40
3.000000
  1
7
 50
0.000000
 41
1.000000
 51
0.000000
  7
STANDARD
  0
LINE
  8
0
  6
CONTINUOUS
 62
3
 10
405.448208
 20
570.293588
 11
405.448208
 21
565.293588
  0
LINE
  8
0
  6
CONTINUOUS
 62
1
 10
810.896415
 20
285.293588
 11
813.896415
 21
285.293588
  0
LINE
  8
0
  6
CONTINUOUS
 62
1
 10
810.896415
 20
427.793588
 11
813.896415
 21
427.793588
  0
LINE
  8
0
  6
CONTINUOUS
 62
1
 10
810.896415
 20
142.793588
 11
813.896415
 21
142.793588
  0
LINE
  8
0
  6
CONTINUOUS
 62
1
 10
810.896415
 20
499.043588
 11
813.896415
 21
499.043588
  0
LINE
  8
0
  6
CONTINUOUS
 62
1
 10
810.896415
 20
356.543588
 11
813.896415
 21
356.543588
  0
LINE
  8
0
  6
CONTINUOUS
 62
1
 10
810.896415
 20
214.043588
 11
813.896415
 21
214.043588
  0
LINE
  8
0
  6
CONTINUOUS
 62
1
 10
810.896415
 20
71.543588
 11
813.896415
 21
71.543588
  0
TEXT
  8
0
  6
CONTINUOUS
 62
2
 10
814.731259
 20
497.682453
 40
3.000000
  1
A
 50
0.000000
 41
1.000000
 51
0.000000
  7
STANDARD
  0
TEXT
  8
0
  6
CONTINUOUS
 62
2
 10
814.617524
 20
426.633648
 40
3.000000
  1
B
 50
0.000000
 41
1.000000
 51
0.000000
  7
STANDARD
  0
TEXT
  8
0
  6
CONTINUOUS
 62
2
 10
815.378220
 20
355.128239
 40
3.000000
  1
C
 50
0.000000
 41
1.000000
 51
0.000000
  7
STANDARD
  0
TEXT
  8
0
  6
CONTINUOUS
 62
2
 10
815.265962
 20
284.354684
 40
3.000000
  1
D
 50
0.000000
 41
1.000000
 51
0.000000
  7
STANDARD
  0
TEXT
  8
0
  6
CONTINUOUS
 62
2
 10
815.477184
 20
212.961533
 40
3.000000
  1
E
 50
0.000000
 41
1.000000
 51
0.000000
  7
STANDARD
  0
TEXT
  8
0
  6
CONTINUOUS
 62
2
 10
814.828747
 20
141.734274
 40
3.000000
  1
F
 50
0.000000
 41
1.000000
 51
0.000000
  7
STANDARD
  0
TEXT
  8
0
  6
CONTINUOUS
 62
2
 10
815.320614
 20
69.921633
 40
3.000000
  1
G
 50
0.000000
 41
1.000000
 51
0.000000
  7
STANDARD
  0
LINE
  8
0
  6
CONTINUOUS
 62
3
 10
810.896415
 20
285.293588
 11
807.896415
 21
285.293588
  0
LINE
  8
0
  6
CONTINUOUS
 62
1
 10
578.313470
 20
19.293588
 11
578.313470
 21
0.000000
  0
LINE
  8
0
  6
CONTINUOUS
 62
1
 10
284.611031
 20
19.293588
 11
284.611031
 21
0.293588
  0
LINE
  8
0
  6
CONTINUOUS
 62
1
 10
810.896415
 20
563.293588
 11
653.667813
 21
563.293588
  0
LINE
  8
0
  6
CONTINUOUS
 62
1
 10
107.451868
 20
563.293588
 11
0.000000
 21
563.293588
  0
LINE
  8
0
  6
CONTINUOUS
 62
1
 10
0.000000
 20
19.293588
 11
623.352368
 21
19.293588
  0
TEXT
  8
0
  6
CONTINUOUS
 62
2
 10
46.453288
 20
10.796613
 40
3.105000
  1
1998 - THIS DESIGN/DRAWING IS THE PROPERTY OF MONO EQUIPMENT AND MUST NOT BE
 50
0.000000
 41
1.000000
 51
0.000000
  7
STANDARD
  0
TEXT
  8
0
  6
CONTINUOUS
 62
2
 10
41.107749
 20
4.310541
 40
3.105000
  1
REPRODUCED, COPIED, OR ITS CONTENTS DIVULGED WITHOUT PRIOR WRITTEN PERMISSION.
 50
0.000000
 41
1.000000
 51
0.000000
  7
STANDARD
  0
CIRCLE
  8
0
  6
CONTINUOUS
 62
3
 10
42.276047
 20
14.388236
 40
2.173500
  0
TEXT
  8
0
  6
CONTINUOUS
 62
2
 10
16.991737
 20
10.697820
 40
3.105000
  1
COPYRIGHT
 50
0.000000
 41
1.000000
 51
0.000000
  7
STANDARD
  0
TEXT
  8
0
  6
CONTINUOUS
 62
2
 10
41.713660
 20
13.712616
 40
1.630125
  1
C
 50
0.000000
 41
1.000000
 51
0.000000
  7
STANDARD
  0
TEXT
  8
0
  6
CONTINUOUS
 62
3
 10
286.872128
 20
14.527338
 40
3.003000
  1
REMOVE ALL BURRS & SHARP EDGES - ON SHEET METAL PARTS
 50
0.000000
 41
1.000000
 51
0.000000
  7
STANDARD
  0
LINE
  8
0
  6
CONTINUOUS
 62
1
 10
578.313470
 20
13.293588
 11
284.611031
 21
13.293588
  0
LINE
  8
0
  6
CONTINUOUS
 62
1
 10
284.611031
 20
6.293588
 11
578.313470
 21
6.293588
  0
TEXT
  8
0
  6
CONTINUOUS
 62
3
 10
292.717676
 20
1.450699
 40
3.003000
  1
OPEN TOL,150 & BELOW -.5,OVER 150 -1.0
 50
0.000000
 41
1.000000
 51
0.000000
  7
STANDARD
  0
TEXT
  8
0
  6
CONTINUOUS
 62
3
 10
343.153184
 20
2.995429
 40
3.003000
  1
+
 50
0.000000
 41
1.000000
 51
0.000000
  7
STANDARD
  0
TEXT
  8
0
  6
CONTINUOUS
 62
3
 10
374.360063
 20
3.082114
 40
3.003000
  1
+
 50
0.000000
 41
1.000000
 51
0.000000
  7
STANDARD
  0
TEXT
  8
0
  6
CONTINUOUS
 62
3
 10
396.025848
 20
1.552562
 40
3.003000
  1
DECIMAL DIMs,75 & BELOW -.25, 75 TO 300-.4, 300 TO 600-.5, OVER 600-1.0
 50
0.000000
 41
1.000000
 51
0.000000
  7
STANDARD
  0
TEXT
  8
0
  6
CONTINUOUS
 62
3
 10
453.503115
 20
3.046556
 40
3.003000
  1
+
 50
0.000000
 41
1.000000
 51
0.000000
  7
STANDARD
  0
TEXT
  8
0
  6
CONTINUOUS
 62
3
 10
489.694740
 20
3.046556
 40
3.003000
  1
+
 50
0.000000
 41
1.000000
 51
0.000000
  7
STANDARD
  0
TEXT
  8
0
  6
CONTINUOUS
 62
3
 10
525.686413
 20
3.046556
 40
3.003000
  1
+
 50
0.000000
 41
1.000000
 51
0.000000
  7
STANDARD
  0
TEXT
  8
0
  6
CONTINUOUS
 62
3
 10
557.079149
 20
3.046556
 40
3.003000
  1
+
 50
0.000000
 41
1.000000
 51
0.000000
  7
STANDARD
  0
TEXT
  8
0
  6
CONTINUOUS
 62
3
 10
298.372755
 20
8.027002
 40
3.003000
  1
SURFACE MACHINING,         COARSE FINISH,          MEDIUM FINISH
 50
0.000000
 41
1.000000
 51
0.000000
  7
STANDARD
  0
LINE
  8
0
  6
CONTINUOUS
 62
3
 10
358.454200
 20
7.938625
 11
357.376430
 21
9.477839
  0
LINE
  8
0
  6
CONTINUOUS
 62
3
 10
355.061002
 20
7.938625
 11
361.601409
 21
7.938625
  0
LINE
  8
0
  6
CONTINUOUS
 62
3
 10
355.461530
 20
7.938625
 11
356.552531
 21
6.847623
  0
LINE
  8
0
  6
CONTINUOUS
 62
3
 10
358.675973
 20
6.847623
 11
357.584972
 21
7.938625
  0
LINE
  8
0
  6
CONTINUOUS
 62
3
 10
359.708413
 20
7.938625
 11
360.799415
 21
6.847623
  0
LINE
  8
0
  6
CONTINUOUS
 62
3
 10
357.376430
 20
9.477839
 11
359.531969
 21
9.477839
  0
TEXT
  8
0
  6
CONTINUOUS
 62
3
 10
355.059729
 20
10.350713
 40
1.911000
  1
3.2
 50
0.000000
 41
1.000000
 51
0.000000
  7
STANDARD
  0
LINE
  8
0
  6
CONTINUOUS
 62
3
 10
361.472631
 20
12.249391
 11
358.454200
 21
7.938625
  0
LINE
  8
0
  6
CONTINUOUS
 62
3
 10
415.064989
 20
7.939383
 11
413.987220
 21
9.478597
  0
LINE
  8
0
  6
CONTINUOUS
 62
3
 10
411.671791
 20
7.939383
 11
418.212199
 21
7.939383
  0
LINE
  8
0
  6
CONTINUOUS
 62
3
 10
412.072320
 20
7.939383
 11
413.163321
 21
6.848381
  0
LINE
  8
0
  6
CONTINUOUS
 62
3
 10
415.286763
 20
6.848381
 11
414.195761
 21
7.939383
  0
LINE
  8
0
  6
CONTINUOUS
 62
3
 10
416.319203
 20
7.939383
 11
417.410204
 21
6.848381
  0
LINE
  8
0
  6
CONTINUOUS
 62
3
 10
413.987220
 20
9.478597
 11
416.142758
 21
9.478597
  0
TEXT
  8
0
  6
CONTINUOUS
 62
3
 10
411.670519
 20
10.351471
 40
1.911000
  1
1.6
 50
0.000000
 41
1.000000
 51
0.000000
  7
STANDARD
  0
LINE
  8
0
  6
CONTINUOUS
 62
3
 10
418.083420
 20
12.250149
 11
415.064989
 21
7.939383
  0
TEXT
  8
0
  6
CONTINUOUS
 62
3
 10
471.656054
 20
7.835044
 40
3.003000
  1
FINE FINISH,          GROUND FINISH
 50
0.000000
 41
1.000000
 51
0.000000
  7
STANDARD
  0
LINE
  8
0
  6
CONTINUOUS
 62
3
 10
520.028258
 20
7.857540
 11
518.950489
 21
9.396754
  0
LINE
  8
0
  6
CONTINUOUS
 62
3
 10
516.635060
 20
7.857540
 11
523.175468
 21
7.857540
  0
LINE
  8
0
  6
CONTINUOUS
 62
3
 10
517.035588
 20
7.857540
 11
518.126590
 21
6.766538
  0
LINE
  8
0
  6
CONTINUOUS
 62
3
 10
520.250032
 20
6.766538
 11
519.159030
 21
7.857540
  0
LINE
  8
0
  6
CONTINUOUS
 62
3
 10
521.282472
 20
7.857540
 11
522.373473
 21
6.766538
  0
LINE
  8
0
  6
CONTINUOUS
 62
3
 10
518.950489
 20
9.396754
 11
521.106027
 21
9.396754
  0
TEXT
  8
0
  6
CONTINUOUS
 62
3
 10
516.633788
 20
10.269628
 40
1.911000
  1
0.4
 50
0.000000
 41
1.000000
 51
0.000000
  7
STANDARD
  0
LINE
  8
0
  6
CONTINUOUS
 62
3
 10
523.046689
 20
12.168306
 11
520.028258
 21
7.857540
  0
LINE
  8
0
  6
CONTINUOUS
 62
3
 10
466.978169
 20
7.991505
 11
465.900400
 21
9.530719
  0
LINE
  8
0
  6
CONTINUOUS
 62
3
 10
463.584971
 20
7.991505
 11
470.125378
 21
7.991505
  0
LINE
  8
0
  6
CONTINUOUS
 62
3
 10
463.985499
 20
7.991505
 11
465.076501
 21
6.900503
  0
LINE
  8
0
  6
CONTINUOUS
 62
3
 10
467.199942
 20
6.900503
 11
466.108941
 21
7.991505
  0
LINE
  8
0
  6
CONTINUOUS
 62
3
 10
468.232382
 20
7.991505
 11
469.323384
 21
6.900503
  0
LINE
  8
0
  6
CONTINUOUS
 62
3
 10
465.900400
 20
9.530719
 11
468.055938
 21
9.530719
  0
TEXT
  8
0
  6
CONTINUOUS
 62
3
 10
463.583698
 20
10.403593
 40
1.911000
  1
0.8
 50
0.000000
 41
1.000000
 51
0.000000
  7
STANDARD
  0
LINE
  8
0
  6
CONTINUOUS
 62
3
 10
469.996600
 20
12.302271
 11
466.978169
 21
7.991505
  0
TEXT
  8
0
  6
CONTINUOUS
 62
3
 10
417.615816
 20
14.532113
 40
3.003000
  1
EXTERNAL CORNERS TO BE SAFETY RADIUSED 2mm UNLESS STATED OTHERWISE
 50
0.000000
 41
1.000000
 51
0.000000
  7
STANDARD
  0
TEXT
  8
0
  6
CONTINUOUS
 62
3
 10
656.297578
 20
564.567124
 40
4.000000
  1
ALL DIMENSIONS IN mm UNLESS OTHERWISE STATED
 50
0.000000
 41
1.000000
 51
0.000000
  7
STANDARD
  0
LINE
  8
0
  6
CONTINUOUS
 62
1
 10
653.667813
 20
570.293588
 11
653.667813
 21
563.293588
  0
LINE
  8
0
  6
CONTINUOUS
 62
1
 10
107.451868
 20
570.293588
 11
107.451868
 21
563.293588
  0
TEXT
  8
0
  6
CONTINUOUS
 62
3
 10
3.972877
 20
564.871493
 40
4.000000
  1
DO NOT SCALE - IF IN DOUBT ASK !
 50
0.000000
 41
1.000000
 51
0.000000
  7
STANDARD
  0
LINE
  8
0
  6
CONTINUOUS
 62
1
 10
587.525727
 20
13.926050
 11
596.525727
 21
16.337592
  0
LINE
  8
0
  6
CONTINUOUS
 62
1
 10
587.525727
 20
10.249192
 11
596.525727
 21
7.837650
  0
LINE
  8
0
  6
CONTINUOUS
 62
1
 10
587.525727
 20
10.249192
 11
587.525727
 21
13.926050
  0
LINE
  8
0
  6
CONTINUOUS
 62
1
 10
596.525727
 20
16.337592
 11
596.525727
 21
7.837650
  0
CIRCLE
  8
0
  6
CONTINUOUS
 62
1
 10
607.775727
 20
12.087621
 40
4.500000
  0
CIRCLE
  8
0
  6
CONTINUOUS
 62
1
 10
607.775727
 20
12.087621
 40
1.838429
  0
LINE
  8
0
  6
CENTER
 62
3
 10
585.650727
 20
12.087621
 11
598.400727
 21
12.087621
  0
LINE
  8
0
  6
CENTER
 62
3
 10
602.150727
 20
12.087621
 11
613.400727
 21
12.087621
  0
LINE
  8
0
  6
CENTER
 62
3
 10
607.775727
 20
6.462621
 11
607.775727
 21
17.712621
  0
TEXT
  8
0
  6
CONTINUOUS
 62
3
 10
592.291645
 20
1.750190
 40
2.500000
  1
1st ANGLE
 50
0.000000
 41
1.000000
 51
0.000000
  7
STANDARD
  0
LINE
  8
0
  6
CONTINUOUS
 62
1
 10
623.352368
 20
0.293588
 11
623.352368
 21
62.274256
  0
LINE
  8
0
  6
CONTINUOUS
 62
1
 10
623.352368
 20
0.293588
 11
810.896415
 21
0.293588
  0
LINE
  8
0
  6
CONTINUOUS
 62
1
 10
727.208958
 20
33.293588
 11
727.208958
 21
0.293588
  0
TEXT
  8
0
  6
CONTINUOUS
 62
3
 10
727.766174
 20
10.487504
 40
2.500000
  1
DRAWING NO.
 50
0.000000
 41
1.000000
 51
0.000000
  7
STANDARD
  0
TEXT
  8
0
  6
CONTINUOUS
 62
3
 10
800.510911
 20
10.225253
 40
2.500000
  1
REV:
 50
0.000000
 41
1.000000
 51
0.000000
  7
STANDARD
  0
LINE
  8
0
  6
CONTINUOUS
 62
1
 10
798.482467
 20
14.293588
 11
798.482467
 21
0.293588
  0
LINE
  8
0
  6
CONTINUOUS
 62
1
 10
633.753828
 20
71.698567
 11
633.753828
 21
62.274256
  0
LINE
  8
0
  6
CONTINUOUS
 62
1
 10
791.352368
 20
62.274256
 11
727.208958
 21
62.274256
  0
LINE
  8
0
  6
CONTINUOUS
 62
1
 10
810.896415
 20
62.274256
 11
623.352368
 21
62.274256
  0
LINE
  8
0
  6
CONTINUOUS
 62
1
 10
633.753828
 20
77.604799
 11
633.753828
 21
62.274256
  0
LINE
  8
0
  6
CONTINUOUS
 62
1
 10
623.352368
 20
69.274256
 11
810.896415
 21
69.274256
  0
LINE
  8
0
  6
CONTINUOUS
 62
1
 10
793.896415
 20
69.274256
 11
793.896415
 21
62.274256
  0
LINE
  8
0
  6
CONTINUOUS
 62
1
 10
623.352368
 20
62.274256
 11
623.352368
 21
77.604799
  0
TEXT
  8
0
  6
CONTINUOUS
 62
3
 10
718.950436
 20
64.569995
 40
2.500000
  1
REVISION
 50
0.000000
 41
1.000000
 51
0.000000
  7
STANDARD
  0
TEXT
  8
0
  6
CONTINUOUS
 62
3
 10
795.462895
 20
64.646654
 40
2.500000
  1
ECN NO.
 50
0.000000
 41
1.000000
 51
0.000000
  7
STANDARD
  0
LINE
  8
0
  6
CONTINUOUS
 62
1
 10
764.317856
 20
14.293588
 11
764.317856
 21
33.293588
  0
LINE
  8
0
  6
CONTINUOUS
 62
1
 10
623.352368
 20
14.293588
 11
623.352368
 21
0.293588
  0
LINE
  8
0
  6
CONTINUOUS
 62
1
 10
623.352368
 20
16.727379
 11
623.352368
 21
2.727379
  0
LINE
  8
0
  6
CONTINUOUS
 62
1
 10
646.753828
 20
77.604799
 11
646.753828
 21
62.274256
  0
LINE
  8
0
  6
CONTINUOUS
 62
1
 10
670.486609
 20
77.604799
 11
670.486609
 21
62.274256
  0
TEXT
  8
0
  6
CONTINUOUS
 62
3
 10
636.962453
 20
64.332177
 40
2.500000
  1
SIG
 50
0.000000
 41
1.000000
 51
0.000000
  7
STANDARD
  0
TEXT
  8
0
  6
CONTINUOUS
 62
3
 10
624.865220
 20
64.110210
 40
2.500000
  1
REV
 50
0.000000
 41
1.000000
 51
0.000000
  7
STANDARD
  0
TEXT
  8
0
  6
CONTINUOUS
 62
3
 10
653.166086
 20
64.110210
 40
2.500000
  1
DATE
 50
0.000000
 41
1.000000
 51
0.000000
  7
STANDARD
  0
LINE
  8
0
  6
CONTINUOUS
 62
1
 10
810.896415
 20
14.293588
 11
727.208958
 21
14.293588
  0
LINE
  8
0
  6
CONTINUOUS
 62
1
 10
810.896415
 20
0.293588
 11
810.896415
 21
570.293588
  0
LINE
  8
0
  6
CONTINUOUS
 62
1
 10
700.168430
 20
0.293588
 11
700.168430
 21
62.274256
  0
LINE
  8
0
  6
CONTINUOUS
 62
1
 10
810.896415
 20
33.293588
 11
700.168430
 21
33.293588
  0
LINE
  8
0
  6
CONTINUOUS
 62
1
 10
700.168430
 20
22.293588
 11
727.208958
 21
22.293588
  0
LINE
  8
0
  6
CONTINUOUS
 62
1
 10
727.208958
 20
11.293588
 11
700.168430
 21
11.293588
  0
TEXT
  8
0
  6
CONTINUOUS
 62
3
 10
701.350188
 20
29.612613
 40
2.500000
  1
DRAWN:
 50
0.000000
 41
1.000000
 51
0.000000
  7
STANDARD
  0
TEXT
  8
0
  6
CONTINUOUS
 62
3
 10
701.350188
 20
18.637009
 40
2.500000
  1
DATE:
 50
0.000000
 41
1.000000
 51
0.000000
  7
STANDARD
  0
TEXT
  8
0
  6
CONTINUOUS
 62
3
 10
701.111588
 20
7.661404
 40
2.500000
  1
SCALE:
 50
0.000000
 41
1.000000
 51
0.000000
  7
STANDARD
  0
TEXT
  8
0
  6
CONTINUOUS
 62
2
 10
772.768519
 20
28.719478
 40
2.500000
  1
WORKS ORDER NO.
 50
0.000000
 41
1.000000
 51
0.000000
  7
STANDARD
  0
TEXT
  8
0
  6
CONTINUOUS
 62
2
 10
728.589229
 20
28.541629
 40
2.500000
  1
PURCHASE ORDER NO.
 50
0.000000
 41
1.000000
 51
0.000000
  7
STANDARD
  0
LINE
  8
0
  6
CONTINUOUS
 62
1
 10
700.168430
 20
33.293588
 11
623.352368
 21
33.293588
  0
LINE
  8
0
  6
CONTINUOUS
 62
1
 10
700.168430
 20
22.293588
 11
623.352368
 21
22.293588
  0
LINE
  8
0
  6
CONTINUOUS
 62
1
 10
700.168430
 20
11.293588
 11
623.352368
 21
11.293588
  0
TEXT
  8
0
  6
CONTINUOUS
 62
3
 10
624.026517
 20
29.753879
 40
2.500000
  1
MAT'L:
 50
0.000000
 41
1.000000
 51
0.000000
  7
STANDARD
  0
LINE
  8
0
  6
CONTINUOUS
 62
1
 10
661.760399
 20
11.293588
 11
661.760399
 21
22.293588
  0
TEXT
  8
0
  6
CONTINUOUS
 62
3
 10
623.981266
 20
19.055406
 40
2.500000
  1
MAT'L
 50
0.000000
 41
1.000000
 51
0.000000
  7
STANDARD
  0
TEXT
  8
0
  6
CONTINUOUS
 62
3
 10
624.092805
 20
15.374627
 40
2.500000
  1
QTY:
 50
0.000000
 41
1.000000
 51
0.000000
  7
STANDARD
  0
TEXT
  8
0
  6
CONTINUOUS
 62
3
 10
662.350599
 20
15.263088
 40
2.500000
  1
REQ:
 50
0.000000
 41
1.000000
 51
0.000000
  7
STANDARD
  0
TEXT
  8
0
  6
CONTINUOUS
 62
3
 10
662.573677
 20
18.832329
 40
2.500000
  1
NO.
 50
0.000000
 41
1.000000
 51
0.000000
  7
STANDARD
  0
TEXT
  8
0
  6
CONTINUOUS
 62
3
 10
623.981266
 20
7.678453
 40
2.500000
  1
FINISH:
 50
0.000000
 41
1.000000
 51
0.000000
  7
STANDARD
  0
TEXT
  8
0
  6
CONTINUOUS
 62
4
 10
651.498402
 20
48.650078
 40
2.475000
  1
SWANSEA WEST IND PARK
 50
0.000000
 41
1.000000
 51
0.000000
  7
STANDARD
  0
TEXT
  8
0
  6
CONTINUOUS
 62
4
 10
651.517078
 20
44.988659
 40
2.475000
  1
SWANSEA.
 50
0.000000
 41
1.000000
 51
0.000000
  7
STANDARD
  0
TEXT
  8
0
  6
CONTINUOUS
 62
4
 10
651.481443
 20
38.080873
 40
2.300000
  1
TEL: (01792) 561234
 50
0.000000
 41
1.000000
 51
0.000000
  7
STANDARD
  0
TEXT
  8
0
  6
CONTINUOUS
 62
4
 10
651.498402
 20
34.324330
 40
2.300000
  1
FAX: (01792) 561016
 50
0.000000
 41
1.000000
 51
0.000000
  7
STANDARD
  0
TEXT
  8
0
  6
CONTINUOUS
 62
5
 10
651.490386
 20
56.703235
 40
3.000000
  1
MONO EQUIPMENT
 50
0.000000
 41
1.000000
 51
0.000000
  7
STANDARD
  0
TEXT
  8
0
  6
CONTINUOUS
 62
4
 10
651.517078
 20
52.286738
 40
2.475000
  1
QUEENSWAY
 50
0.000000
 41
1.000000
 51
0.000000
  7
STANDARD
  0
TEXT
  8
0
  6
CONTINUOUS
 62
3
 10
701.350188
 20
58.593282
 40
2.500000
  1
TITLE:
 50
0.000000
 41
1.000000
 51
0.000000
  7
STANDARD
  0
TEXT
  8
0
  6
CONTINUOUS
 62
3
 10
681.570971
 20
7.556337
 40
2.500000
  1
DRAWING
 50
0.000000
 41
1.000000
 51
0.000000
  7
STANDARD
  0
TEXT
  8
0
  6
CONTINUOUS
 62
3
 10
681.570971
 20
2.802509
 40
2.500000
  1
SIZE
 50
0.000000
 41
1.000000
 51
0.000000
  7
STANDARD
  0
TEXT
  8
0
  6
CONTINUOUS
 62
3
 10
691.816292
 20
2.802509
 40
3.250000
  1
A1
 50
0.000000
 41
1.000000
 51
0.000000
  7
STANDARD
  0
LINE
  8
0
  6
CONTINUOUS
 62
1
 10
680.669383
 20
0.293588
 11
680.669383
 21
11.293588
  0
TEXT
  8
0
  6
CONTINUOUS
 62
4
 10
651.498402
 20
41.547751
 40
2.475000
  1
SA5 4EB.
 50
0.000000
 41
1.000000
 51
0.000000
  7
STANDARD
  0
INSERT
  2
MONO-LOGO
  8
0
 10
637.541247
 20
48.776781
 41
0.500000
 42
0.500000
 50
0.000000
  0
ENDBLK
  0
BLOCK
  2
MONO-LOGO
  8
0
 70
0
 10
0.0
 20
0.0
 30
0.0
  0
LINE
  8
0
  6
CONTINUOUS
 62
2
 10
-19.875000
 20
-11.812500
 11
19.875000
 21
-11.812500
  0
LINE
  8
0
  6
CONTINUOUS
 62
2
 10
19.875000
 20
-11.812500
 11
19.875000
 21
-9.562500
  0
LINE
  8
0
  6
CONTINUOUS
 62
2
 10
-19.875000
 20
-9.562500
 11
-19.875000
 21
-11.812500
  0
LINE
  8
0
  6
CONTINUOUS
 62
2
 10
-19.875000
 20
-9.562500
 11
-19.875000
 21
-0.562500
  0
LINE
  8
0
  6
CONTINUOUS
 62
2
 10
19.875000
 20
-4.312500
 11
19.875000
 21
-5.812500
  0
LINE
  8
0
  6
CONTINUOUS
 62
2
 10
-19.875000
 20
1.687500
 11
19.875000
 21
1.687500
  0
LINE
  8
0
  6
CONTINUOUS
 62
2
 10
19.875000
 20
1.687500
 11
19.875000
 21
3.562500
  0
LINE
  8
0
  6
CONTINUOUS
 62
2
 10
19.875000
 20
3.562500
 11
-19.875000
 21
3.562500
  0
LINE
  8
0
  6
CONTINUOUS
 62
2
 10
-19.875000
 20
3.562500
 11
-19.875000
 21
1.687500
  0
LINE
  8
0
  6
CONTINUOUS
 62
2
 10
-19.875000
 20
5.812500
 11
19.875000
 21
5.812500
  0
LINE
  8
0
  6
CONTINUOUS
 62
2
 10
19.875000
 20
5.812500
 11
19.875000
 21
7.312500
  0
LINE
  8
0
  6
CONTINUOUS
 62
2
 10
19.875000
 20
7.312500
 11
-19.875000
 21
7.312500
  0
LINE
  8
0
  6
CONTINUOUS
 62
2
 10
-19.875000
 20
7.312500
 11
-19.875000
 21
5.812500
  0
LINE
  8
0
  6
CONTINUOUS
 62
2
 10
-19.875000
 20
9.562500
 11
19.875000
 21
9.562500
  0
LINE
  8
0
  6
CONTINUOUS
 62
2
 10
19.875000
 20
9.562500
 11
19.875000
 21
10.687500
  0
LINE
  8
0
  6
CONTINUOUS
 62
2
 10
19.875000
 20
10.687500
 11
-19.875000
 21
10.687500
  0
LINE
  8
0
  6
CONTINUOUS
 62
2
 10
-19.875000
 20
10.687500
 11
-19.875000
 21
9.562500
  0
LINE
  8
0
  6
CONTINUOUS
 62
2
 10
-19.875000
 20
12.937500
 11
19.875000
 21
12.937500
  0
LINE
  8
0
  6
CONTINUOUS
 62
2
 10
19.875000
 20
12.937500
 11
19.875000
 21
13.687500
  0
LINE
  8
0
  6
CONTINUOUS
 62
2
 10
19.875000
 20
13.687500
 11
-19.875000
 21
13.687500
  0
LINE
  8
0
  6
CONTINUOUS
 62
2
 10
-19.875000
 20
13.687500
 11
-19.875000
 21
12.937500
  0
LINE
  8
0
  6
CONTINUOUS
 62
2
 10
-19.875000
 20
15.937500
 11
19.875000
 21
15.937500
  0
LINE
  8
0
  6
CONTINUOUS
 62
2
 10
19.875000
 20
15.937500
 11
19.875000
 21
16.312500
  0
LINE
  8
0
  6
CONTINUOUS
 62
2
 10
19.875000
 20
16.312500
 11
-19.875000
 21
16.312500
  0
LINE
  8
0
  6
CONTINUOUS
 62
2
 10
-19.875000
 20
16.312500
 11
-19.875000
 21
15.937500
  0
LINE
  8
0
  6
CONTINUOUS
 62
2
 10
-10.125000
 20
-0.562500
 11
-10.125000
 21
-9.562500
  0
LINE
  8
0
  6
CONTINUOUS
 62
2
 10
10.125000
 20
-5.812500
 11
10.125000
 21
-4.312500
  0
LINE
  8
0
  6
CONTINUOUS
 62
2
 10
17.250000
 20
-5.437500
 11
17.250000
 21
-4.687500
  0
LINE
  8
0
  6
CONTINUOUS
 62
2
 10
12.750000
 20
-4.687500
 11
12.750000
 21
-5.437500
  0
ARC
  8
0
  6
CONTINUOUS
 62
2
 10
15.000000
 20
-4.687500
 40
2.250000
 50
0.000000
 51
90.000000
  0
ARC
  8
0
  6
CONTINUOUS
 62
2
 10
15.000000
 20
-4.687500
 40
2.250000
 50
90.000000
 51
180.000000
  0
ARC
  8
0
  6
CONTINUOUS
 62
2
 10
15.000000
 20
-5.437500
 40
2.250000
 50
180.000000
 51
270.000000
  0
ARC
  8
0
  6
CONTINUOUS
 62
2
 10
15.000000
 20
-5.437500
 40
2.250000
 50
270.000000
 51
0.000000
  0
LINE
  8
0
  6
CONTINUOUS
 62
2
 10
13.875000
 20
-0.562500
 11
16.125000
 21
-0.562500
  0
ARC
  8
0
  6
CONTINUOUS
 62
2
 10
16.125000
 20
-4.312500
 40
3.750000
 50
0.000000
 51
90.000000
  0
ARC
  8
0
  6
CONTINUOUS
 62
2
 10
16.125000
 20
-5.812500
 40
3.750000
 50
270.000000
 51
0.000000
  0
ARC
  8
0
  6
CONTINUOUS
 62
2
 10
13.875000
 20
-5.812500
 40
3.750000
 50
180.000000
 51
270.000000
  0
ARC
  8
0
  6
CONTINUOUS
 62
2
 10
13.875000
 20
-4.312500
 40
3.750000
 50
90.000000
 51
180.000000
  0
LINE
  8
0
  6
CONTINUOUS
 62
2
 10
0.208130
 20
-4.293740
 11
0.208130
 21
-5.793740
  0
LINE
  8
0
  6
CONTINUOUS
 62
2
 10
-9.541870
 20
-5.793740
 11
-9.541870
 21
-4.293740
  0
LINE
  8
0
  6
CONTINUOUS
 62
2
 10
-2.416870
 20
-5.418740
 11
-2.416870
 21
-4.668740
  0
LINE
  8
0
  6
CONTINUOUS
 62
2
 10
-6.916870
 20
-4.668740
 11
-6.916870
 21
-5.418740
  0
ARC
  8
0
  6
CONTINUOUS
 62
2
 10
-4.666870
 20
-4.668740
 40
2.250000
 50
0.000000
 51
90.000000
  0
ARC
  8
0
  6
CONTINUOUS
 62
2
 10
-4.666870
 20
-4.668740
 40
2.250000
 50
90.000000
 51
180.000000
  0
ARC
  8
0
  6
CONTINUOUS
 62
2
 10
-4.666870
 20
-5.418740
 40
2.250000
 50
180.000000
 51
270.000000
  0
ARC
  8
0
  6
CONTINUOUS
 62
2
 10
-4.666870
 20
-5.418740
 40
2.250000
 50
270.000000
 51
0.000000
  0
LINE
  8
0
  6
CONTINUOUS
 62
2
 10
-5.791870
 20
-0.543740
 11
-3.541870
 21
-0.543740
  0
ARC
  8
0
  6
CONTINUOUS
 62
2
 10
-3.541870
 20
-4.293740
 40
3.750000
 50
0.000000
 51
90.000000
  0
ARC
  8
0
  6
CONTINUOUS
 62
2
 10
-3.541870
 20
-5.793740
 40
3.750000
 50
270.000000
 51
0.000000
  0
ARC
  8
0
  6
CONTINUOUS
 62
2
 10
-5.791870
 20
-5.793740
 40
3.750000
 50
180.000000
 51
270.000000
  0
LINE
  8
0
  6
CONTINUOUS
 62
2
 10
0.900000
 20
-0.562500
 11
0.900000
 21
-9.562500
  0
LINE
  8
0
  6
CONTINUOUS
 62
2
 10
9.525000
 20
-9.562500
 11
9.525000
 21
-0.562500
  0
LINE
  8
0
  6
CONTINUOUS
 62
2
 10
-17.625000
 20
-3.937500
 11
-17.625000
 21
-9.562500
  0
LINE
  8
0
  6
CONTINUOUS
 62
2
 10
-17.625000
 20
-3.937500
 11
-15.750000
 21
-9.562500
  0
LINE
  8
0
  6
CONTINUOUS
 62
2
 10
-12.375000
 20
-9.562500
 11
-12.375000
 21
-3.937500
  0
LINE
  8
0
  6
CONTINUOUS
 62
2
 10
-14.250000
 20
-9.562500
 11
-12.375000
 21
-3.937500
  0
LINE
  8
0
  6
CONTINUOUS
 62
2
 10
-13.875000
 20
-0.562500
 11
-15.000000
 21
-3.937500
  0
LINE
  8
0
  6
CONTINUOUS
 62
2
 10
-15.000000
 20
-3.937500
 11
-16.125000
 21
-0.562500
  0
LINE
  8
0
  6
CONTINUOUS
 62
2
 10
-10.125000
 20
-0.562500
 11
-13.875000
 21
-0.562500
  0
LINE
  8
0
  6
CONTINUOUS
 62
2
 10
-16.125000
 20
-0.562500
 11
-19.875000
 21
-0.562500
  0
LINE
  8
0
  6
CONTINUOUS
 62
2
 10
-15.750000
 20
-9.562500
 11
-17.625000
 21
-9.562500
  0
LINE
  8
0
  6
CONTINUOUS
 62
2
 10
19.875000
 20
-9.562500
 11
16.125000
 21
-9.562500
  0
LINE
  8
0
  6
CONTINUOUS
 62
2
 10
3.525000
 20
-9.562500
 11
3.525000
 21
-4.687500
  0
LINE
  8
0
  6
CONTINUOUS
 62
2
 10
6.900000
 20
-0.562500
 11
6.900000
 21
-5.437500
  0
LINE
  8
0
  6
CONTINUOUS
 62
2
 10
3.525000
 20
-0.562500
 11
6.900000
 21
-5.437500
  0
LINE
  8
0
  6
CONTINUOUS
 62
2
 10
6.900000
 20
-9.562500
 11
3.525000
 21
-4.687500
  0
LINE
  8
0
  6
CONTINUOUS
 62
2
 10
0.900000
 20
-0.562500
 11
3.525000
 21
-0.562500
  0
LINE
  8
0
  6
CONTINUOUS
 62
2
 10
6.900000
 20
-0.562500
 11
9.525000
 21
-0.562500
  0
LINE
  8
0
  6
CONTINUOUS
 62
2
 10
-3.541870
 20
-9.543740
 11
0.900000
 21
-9.562500
  0
LINE
  8
0
  6
CONTINUOUS
 62
2
 10
3.525000
 20
-9.562500
 11
6.900000
 21
-9.562500
  0
LINE
  8
0
  6
CONTINUOUS
 62
2
 10
9.525000
 20
-9.562500
 11
13.875000
 21
-9.562500
  0
LINE
  8
0
  6
CONTINUOUS
 62
2
 10
-5.791870
 20
-9.562500
 11
-10.125000
 21
-9.562500
  0
LINE
  8
0
  6
CONTINUOUS
 62
2
 10
-12.375000
 20
-9.562500
 11
-14.250000
 21
-9.562500
  0
ARC
  8
0
  6
CONTINUOUS
 62
2
 10
-5.791870
 20
-4.293740
 40
3.750000
 50
90.000000
 51
180.000000
  0
LINE
  8
0
  6
CONTINUOUS
 62
2
 10
-5.791870
 20
-9.543740
 11
-5.791870
 21
-9.562500
  0
LINE
  8
0
  6
CONTINUOUS
 62
2
 10
-19.875000
 20
-11.756886
 11
19.875000
 21
-11.756886
  0
LINE
  8
0
  6
CONTINUOUS
 62
2
 10
-19.875000
 20
-11.456886
 11
19.875000
 21
-11.456886
  0
LINE
  8
0
  6
CONTINUOUS
 62
2
 10
-19.875000
 20
-11.156886
 11
19.875000
 21
-11.156886
  0
LINE
  8
0
  6
CONTINUOUS
 62
2
 10
-19.875000
 20
-10.856886
 11
19.875000
 21
-10.856886
  0
LINE
  8
0
  6
CONTINUOUS
 62
2
 10
-19.875000
 20
-10.556886
 11
19.875000
 21
-10.556886
  0
LINE
  8
0
  6
CONTINUOUS
 62
2
 10
-19.875000
 20
-10.256886
 11
19.875000
 21
-10.256886
  0
LINE
  8
0
  6
CONTINUOUS
 62
2
 10
-19.875000
 20
-9.956886
 11
19.875000
 21
-9.956886
  0
LINE
  8
0
  6
CONTINUOUS
 62
2
 10
-19.875000
 20
-9.656886
 11
19.875000
 21
-9.656886
  0
LINE
  8
0
  6
CONTINUOUS
 62
2
 10
-19.875000
 20
-9.356886
 11
-17.625000
 21
-9.356886
  0
LINE
  8
0
  6
CONTINUOUS
 62
2
 10
-15.818538
 20
-9.356886
 11
-14.181462
 21
-9.356886
  0
LINE
  8
0
  6
CONTINUOUS
 62
2
 10
-12.375000
 20
-9.356886
 11
-10.125000
 21
-9.356886
  0
LINE
  8
0
  6
CONTINUOUS
 62
2
 10
-6.960842
 20
-9.356886
 11
-2.372899
 21
-9.356886
  0
LINE
  8
0
  6
CONTINUOUS
 62
2
 10
0.900000
 20
-9.356886
 11
3.525000
 21
-9.356886
  0
LINE
  8
0
  6
CONTINUOUS
 62
2
 10
6.757652
 20
-9.356886
 11
9.525000
 21
-9.356886
  0
LINE
  8
0
  6
CONTINUOUS
 62
2
 10
12.650325
 20
-9.356886
 11
17.349675
 21
-9.356886
  0
LINE
  8
0
  6
CONTINUOUS
 62
2
 10
-19.875000
 20
-9.056886
 11
-17.625000
 21
-9.056886
  0
LINE
  8
0
  6
CONTINUOUS
 62
2
 10
-15.918538
 20
-9.056886
 11
-14.081462
 21
-9.056886
  0
LINE
  8
0
  6
CONTINUOUS
 62
2
 10
-12.375000
 20
-9.056886
 11
-10.125000
 21
-9.056886
  0
LINE
  8
0
  6
CONTINUOUS
 62
2
 10
-7.639675
 20
-9.056886
 11
-1.694066
 21
-9.056886
  0
LINE
  8
0
  6
CONTINUOUS
 62
2
 10
0.900000
 20
-9.056886
 11
3.525000
 21
-9.056886
  0
LINE
  8
0
  6
CONTINUOUS
 62
2
 10
6.549959
 20
-9.056886
 11
9.525000
 21
-9.056886
  0
LINE
  8
0
  6
CONTINUOUS
 62
2
 10
11.994452
 20
-9.056886
 11
18.005548
 21
-9.056886
  0
LINE
  8
0
  6
CONTINUOUS
 62
2
 10
-19.875000
 20
-8.756886
 11
-17.625000
 21
-8.756886
  0
LINE
  8
0
  6
CONTINUOUS
 62
2
 10
-16.018538
 20
-8.756886
 11
-13.981462
 21
-8.756886
  0
LINE
  8
0
  6
CONTINUOUS
 62
2
 10
-12.375000
 20
-8.756886
 11
-10.125000
 21
-8.756886
  0
LINE
  8
0
  6
CONTINUOUS
 62
2
 10
-8.090189
 20
-8.756886
 11
-1.243552
 21
-8.756886
  0
LINE
  8
0
  6
CONTINUOUS
 62
2
 10
0.900000
 20
-8.756886
 11
3.525000
 21
-8.756886
  0
LINE
  8
0
  6
CONTINUOUS
 62
2
 10
6.342267
 20
-8.756886
 11
9.525000
 21
-8.756886
  0
LINE
  8
0
  6
CONTINUOUS
 62
2
 10
11.552697
 20
-8.756886
 11
18.447303
 21
-8.756886
  0
LINE
  8
0
  6
CONTINUOUS
 62
2
 10
-19.875000
 20
-8.456886
 11
-17.625000
 21
-8.456886
  0
LINE
  8
0
  6
CONTINUOUS
 62
2
 10
-16.118538
 20
-8.456886
 11
-13.881462
 21
-8.456886
  0
LINE
  8
0
  6
CONTINUOUS
 62
2
 10
-12.375000
 20
-8.456886
 11
-10.125000
 21
-8.456886
  0
LINE
  8
0
  6
CONTINUOUS
 62
2
 10
-8.431976
 20
-8.456886
 11
-0.901765
 21
-8.456886
  0
LINE
  8
0
  6
CONTINUOUS
 62
2
 10
0.900000
 20
-8.456886
 11
3.525000
 21
-8.456886
  0
LINE
  8
0
  6
CONTINUOUS
 62
2
 10
6.134575
 20
-8.456886
 11
9.525000
 21
-8.456886
  0
LINE
  8
0
  6
CONTINUOUS
 62
2
 10
11.216105
 20
-8.456886
 11
18.783895
 21
-8.456886
  0
LINE
  8
0
  6
CONTINUOUS
 62
2
 10
-19.875000
 20
-8.156886
 11
-17.625000
 21
-8.156886
  0
LINE
  8
0
  6
CONTINUOUS
 62
2
 10
-16.218538
 20
-8.156886
 11
-13.781462
 21
-8.156886
  0
LINE
  8
0
  6
CONTINUOUS
 62
2
 10
-12.375000
 20
-8.156886
 11
-10.125000
 21
-8.156886
  0
LINE
  8
0
  6
CONTINUOUS
 62
2
 10
-8.703578
 20
-8.156886
 11
-0.630162
 21
-8.156886
  0
LINE
  8
0
  6
CONTINUOUS
 62
2
 10
0.900000
 20
-8.156886
 11
3.525000
 21
-8.156886
  0
LINE
  8
0
  6
CONTINUOUS
 62
2
 10
5.926882
 20
-8.156886
 11
9.525000
 21
-8.156886
  0
LINE
  8
0
  6
CONTINUOUS
 62
2
 10
10.948166
 20
-8.156886
 11
19.051834
 21
-8.156886
  0
LINE
  8
0
  6
CONTINUOUS
 62
2
 10
-19.875000
 20
-7.856886
 11
-17.625000
 21
-7.856886
  0
LINE
  8
0
  6
CONTINUOUS
 62
2
 10
-16.318538
 20
-7.856886
 11
-13.681462
 21
-7.856886
  0
LINE
  8
0
  6
CONTINUOUS
 62
2
 10
-12.375000
 20
-7.856886
 11
-10.125000
 21
-7.856886
  0
LINE
  8
0
  6
CONTINUOUS
 62
2
 10
-8.923313
 20
-7.856886
 11
-0.410428
 21
-7.856886
  0
LINE
  8
0
  6
CONTINUOUS
 62
2
 10
0.900000
 20
-7.856886
 11
3.525000
 21
-7.856886
  0
LINE
  8
0
  6
CONTINUOUS
 62
2
 10
5.719190
 20
-7.856886
 11
9.525000
 21
-7.856886
  0
LINE
  8
0
  6
CONTINUOUS
 62
2
 10
10.731278
 20
-7.856886
 11
19.268722
 21
-7.856886
  0
LINE
  8
0
  6
CONTINUOUS
 62
2
 10
-19.875000
 20
-7.556886
 11
-17.625000
 21
-7.556886
  0
LINE
  8
0
  6
CONTINUOUS
 62
2
 10
-16.418538
 20
-7.556886
 11
-13.581462
 21
-7.556886
  0
LINE
  8
0
  6
CONTINUOUS
 62
2
 10
-12.375000
 20
-7.556886
 11
-10.125000
 21
-7.556886
  0
LINE
  8
0
  6
CONTINUOUS
 62
2
 10
-9.101526
 20
-7.556886
 11
-5.367466
 21
-7.556886
  0
LINE
  8
0
  6
CONTINUOUS
 62
2
 10
-3.966275
 20
-7.556886
 11
-0.232215
 21
-7.556886
  0
LINE
  8
0
  6
CONTINUOUS
 62
2
 10
0.900000
 20
-7.556886
 11
3.525000
 21
-7.556886
  0
LINE
  8
0
  6
CONTINUOUS
 62
2
 10
5.511498
 20
-7.556886
 11
9.525000
 21
-7.556886
  0
LINE
  8
0
  6
CONTINUOUS
 62
2
 10
10.555419
 20
-7.556886
 11
14.244551
 21
-7.556886
  0
LINE
  8
0
  6
CONTINUOUS
 62
2
 10
15.755449
 20
-7.556886
 11
19.444581
 21
-7.556886
  0
LINE
  8
0
  6
CONTINUOUS
 62
2
 10
-19.875000
 20
-7.256886
 11
-17.625000
 21
-7.256886
  0
LINE
  8
0
  6
CONTINUOUS
 62
2
 10
-16.518538
 20
-7.256886
 11
-13.481462
 21
-7.256886
  0
LINE
  8
0
  6
CONTINUOUS
 62
2
 10
-12.375000
 20
-7.256886
 11
-10.125000
 21
-7.256886
  0
LINE
  8
0
  6
CONTINUOUS
 62
2
 10
-9.244653
 20
-7.256886
 11
-5.964453
 21
-7.256886
  0
LINE
  8
0
  6
CONTINUOUS
 62
2
 10
-3.369288
 20
-7.256886
 11
-0.089088
 21
-7.256886
  0
LINE
  8
0
  6
CONTINUOUS
 62
2
 10
0.900000
 20
-7.256886
 11
3.525000
 21
-7.256886
  0
LINE
  8
0
  6
CONTINUOUS
 62
2
 10
5.303806
 20
-7.256886
 11
9.525000
 21
-7.256886
  0
LINE
  8
0
  6
CONTINUOUS
 62
2
 10
10.414328
 20
-7.256886
 11
13.676242
 21
-7.256886
  0
LINE
  8
0
  6
CONTINUOUS
 62
2
 10
16.323758
 20
-7.256886
 11
19.585672
 21
-7.256886
  0
LINE
  8
0
  6
CONTINUOUS
 62
2
 10
-19.875000
 20
-6.956886
 11
-17.625000
 21
-6.956886
  0
LINE
  8
0
  6
CONTINUOUS
 62
2
 10
-16.618538
 20
-6.956886
 11
-13.381462
 21
-6.956886
  0
LINE
  8
0
  6
CONTINUOUS
 62
2
 10
-12.375000
 20
-6.956886
 11
-10.125000
 21
-6.956886
  0
LINE
  8
0
  6
CONTINUOUS
 62
2
 10
-9.356922
 20
-6.956886
 11
-6.309006
 21
-6.956886
  0
LINE
  8
0
  6
CONTINUOUS
 62
2
 10
-3.024735
 20
-6.956886
 11
0.023181
 21
-6.956886
  0
LINE
  8
0
  6
CONTINUOUS
 62
2
 10
0.900000
 20
-6.956886
 11
3.525000
 21
-6.956886
  0
LINE
  8
0
  6
CONTINUOUS
 62
2
 10
5.096113
 20
-6.956886
 11
9.525000
 21
-6.956886
  0
LINE
  8
0
  6
CONTINUOUS
 62
2
 10
10.303882
 20
-6.956886
 11
13.340492
 21
-6.956886
  0
LINE
  8
0
  6
CONTINUOUS
 62
2
 10
16.659508
 20
-6.956886
 11
19.696118
 21
-6.956886
  0
LINE
  8
0
  6
CONTINUOUS
 62
2
 10
-19.875000
 20
-6.656886
 11
-17.625000
 21
-6.656886
  0
LINE
  8
0
  6
CONTINUOUS
 62
2
 10
-16.718538
 20
-6.656886
 11
-13.281462
 21
-6.656886
  0
LINE
  8
0
  6
CONTINUOUS
 62
2
 10
-12.375000
 20
-6.656886
 11
-10.125000
 21
-6.656886
  0
LINE
  8
0
  6
CONTINUOUS
 62
2
 10
-9.441183
 20
-6.656886
 11
-6.545566
 21
-6.656886
  0
LINE
  8
0
  6
CONTINUOUS
 62
2
 10
-2.788175
 20
-6.656886
 11
0.107442
 21
-6.656886
  0
LINE
  8
0
  6
CONTINUOUS
 62
2
 10
0.900000
 20
-6.656886
 11
3.525000
 21
-6.656886
  0
LINE
  8
0
  6
CONTINUOUS
 62
2
 10
4.888421
 20
-6.656886
 11
9.525000
 21
-6.656886
  0
LINE
  8
0
  6
CONTINUOUS
 62
2
 10
10.221302
 20
-6.656886
 11
13.109075
 21
-6.656886
  0
LINE
  8
0
  6
CONTINUOUS
 62
2
 10
16.890925
 20
-6.656886
 11
19.778698
 21
-6.656886
  0
LINE
  8
0
  6
CONTINUOUS
 62
2
 10
-19.875000
 20
-6.356886
 11
-17.625000
 21
-6.356886
  0
LINE
  8
0
  6
CONTINUOUS
 62
2
 10
-16.818538
 20
-6.356886
 11
-13.181462
 21
-6.356886
  0
LINE
  8
0
  6
CONTINUOUS
 62
2
 10
-12.375000
 20
-6.356886
 11
-10.125000
 21
-6.356886
  0
LINE
  8
0
  6
CONTINUOUS
 62
2
 10
-9.499345
 20
-6.356886
 11
-6.711958
 21
-6.356886
  0
LINE
  8
0
  6
CONTINUOUS
 62
2
 10
-2.621783
 20
-6.356886
 11
0.165604
 21
-6.356886
  0
LINE
  8
0
  6
CONTINUOUS
 62
2
 10
0.900000
 20
-6.356886
 11
3.525000
 21
-6.356886
  0
LINE
  8
0
  6
CONTINUOUS
 62
2
 10
4.680729
 20
-6.356886
 11
9.525000
 21
-6.356886
  0
LINE
  8
0
  6
CONTINUOUS
 62
2
 10
10.164725
 20
-6.356886
 11
12.946411
 21
-6.356886
  0
LINE
  8
0
  6
CONTINUOUS
 62
2
 10
17.053589
 20
-6.356886
 11
19.835275
 21
-6.356886
  0
LINE
  8
0
  6
CONTINUOUS
 62
2
 10
-19.875000
 20
-6.056886
 11
-17.625000
 21
-6.056886
  0
LINE
  8
0
  6
CONTINUOUS
 62
2
 10
-16.918538
 20
-6.056886
 11
-13.081462
 21
-6.056886
  0
LINE
  8
0
  6
CONTINUOUS
 62
2
 10
-12.375000
 20
-6.056886
 11
-10.125000
 21
-6.056886
  0
LINE
  8
0
  6
CONTINUOUS
 62
2
 10
-9.532626
 20
-6.056886
 11
-6.824478
 21
-6.056886
  0
LINE
  8
0
  6
CONTINUOUS
 62
2
 10
-2.509263
 20
-6.056886
 11
0.198885
 21
-6.056886
  0
LINE
  8
0
  6
CONTINUOUS
 62
2
 10
0.900000
 20
-6.056886
 11
3.525000
 21
-6.056886
  0
LINE
  8
0
  6
CONTINUOUS
 62
2
 10
4.473036
 20
-6.056886
 11
9.525000
 21
-6.056886
  0
LINE
  8
0
  6
CONTINUOUS
 62
2
 10
10.132972
 20
-6.056886
 11
12.836932
 21
-6.056886
  0
LINE
  8
0
  6
CONTINUOUS
 62
2
 10
17.163068
 20
-6.056886
 11
19.867028
 21
-6.056886
  0
LINE
  8
0
  6
CONTINUOUS
 62
2
 10
-19.875000
 20
-5.756886
 11
-17.625000
 21
-5.756886
  0
LINE
  8
0
  6
CONTINUOUS
 62
2
 10
-17.018538
 20
-5.756886
 11
-12.981462
 21
-5.756886
  0
LINE
  8
0
  6
CONTINUOUS
 62
2
 10
-12.375000
 20
-5.756886
 11
-10.125000
 21
-5.756886
  0
LINE
  8
0
  6
CONTINUOUS
 62
2
 10
-9.541870
 20
-5.756886
 11
-6.891316
 21
-5.756886
  0
LINE
  8
0
  6
CONTINUOUS
 62
2
 10
-2.442425
 20
-5.756886
 11
0.208130
 21
-5.756886
  0
LINE
  8
0
  6
CONTINUOUS
 62
2
 10
0.900000
 20
-5.756886
 11
3.525000
 21
-5.756886
  0
LINE
  8
0
  6
CONTINUOUS
 62
2
 10
4.265344
 20
-5.756886
 11
9.525000
 21
-5.756886
  0
LINE
  8
0
  6
CONTINUOUS
 62
2
 10
10.125000
 20
-5.756886
 11
12.772784
 21
-5.756886
  0
LINE
  8
0
  6
CONTINUOUS
 62
2
 10
17.227216
 20
-5.756886
 11
19.875000
 21
-5.756886
  0
LINE
  8
0
  6
CONTINUOUS
 62
2
 10
-19.875000
 20
-5.456886
 11
-17.625000
 21
-5.456886
  0
LINE
  8
0
  6
CONTINUOUS
 62
2
 10
-17.118538
 20
-5.456886
 11
-12.881462
 21
-5.456886
  0
LINE
  8
0
  6
CONTINUOUS
 62
2
 10
-12.375000
 20
-5.456886
 11
-10.125000
 21
-5.456886
  0
LINE
  8
0
  6
CONTINUOUS
 62
2
 10
-9.541870
 20
-5.456886
 11
-6.916547
 21
-5.456886
  0
LINE
  8
0
  6
CONTINUOUS
 62
2
 10
-2.417194
 20
-5.456886
 11
0.208130
 21
-5.456886
  0
LINE
  8
0
  6
CONTINUOUS
 62
2
 10
0.900000
 20
-5.456886
 11
3.525000
 21
-5.456886
  0
LINE
  8
0
  6
CONTINUOUS
 62
2
 10
4.057652
 20
-5.456886
 11
9.525000
 21
-5.456886
  0
LINE
  8
0
  6
CONTINUOUS
 62
2
 10
10.125000
 20
-5.456886
 11
12.750084
 21
-5.456886
  0
LINE
  8
0
  6
CONTINUOUS
 62
2
 10
17.249916
 20
-5.456886
 11
19.875000
 21
-5.456886
  0
LINE
  8
0
  6
CONTINUOUS
 62
2
 10
-19.875000
 20
-5.156886
 11
-17.625000
 21
-5.156886
  0
LINE
  8
0
  6
CONTINUOUS
 62
2
 10
-17.218538
 20
-5.156886
 11
-12.781462
 21
-5.156886
  0
LINE
  8
0
  6
CONTINUOUS
 62
2
 10
-12.375000
 20
-5.156886
 11
-10.125000
 21
-5.156886
  0
LINE
  8
0
  6
CONTINUOUS
 62
2
 10
-9.541870
 20
-5.156886
 11
-6.916870
 21
-5.156886
  0
LINE
  8
0
  6
CONTINUOUS
 62
2
 10
-2.416870
 20
-5.156886
 11
0.208130
 21
-5.156886
  0
LINE
  8
0
  6
CONTINUOUS
 62
2
 10
0.900000
 20
-5.156886
 11
3.525000
 21
-5.156886
  0
LINE
  8
0
  6
CONTINUOUS
 62
2
 10
3.849959
 20
-5.156886
 11
6.705729
 21
-5.156886
  0
LINE
  8
0
  6
CONTINUOUS
 62
2
 10
6.900000
 20
-5.156886
 11
9.525000
 21
-5.156886
  0
LINE
  8
0
  6
CONTINUOUS
 62
2
 10
10.125000
 20
-5.156886
 11
12.750000
 21
-5.156886
  0
LINE
  8
0
  6
CONTINUOUS
 62
2
 10
17.250000
 20
-5.156886
 11
19.875000
 21
-5.156886
  0
LINE
  8
0
  6
CONTINUOUS
 62
2
 10
-19.875000
 20
-4.856886
 11
-17.625000
 21
-4.856886
  0
LINE
  8
0
  6
CONTINUOUS
 62
2
 10
-17.318538
 20
-4.856886
 11
-12.681462
 21
-4.856886
  0
LINE
  8
0
  6
CONTINUOUS
 62
2
 10
-12.375000
 20
-4.856886
 11
-10.125000
 21
-4.856886
  0
LINE
  8
0
  6
CONTINUOUS
 62
2
 10
-9.541870
 20
-4.856886
 11
-6.916870
 21
-4.856886
  0
LINE
  8
0
  6
CONTINUOUS
 62
2
 10
-2.416870
 20
-4.856886
 11
0.208130
 21
-4.856886
  0
LINE
  8
0
  6
CONTINUOUS
 62
2
 10
0.900000
 20
-4.856886
 11
3.525000
 21
-4.856886
  0
LINE
  8
0
  6
CONTINUOUS
 62
2
 10
3.642267
 20
-4.856886
 11
6.498036
 21
-4.856886
  0
LINE
  8
0
  6
CONTINUOUS
 62
2
 10
6.900000
 20
-4.856886
 11
9.525000
 21
-4.856886
  0
LINE
  8
0
  6
CONTINUOUS
 62
2
 10
10.125000
 20
-4.856886
 11
12.750000
 21
-4.856886
  0
LINE
  8
0
  6
CONTINUOUS
 62
2
 10
17.250000
 20
-4.856886
 11
19.875000
 21
-4.856886
  0
LINE
  8
0
  6
CONTINUOUS
 62
2
 10
-19.875000
 20
-4.556886
 11
-17.625000
 21
-4.556886
  0
LINE
  8
0
  6
CONTINUOUS
 62
2
 10
-17.418538
 20
-4.556886
 11
-12.581462
 21
-4.556886
  0
LINE
  8
0
  6
CONTINUOUS
 62
2
 10
-12.375000
 20
-4.556886
 11
-10.125000
 21
-4.556886
  0
LINE
  8
0
  6
CONTINUOUS
 62
2
 10
-9.541870
 20
-4.556886
 11
-6.914088
 21
-4.556886
  0
LINE
  8
0
  6
CONTINUOUS
 62
2
 10
-2.419652
 20
-4.556886
 11
0.208130
 21
-4.556886
  0
LINE
  8
0
  6
CONTINUOUS
 62
2
 10
0.900000
 20
-4.556886
 11
6.290344
 21
-4.556886
  0
LINE
  8
0
  6
CONTINUOUS
 62
2
 10
6.900000
 20
-4.556886
 11
9.525000
 21
-4.556886
  0
LINE
  8
0
  6
CONTINUOUS
 62
2
 10
10.125000
 20
-4.556886
 11
12.753794
 21
-4.556886
  0
LINE
  8
0
  6
CONTINUOUS
 62
2
 10
17.246206
 20
-4.556886
 11
19.875000
 21
-4.556886
  0
LINE
  8
0
  6
CONTINUOUS
 62
2
 10
-19.875000
 20
-4.256886
 11
-17.625000
 21
-4.256886
  0
LINE
  8
0
  6
CONTINUOUS
 62
2
 10
-17.518538
 20
-4.256886
 11
-12.481462
 21
-4.256886
  0
LINE
  8
0
  6
CONTINUOUS
 62
2
 10
-12.375000
 20
-4.256886
 11
-10.125000
 21
-4.256886
  0
LINE
  8
0
  6
CONTINUOUS
 62
2
 10
-9.541689
 20
-4.256886
 11
-6.878855
 21
-4.256886
  0
LINE
  8
0
  6
CONTINUOUS
 62
2
 10
-2.454886
 20
-4.256886
 11
0.207948
 21
-4.256886
  0
LINE
  8
0
  6
CONTINUOUS
 62
2
 10
0.900000
 20
-4.256886
 11
6.082652
 21
-4.256886
  0
LINE
  8
0
  6
CONTINUOUS
 62
2
 10
6.900000
 20
-4.256886
 11
9.525000
 21
-4.256886
  0
LINE
  8
0
  6
CONTINUOUS
 62
2
 10
10.125412
 20
-4.256886
 11
12.791591
 21
-4.256886
  0
LINE
  8
0
  6
CONTINUOUS
 62
2
 10
17.208409
 20
-4.256886
 11
19.874588
 21
-4.256886
  0
LINE
  8
0
  6
CONTINUOUS
 62
2
 10
-19.875000
 20
-3.956886
 11
-17.625000
 21
-3.956886
  0
LINE
  8
0
  6
CONTINUOUS
 62
2
 10
-17.618538
 20
-3.956886
 11
-12.381462
 21
-3.956886
  0
LINE
  8
0
  6
CONTINUOUS
 62
2
 10
-12.375000
 20
-3.956886
 11
-10.125000
 21
-3.956886
  0
LINE
  8
0
  6
CONTINUOUS
 62
2
 10
-9.526710
 20
-3.956886
 11
-6.801294
 21
-3.956886
  0
LINE
  8
0
  6
CONTINUOUS
 62
2
 10
-2.532447
 20
-3.956886
 11
0.192969
 21
-3.956886
  0
LINE
  8
0
  6
CONTINUOUS
 62
2
 10
0.900000
 20
-3.956886
 11
5.874959
 21
-3.956886
  0
LINE
  8
0
  6
CONTINUOUS
 62
2
 10
6.900000
 20
-3.956886
 11
9.525000
 21
-3.956886
  0
LINE
  8
0
  6
CONTINUOUS
 62
2
 10
10.141900
 20
-3.956886
 11
12.871925
 21
-3.956886
  0
LINE
  8
0
  6
CONTINUOUS
 62
2
 10
17.128075
 20
-3.956886
 11
19.858100
 21
-3.956886
  0
LINE
  8
0
  6
CONTINUOUS
 62
2
 10
-19.875000
 20
-3.656886
 11
-15.093538
 21
-3.656886
  0
LINE
  8
0
  6
CONTINUOUS
 62
2
 10
-14.906462
 20
-3.656886
 11
-10.125000
 21
-3.656886
  0
LINE
  8
0
  6
CONTINUOUS
 62
2
 10
-9.487397
 20
-3.656886
 11
-6.676510
 21
-3.656886
  0
LINE
  8
0
  6
CONTINUOUS
 62
2
 10
-2.657231
 20
-3.656886
 11
0.153656
 21
-3.656886
  0
LINE
  8
0
  6
CONTINUOUS
 62
2
 10
0.900000
 20
-3.656886
 11
5.667267
 21
-3.656886
  0
LINE
  8
0
  6
CONTINUOUS
 62
2
 10
6.900000
 20
-3.656886
 11
9.525000
 21
-3.656886
  0
LINE
  8
0
  6
CONTINUOUS
 62
2
 10
10.182755
 20
-3.656886
 11
12.999916
 21
-3.656886
  0
LINE
  8
0
  6
CONTINUOUS
 62
2
 10
17.000084
 20
-3.656886
 11
19.817245
 21
-3.656886
  0
LINE
  8
0
  6
CONTINUOUS
 62
2
 10
-19.875000
 20
-3.356886
 11
-15.193538
 21
-3.356886
  0
LINE
  8
0
  6
CONTINUOUS
 62
2
 10
-14.806462
 20
-3.356886
 11
-10.125000
 21
-3.356886
  0
LINE
  8
0
  6
CONTINUOUS
 62
2
 10
-9.422959
 20
-3.356886
 11
-6.494858
 21
-3.356886
  0
LINE
  8
0
  6
CONTINUOUS
 62
2
 10
-2.838883
 20
-3.356886
 11
0.089218
 21
-3.356886
  0
LINE
  8
0
  6
CONTINUOUS
 62
2
 10
0.900000
 20
-3.356886
 11
5.459575
 21
-3.356886
  0
LINE
  8
0
  6
CONTINUOUS
 62
2
 10
6.900000
 20
-3.356886
 11
9.525000
 21
-3.356886
  0
LINE
  8
0
  6
CONTINUOUS
 62
2
 10
10.248803
 20
-3.356886
 11
13.185622
 21
-3.356886
  0
LINE
  8
0
  6
CONTINUOUS
 62
2
 10
16.814378
 20
-3.356886
 11
19.751197
 21
-3.356886
  0
LINE
  8
0
  6
CONTINUOUS
 62
2
 10
-19.875000
 20
-3.056886
 11
-15.293538
 21
-3.056886
  0
LINE
  8
0
  6
CONTINUOUS
 62
2
 10
-14.706462
 20
-3.056886
 11
-10.125000
 21
-3.056886
  0
LINE
  8
0
  6
CONTINUOUS
 62
2
 10
-9.332025
 20
-3.056886
 11
-6.236719
 21
-3.056886
  0
LINE
  8
0
  6
CONTINUOUS
 62
2
 10
-3.097022
 20
-3.056886
 11
-0.001716
 21
-3.056886
  0
LINE
  8
0
  6
CONTINUOUS
 62
2
 10
0.900000
 20
-3.056886
 11
5.251882
 21
-3.056886
  0
LINE
  8
0
  6
CONTINUOUS
 62
2
 10
6.900000
 20
-3.056886
 11
9.525000
 21
-3.056886
  0
LINE
  8
0
  6
CONTINUOUS
 62
2
 10
10.341456
 20
-3.056886
 11
13.449646
 21
-3.056886
  0
LINE
  8
0
  6
CONTINUOUS
 62
2
 10
16.550354
 20
-3.056886
 11
19.658544
 21
-3.056886
  0
LINE
  8
0
  6
CONTINUOUS
 62
2
 10
-19.875000
 20
-2.756886
 11
-15.393538
 21
-2.756886
  0
LINE
  8
0
  6
CONTINUOUS
 62
2
 10
-14.606462
 20
-2.756886
 11
-10.125000
 21
-2.756886
  0
LINE
  8
0
  6
CONTINUOUS
 62
2
 10
-9.212481
 20
-2.756886
 11
-5.853172
 21
-2.756886
  0
LINE
  8
0
  6
CONTINUOUS
 62
2
 10
-3.480568
 20
-2.756886
 11
-0.121260
 21
-2.756886
  0
LINE
  8
0
  6
CONTINUOUS
 62
2
 10
0.900000
 20
-2.756886
 11
5.044190
 21
-2.756886
  0
LINE
  8
0
  6
CONTINUOUS
 62
2
 10
6.900000
 20
-2.756886
 11
9.525000
 21
-2.756886
  0
LINE
  8
0
  6
CONTINUOUS
 62
2
 10
10.462880
 20
-2.756886
 11
13.844479
 21
-2.756886
  0
LINE
  8
0
  6
CONTINUOUS
 62
2
 10
16.155521
 20
-2.756886
 11
19.537120
 21
-2.756886
  0
LINE
  8
0
  6
CONTINUOUS
 62
2
 10
-19.875000
 20
-2.456886
 11
-15.493538
 21
-2.456886
  0
LINE
  8
0
  6
CONTINUOUS
 62
2
 10
-14.506462
 20
-2.456886
 11
-10.125000
 21
-2.456886
  0
LINE
  8
0
  6
CONTINUOUS
 62
2
 10
-9.061192
 20
-2.456886
 11
-5.079423
 21
-2.456886
  0
LINE
  8
0
  6
CONTINUOUS
 62
2
 10
-4.254318
 20
-2.456886
 11
-0.272549
 21
-2.456886
  0
LINE
  8
0
  6
CONTINUOUS
 62
2
 10
0.900000
 20
-2.456886
 11
4.836498
 21
-2.456886
  0
LINE
  8
0
  6
CONTINUOUS
 62
2
 10
6.900000
 20
-2.456886
 11
9.525000
 21
-2.456886
  0
LINE
  8
0
  6
CONTINUOUS
 62
2
 10
10.616289
 20
-2.456886
 11
14.705279
 21
-2.456886
  0
LINE
  8
0
  6
CONTINUOUS
 62
2
 10
15.294721
 20
-2.456886
 11
19.383711
 21
-2.456886
  0
LINE
  8
0
  6
CONTINUOUS
 62
2
 10
-19.875000
 20
-2.156886
 11
-15.593538
 21
-2.156886
  0
LINE
  8
0
  6
CONTINUOUS
 62
2
 10
-14.406462
 20
-2.156886
 11
-10.125000
 21
-2.156886
  0
LINE
  8
0
  6
CONTINUOUS
 62
2
 10
-8.873486
 20
-2.156886
 11
-0.460255
 21
-2.156886
  0
LINE
  8
0
  6
CONTINUOUS
 62
2
 10
0.900000
 20
-2.156886
 11
4.628806
 21
-2.156886
  0
LINE
  8
0
  6
CONTINUOUS
 62
2
 10
6.900000
 20
-2.156886
 11
9.525000
 21
-2.156886
  0
LINE
  8
0
  6
CONTINUOUS
 62
2
 10
10.806478
 20
-2.156886
 11
19.193522
 21
-2.156886
  0
LINE
  8
0
  6
CONTINUOUS
 62
2
 10
-19.875000
 20
-1.856886
 11
-15.693538
 21
-1.856886
  0
LINE
  8
0
  6
CONTINUOUS
 62
2
 10
-14.306462
 20
-1.856886
 11
-10.125000
 21
-1.856886
  0
LINE
  8
0
  6
CONTINUOUS
 62
2
 10
-8.642176
 20
-1.856886
 11
-0.691565
 21
-1.856886
  0
LINE
  8
0
  6
CONTINUOUS
 62
2
 10
0.900000
 20
-1.856886
 11
4.421113
 21
-1.856886
  0
LINE
  8
0
  6
CONTINUOUS
 62
2
 10
6.900000
 20
-1.856886
 11
9.525000
 21
-1.856886
  0
LINE
  8
0
  6
CONTINUOUS
 62
2
 10
11.040841
 20
-1.856886
 11
18.959159
 21
-1.856886
  0
LINE
  8
0
  6
CONTINUOUS
 62
2
 10
-19.875000
 20
-1.556886
 11
-15.793538
 21
-1.556886
  0
LINE
  8
0
  6
CONTINUOUS
 62
2
 10
-14.206462
 20
-1.556886
 11
-10.125000
 21
-1.556886
  0
LINE
  8
0
  6
CONTINUOUS
 62
2
 10
-8.355487
 20
-1.556886
 11
-0.978254
 21
-1.556886
  0
LINE
  8
0
  6
CONTINUOUS
 62
2
 10
0.900000
 20
-1.556886
 11
4.213421
 21
-1.556886
  0
LINE
  8
0
  6
CONTINUOUS
 62
2
 10
6.900000
 20
-1.556886
 11
9.525000
 21
-1.556886
  0
LINE
  8
0
  6
CONTINUOUS
 62
2
 10
11.331559
 20
-1.556886
 11
18.668441
 21
-1.556886
  0
LINE
  8
0
  6
CONTINUOUS
 62
2
 10
-19.875000
 20
-1.256886
 11
-15.893538
 21
-1.256886
  0
LINE
  8
0
  6
CONTINUOUS
 62
2
 10
-14.106462
 20
-1.256886
 11
-10.125000
 21
-1.256886
  0
LINE
  8
0
  6
CONTINUOUS
 62
2
 10
-7.991874
 20
-1.256886
 11
-1.341867
 21
-1.256886
  0
LINE
  8
0
  6
CONTINUOUS
 62
2
 10
0.900000
 20
-1.256886
 11
4.005729
 21
-1.256886
  0
LINE
  8
0
  6
CONTINUOUS
 62
2
 10
6.900000
 20
-1.256886
 11
9.525000
 21
-1.256886
  0
LINE
  8
0
  6
CONTINUOUS
 62
2
 10
11.701127
 20
-1.256886
 11
18.298873
 21
-1.256886
  0
LINE
  8
0
  6
CONTINUOUS
 62
2
 10
-19.875000
 20
-0.956886
 11
-15.993538
 21
-0.956886
  0
LINE
  8
0
  6
CONTINUOUS
 62
2
 10
-14.006462
 20
-0.956886
 11
-10.125000
 21
-0.956886
  0
LINE
  8
0
  6
CONTINUOUS
 62
2
 10
-7.502982
 20
-0.956886
 11
-1.830759
 21
-0.956886
  0
LINE
  8
0
  6
CONTINUOUS
 62
2
 10
0.900000
 20
-0.956886
 11
3.798036
 21
-0.956886
  0
LINE
  8
0
  6
CONTINUOUS
 62
2
 10
6.900000
 20
-0.956886
 11
9.525000
 21
-0.956886
  0
LINE
  8
0
  6
CONTINUOUS
 62
2
 10
12.200977
 20
-0.956886
 11
17.799023
 21
-0.956886
  0
LINE
  8
0
  6
CONTINUOUS
 62
2
 10
-19.875000
 20
-0.656886
 11
-16.093538
 21
-0.656886
  0
LINE
  8
0
  6
CONTINUOUS
 62
2
 10
-13.906462
 20
-0.656886
 11
-10.125000
 21
-0.656886
  0
LINE
  8
0
  6
CONTINUOUS
 62
2
 10
-6.706086
 20
-0.656886
 11
-2.627655
 21
-0.656886
  0
LINE
  8
0
  6
CONTINUOUS
 62
2
 10
0.900000
 20
-0.656886
 11
3.590344
 21
-0.656886
  0
LINE
  8
0
  6
CONTINUOUS
 62
2
 10
6.900000
 20
-0.656886
 11
9.525000
 21
-0.656886
  0
LINE
  8
0
  6
CONTINUOUS
 62
2
 10
13.038947
 20
-0.656886
 11
16.961053
 21
-0.656886
  0
LINE
  8
0
  6
CONTINUOUS
 62
2
 10
-19.875000
 20
1.743114
 11
19.875000
 21
1.743114
  0
LINE
  8
0
  6
CONTINUOUS
 62
2
 10
-19.875000
 20
2.043114
 11
19.875000
 21
2.043114
  0
LINE
  8
0
  6
CONTINUOUS
 62
2
 10
-19.875000
 20
2.343114
 11
19.875000
 21
2.343114
  0
LINE
  8
0
  6
CONTINUOUS
 62
2
 10
-19.875000
 20
2.643114
 11
19.875000
 21
2.643114
  0
LINE
  8
0
  6
CONTINUOUS
 62
2
 10
-19.875000
 20
2.943114
 11
19.875000
 21
2.943114
  0
LINE
  8
0
  6
CONTINUOUS
 62
2
 10
-19.875000
 20
3.243114
 11
19.875000
 21
3.243114
  0
LINE
  8
0
  6
CONTINUOUS
 62
2
 10
-19.875000
 20
3.543114
 11
19.875000
 21
3.543114
  0
LINE
  8
0
  6
CONTINUOUS
 62
2
 10
-19.875000
 20
5.943114
 11
19.875000
 21
5.943114
  0
LINE
  8
0
  6
CONTINUOUS
 62
2
 10
-19.875000
 20
6.243114
 11
19.875000
 21
6.243114
  0
LINE
  8
0
  6
CONTINUOUS
 62
2
 10
-19.875000
 20
6.543114
 11
19.875000
 21
6.543114
  0
LINE
  8
0
  6
CONTINUOUS
 62
2
 10
-19.875000
 20
6.843114
 11
19.875000
 21
6.843114
  0
LINE
  8
0
  6
CONTINUOUS
 62
2
 10
-19.875000
 20
7.143114
 11
19.875000
 21
7.143114
  0
LINE
  8
0
  6
CONTINUOUS
 62
2
 10
-19.875000
 20
9.843114
 11
19.875000
 21
9.843114
  0
LINE
  8
0
  6
CONTINUOUS
 62
2
 10
-19.875000
 20
10.143114
 11
19.875000
 21
10.143114
  0
LINE
  8
0
  6
CONTINUOUS
 62
2
 10
-19.875000
 20
10.443114
 11
19.875000
 21
10.443114
  0
LINE
  8
0
  6
CONTINUOUS
 62
2
 10
-19.875000
 20
13.143114
 11
19.875000
 21
13.143114
  0
LINE
  8
0
  6
CONTINUOUS
 62
2
 10
-19.875000
 20
13.443114
 11
19.875000
 21
13.443114
  0
LINE
  8
0
  6
CONTINUOUS
 62
2
 10
-19.875000
 20
16.143114
 11
19.875000
 21
16.143114
  0
ENDBLK
  0
BLOCK
  2
*D1
  8
0
 70
1
 10
0.0
 20
0.0
  0
LINE
  8
0
  6
CONTINUOUS
 62
1
 10
3457.890305
 20
3877.337941
 11
3012.926266
 21
3877.337941
  0
LINE
  8
0
  6
CONTINUOUS
 62
1
 10
3042.926266
 20
3877.337941
 11
3042.926266
 21
2881.337941
  0
LINE
  8
0
  6
CONTINUOUS
 62
1
 10
3042.926266
 20
3877.337941
 11
3037.926266
 21
3842.337941
  0
LINE
  8
0
  6
CONTINUOUS
 62
1
 10
3037.926266
 20
3842.337941
 11
3045.426266
 21
3842.337941
  0
LINE
  8
0
  6
CONTINUOUS
 62
1
 10
3045.426266
 20
3842.337941
 11
3042.926266
 21
3862.337941
  0
LINE
  8
0
  6
CONTINUOUS
 62
1
 10
3042.926266
 20
3862.337941
 11
3040.426266
 21
3842.337941
  0
LINE
  8
0
  6
CONTINUOUS
 62
1
 10
3040.426266
 20
3842.337941
 11
3047.926266
 21
3842.337941
  0
LINE
  8
0
  6
CONTINUOUS
 62
1
 10
3047.926266
 20
3842.337941
 11
3042.926266
 21
3877.337941
  0
LINE
  8
0
  6
CONTINUOUS
 62
1
 10
3042.926266
 20
2881.337941
 11
3047.926266
 21
2916.337941
  0
LINE
  8
0
  6
CONTINUOUS
 62
1
 10
3047.926266
 20
2916.337941
 11
3040.426266
 21
2916.337941
  0
LINE
  8
0
  6
CONTINUOUS
 62
1
 10
3040.426266
 20
2916.337941
 11
3042.926266
 21
2896.337941
  0
LINE
  8
0
  6
CONTINUOUS
 62
1
 10
3042.926266
 20
2896.337941
 11
3045.426266
 21
2916.337941
  0
LINE
  8
0
  6
CONTINUOUS
 62
1
 10
3045.426266
 20
2916.337941
 11
3037.926266
 21
2916.337941
  0
LINE
  8
0
  6
CONTINUOUS
 62
1
 10
3037.926266
 20
2916.337941
 11
3042.926266
 21
2881.337941
  0
LINE
  8
0
  6
CONTINUOUS
 62
1
 10
3012.926266
 20
2881.337941
 11
3562.904771
 21
2881.337941
  0
TEXT
  8
0
  6
CONTINUOUS
 62
1
 10
3025.426266
 20
3314.587941
 40
35.000000
  1
996.0
 50
90.000000
 41
1.000000
 51
0.000000
  7
STANDARD
  0
ENDBLK
  0
BLOCK
  2
*D2
  8
0
 70
1
 10
0.0
 20
0.0
  0
LINE
  8
0
  6
CONTINUOUS
 62
1
 10
4397.040305
 20
3550.487941
 11
4397.040305
 21
4093.533150
  0
LINE
  8
0
  6
CONTINUOUS
 62
1
 10
4397.040305
 20
4063.533150
 11
3201.440305
 21
4063.533150
  0
LINE
  8
0
  6
CONTINUOUS
 62
1
 10
4397.040305
 20
4063.533150
 11
4362.040305
 21
4068.533150
  0
LINE
  8
0
  6
CONTINUOUS
 62
1
 10
4362.040305
 20
4068.533150
 11
4362.040305
 21
4061.033150
  0
LINE
  8
0
  6
CONTINUOUS
 62
1
 10
4362.040305
 20
4061.033150
 11
4382.040305
 21
4063.533150
  0
LINE
  8
0
  6
CONTINUOUS
 62
1
 10
4382.040305
 20
4063.533150
 11
4362.040305
 21
4066.033150
  0
LINE
  8
0
  6
CONTINUOUS
 62
1
 10
4362.040305
 20
4066.033150
 11
4362.040305
 21
4058.533150
  0
LINE
  8
0
  6
CONTINUOUS
 62
1
 10
4362.040305
 20
4058.533150
 11
4397.040305
 21
4063.533150
  0
LINE
  8
0
  6
CONTINUOUS
 62
1
 10
3201.440305
 20
4063.533150
 11
3236.440305
 21
4058.533150
  0
LINE
  8
0
  6
CONTINUOUS
 62
1
 10
3236.440305
 20
4058.533150
 11
3236.440305
 21
4066.033150
  0
LINE
  8
0
  6
CONTINUOUS
 62
1
 10
3236.440305
 20
4066.033150
 11
3216.440305
 21
4063.533150
  0
LINE
  8
0
  6
CONTINUOUS
 62
1
 10
3216.440305
 20
4063.533150
 11
3236.440305
 21
4061.033150
  0
LINE
  8
0
  6
CONTINUOUS
 62
1
 10
3236.440305
 20
4061.033150
 11
3236.440305
 21
4068.533150
  0
LINE
  8
0
  6
CONTINUOUS
 62
1
 10
3236.440305
 20
4068.533150
 11
3201.440305
 21
4063.533150
  0
LINE
  8
0
  6
CONTINUOUS
 62
1
 10
3201.440305
 20
4093.533150
 11
3201.440305
 21
3550.487941
  0
TEXT
  8
0
  6
CONTINUOUS
 62
1
 10
3720.490305
 20
4081.033150
 40
35.000000
  1
1195.6
 50
0.000000
 41
1.000000
 51
0.000000
  7
STANDARD
  0
ENDBLK
  0
ENDSEC
  0
SECTION
  2
ENTITIES
  0
LINE
  8
0
  6
CONTINUOUS
 62
3
 10
4141.940305
 20
3874.162941
 11
4141.940305
 21
3873.337941
  0
LINE
  8
0
  6
CONTINUOUS
 62
3
 10
4141.940305
 20
3065.462941
 11
4141.940305
 21
3024.162941
  0
LINE
  8
0
  6
CONTINUOUS
 62
3
 10
4142.890305
 20
3024.162941
 11
4141.940305
 21
3024.162941
  0
LINE
  8
0
  6
CONTINUOUS
 62
3
 10
4141.940305
 20
3874.162941
 11
4142.890305
 21
3874.162941
  0
LINE
  8
0
  6
CONTINUOUS
 62
3
 10
4181.940305
 20
3024.162941
 11
4180.990305
 21
3024.162941
  0
LINE
  8
0
  6
CONTINUOUS
 62
3
 10
4181.940305
 20
3874.162941
 11
4181.940305
 21
3867.096200
  0
LINE
  8
0
  6
CONTINUOUS
 62
3
 10
4181.940305
 20
3621.337941
 11
4181.940305
 21
3556.512941
  0
LINE
  8
0
  6
CONTINUOUS
 62
3
 10
4181.940305
 20
3065.462941
 11
4181.940305
 21
3024.162941
  0
LINE
  8
0
  6
CONTINUOUS
 62
3
 10
4180.990305
 20
3874.162941
 11
4181.940305
 21
3874.162941
  0
LINE
  8
0
  6
CONTINUOUS
 62
3
 10
3486.940305
 20
3874.162941
 11
3486.940305
 21
3816.687941
  0
LINE
  8
0
  6
CONTINUOUS
 62
3
 10
3486.940305
 20
3787.987941
 11
3486.940305
 21
3646.337941
  0
LINE
  8
0
  6
CONTINUOUS
 62
3
 10
3486.940305
 20
3065.462941
 11
3486.940305
 21
3024.162941
  0
LINE
  8
0
  6
CONTINUOUS
 62
3
 10
3487.890305
 20
3024.162941
 11
3486.940305
 21
3024.162941
  0
LINE
  8
0
  6
CONTINUOUS
 62
3
 10
3486.940305
 20
3874.162941
 11
3487.890305
 21
3874.162941
  0
LINE
  8
0
  6
CONTINUOUS
 62
3
 10
3526.940305
 20
3024.162941
 11
3525.990305
 21
3024.162941
  0
LINE
  8
0
  6
CONTINUOUS
 62
3
 10
3526.940305
 20
3874.162941
 11
3526.940305
 21
3873.337941
  0
LINE
  8
0
  6
CONTINUOUS
 62
3
 10
3526.940305
 20
3065.462941
 11
3526.940305
 21
3024.162941
  0
LINE
  8
0
  6
CONTINUOUS
 62
3
 10
3525.990305
 20
3874.162941
 11
3526.940305
 21
3874.162941
  0
LINE
  8
0
  6
CONTINUOUS
 62
3
 10
4180.990305
 20
3020.987941
 11
4180.990305
 21
3024.162941
  0
LINE
  8
0
  6
CONTINUOUS
 62
3
 10
4142.890305
 20
3020.987941
 11
4142.890305
 21
3024.162941
  0
LINE
  8
0
  6
CONTINUOUS
 62
3
 10
4180.990305
 20
3020.987941
 11
4142.890305
 21
3020.987941
  0
LINE
  8
0
  6
CONTINUOUS
 62
3
 10
4180.990305
 20
3874.162941
 11
4180.990305
 21
3877.337941
  0
LINE
  8
0
  6
CONTINUOUS
 62
3
 10
4180.990305
 20
3877.337941
 11
4142.890305
 21
3877.337941
  0
LINE
  8
0
  6
CONTINUOUS
 62
3
 10
4142.890305
 20
3874.162941
 11
4142.890305
 21
3877.337941
  0
LINE
  8
0
  6
CONTINUOUS
 62
3
 10
3525.990305
 20
3020.987941
 11
3525.990305
 21
3024.162941
  0
LINE
  8
0
  6
CONTINUOUS
 62
3
 10
3487.890305
 20
3020.987941
 11
3487.890305
 21
3024.162941
  0
LINE
  8
0
  6
CONTINUOUS
 62
3
 10
3525.990305
 20
3020.987941
 11
3487.890305
 21
3020.987941
  0
LINE
  8
0
  6
CONTINUOUS
 62
3
 10
3525.990305
 20
3874.162941
 11
3525.990305
 21
3877.337941
  0
LINE
  8
0
  6
CONTINUOUS
 62
3
 10
3525.990305
 20
3877.337941
 11
3487.890305
 21
3877.337941
  0
LINE
  8
0
  6
CONTINUOUS
 62
3
 10
3487.890305
 20
3874.162941
 11
3487.890305
 21
3877.337941
  0
LINE
  8
0
  6
CONTINUOUS
 62
3
 10
4159.840305
 20
3595.137941
 11
4161.140305
 21
3596.437941
  0
LINE
  8
0
  6
CONTINUOUS
 62
3
 10
4161.140305
 20
3872.037941
 11
4161.140305
 21
3596.437941
  0
LINE
  8
0
  6
CONTINUOUS
 62
3
 10
4161.140305
 20
3872.037941
 11
4159.840305
 21
3873.337941
  0
LINE
  8
0
  6
CONTINUOUS
 62
3
 10
3509.040305
 20
3873.337941
 11
3507.740305
 21
3872.037941
  0
LINE
  8
0
  6
CONTINUOUS
 62
3
 10
3509.040305
 20
3873.337941
 11
4159.840305
 21
3873.337941
  0
LINE
  8
0
  6
CONTINUOUS
 62
3
 10
3507.740305
 20
3596.437941
 11
3509.040305
 21
3595.137941
  0
LINE
  8
0
  6
CONTINUOUS
 62
3
 10
4158.440305
 20
3595.137941
 11
4159.840305
 21
3595.137941
  0
LINE
  8
0
  6
CONTINUOUS
 62
3
 10
4158.440305
 20
3595.137941
 11
3509.040305
 21
3595.137941
  0
LINE
  8
0
  6
CONTINUOUS
 62
3
 10
3507.740305
 20
3596.437941
 11
3507.740305
 21
3872.037941
  0
LINE
  8
0
  6
CONTINUOUS
 62
3
 10
3509.440305
 20
3546.337941
 11
3509.440305
 21
3595.137941
  0
LINE
  8
0
  6
CONTINUOUS
 62
3
 10
3509.440305
 20
3544.337941
 11
3509.440305
 21
3546.337941
  0
LINE
  8
0
  6
CONTINUOUS
 62
3
 10
3506.440305
 20
3544.337941
 11
3509.440305
 21
3544.337941
  0
LINE
  8
0
  6
CONTINUOUS
 62
3
 10
3507.740305
 20
3646.337941
 11
3506.440305
 21
3646.337941
  0
LINE
  8
0
  6
CONTINUOUS
 62
3
 10
3957.054771
 20
2889.337941
 11
3957.054771
 21
2922.337941
  0
LINE
  8
0
  6
CONTINUOUS
 62
3
 10
4375.240305
 20
3076.987941
 11
4375.240305
 21
3065.462941
  0
LINE
  8
0
  6
CONTINUOUS
 62
3
 10
4375.240305
 20
3065.462941
 11
4345.240305
 21
3065.462941
  0
LINE
  8
0
  6
CONTINUOUS
 62
3
 10
3213.240305
 20
3065.462941
 11
3213.240305
 21
3076.987941
  0
LINE
  8
0
  6
CONTINUOUS
 62
3
 10
3214.240305
 20
3065.462941
 11
3213.240305
 21
3065.462941
  0
LINE
  8
0
  6
CONTINUOUS
 62
3
 10
3214.240305
 20
3065.462941
 11
3561.440305
 21
3065.462941
  0
LINE
  8
0
  6
CONTINUOUS
 62
3
 10
3983.904771
 20
3065.462941
 11
4345.240305
 21
3065.462941
  0
LINE
  8
0
  6
CONTINUOUS
 62
3
 10
4375.240305
 20
3534.512941
 11
4375.240305
 21
3522.987941
  0
LINE
  8
0
  6
CONTINUOUS
 62
3
 10
4345.240305
 20
3534.512941
 11
4375.240305
 21
3534.512941
  0
LINE
  8
0
  6
CONTINUOUS
 62
3
 10
3241.140242
 20
3534.512941
 11
3243.240305
 21
3534.512941
  0
LINE
  8
0
  6
CONTINUOUS
 62
3
 10
3213.240305
 20
3522.987941
 11
3213.240305
 21
3534.512941
  0
LINE
  8
0
  6
CONTINUOUS
 62
3
 10
3243.240305
 20
3534.512941
 11
3493.040305
 21
3534.512941
  0
LINE
  8
0
  6
CONTINUOUS
 62
3
 10
4223.040305
 20
3534.512941
 11
4345.240305
 21
3534.512941
  0
LINE
  8
0
  6
CONTINUOUS
 62
3
 10
4223.040305
 20
3537.212941
 11
4223.040305
 21
3534.512941
  0
LINE
  8
0
  6
CONTINUOUS
 62
3
 10
3561.440305
 20
3534.512941
 11
3493.040305
 21
3534.512941
  0
LINE
  8
0
  6
CONTINUOUS
 62
3
 10
4223.040305
 20
3540.512941
 11
4223.040305
 21
3537.212941
  0
LINE
  8
0
  6
CONTINUOUS
 62
3
 10
3982.450586
 20
3556.512941
 11
4195.327492
 21
3556.512941
  0
LINE
  8
0
  6
CONTINUOUS
 62
3
 10
4195.327492
 20
3556.512941
 11
4223.040305
 21
3540.512941
  0
LINE
  8
0
  6
CONTINUOUS
 62
3
 10
4383.040305
 20
3445.487941
 11
4383.040305
 21
3154.487941
  0
LINE
  8
0
  6
CONTINUOUS
 62
3
 10
3228.040305
 20
3154.487941
 11
3228.040305
 21
3445.487941
  0
LINE
  8
0
  6
CONTINUOUS
 62
3
 10
4375.240305
 20
3522.987941
 11
4394.240305
 21
3522.987941
  0
LINE
  8
0
  6
CONTINUOUS
 62
3
 10
4394.240305
 20
3522.987941
 11
4394.299829
 21
3520.487941
  0
LINE
  8
0
  6
CONTINUOUS
 62
3
 10
4394.240305
 20
3076.987941
 11
4375.240305
 21
3076.987941
  0
LINE
  8
0
  6
CONTINUOUS
 62
3
 10
4394.240305
 20
3076.987941
 11
4394.299829
 21
3079.487941
  0
LINE
  8
0
  6
CONTINUOUS
 62
3
 10
3213.240305
 20
3076.987941
 11
3204.240305
 21
3076.987941
  0
LINE
  8
0
  6
CONTINUOUS
 62
3
 10
3204.240305
 20
3076.987941
 11
3204.180782
 21
3079.487941
  0
LINE
  8
0
  6
CONTINUOUS
 62
3
 10
3204.240305
 20
3522.987941
 11
3213.240305
 21
3522.987941
  0
LINE
  8
0
  6
CONTINUOUS
 62
3
 10
3204.240305
 20
3522.987941
 11
3204.180782
 21
3520.487941
  0
LINE
  8
0
  6
CONTINUOUS
 62
3
 10
4318.040305
 20
3534.450441
 11
4223.040305
 21
3534.512941
  0
LINE
  8
0
  6
CONTINUOUS
 62
3
 10
3561.440305
 20
3534.450441
 11
3273.040305
 21
3534.450441
  0
LINE
  8
0
  6
CONTINUOUS
 62
3
 10
3201.240369
 20
3683.012941
 11
3201.240369
 21
3534.512941
  0
LINE
  8
0
  6
CONTINUOUS
 62
3
 10
3201.240369
 20
3534.512941
 11
3203.940369
 21
3534.512941
  0
LINE
  8
0
  6
CONTINUOUS
 62
3
 10
3201.240369
 20
3683.012941
 11
3202.540369
 21
3683.012941
  0
LINE
  8
0
  6
CONTINUOUS
 62
3
 10
3241.140242
 20
3534.512941
 11
3203.940369
 21
3534.512941
  0
LINE
  8
0
  6
CONTINUOUS
 62
3
 10
3467.240369
 20
3534.512941
 11
3467.240369
 21
3683.012941
  0
LINE
  8
0
  6
CONTINUOUS
 62
3
 10
3467.240369
 20
3683.012941
 11
3465.940369
 21
3683.012941
  0
LINE
  8
0
  6
CONTINUOUS
 62
3
 10
3205.240369
 20
3685.712941
 11
3463.240369
 21
3685.712941
  0
ARC
  8
0
  6
CONTINUOUS
 62
3
 10
3463.240369
 20
3683.012941
 40
2.700000
 50
0.000000
 51
90.000000
  0
ARC
  8
0
  6
CONTINUOUS
 62
3
 10
3205.240369
 20
3683.012941
 40
2.700000
 50
90.000000
 51
180.000000
  0
LINE
  8
0
  6
CONTINUOUS
 62
3
 10
4375.240305
 20
3074.987941
 11
4375.240305
 21
3075.475441
  0
LINE
  8
0
  6
CONTINUOUS
 62
3
 10
3249.240305
 20
3079.487941
 11
3201.440305
 21
3079.487941
  0
LINE
  8
0
  6
CONTINUOUS
 62
3
 10
4397.040305
 20
3079.487941
 11
4349.240305
 21
3079.487941
  0
LINE
  8
0
  6
CONTINUOUS
 62
3
 10
3249.240305
 20
3079.487941
 11
3561.440305
 21
3079.487941
  0
LINE
  8
0
  6
CONTINUOUS
 62
3
 10
3983.904771
 20
3079.487941
 11
4349.240305
 21
3079.487941
  0
LINE
  8
0
  6
CONTINUOUS
 62
3
 10
3249.240305
 20
3154.487941
 11
3201.440305
 21
3154.487941
  0
LINE
  8
0
  6
CONTINUOUS
 62
3
 10
3249.240305
 20
3154.487941
 11
3561.440305
 21
3154.487941
  0
LINE
  8
0
  6
CONTINUOUS
 62
3
 10
3983.904771
 20
3154.487941
 11
4349.240305
 21
3154.487941
  0
LINE
  8
0
  6
CONTINUOUS
 62
3
 10
4397.040305
 20
3154.487941
 11
4349.240305
 21
3154.487941
  0
LINE
  8
0
  6
CONTINUOUS
 62
3
 10
3201.440305
 20
3154.487941
 11
3201.440305
 21
3079.487941
  0
LINE
  8
0
  6
CONTINUOUS
 62
3
 10
4397.040305
 20
3154.487941
 11
4397.040305
 21
3079.487941
  0
LINE
  8
0
  6
CONTINUOUS
 62
3
 10
3249.240305
 20
3445.487941
 11
3201.440305
 21
3445.487941
  0
LINE
  8
0
  6
CONTINUOUS
 62
3
 10
4397.040305
 20
3445.487941
 11
4349.240305
 21
3445.487941
  0
LINE
  8
0
  6
CONTINUOUS
 62
3
 10
3249.240305
 20
3445.487941
 11
3561.440305
 21
3445.487941
  0
LINE
  8
0
  6
CONTINUOUS
 62
3
 10
3983.904771
 20
3445.487941
 11
4349.240305
 21
3445.487941
  0
LINE
  8
0
  6
CONTINUOUS
 62
3
 10
3249.240305
 20
3520.487941
 11
3201.440305
 21
3520.487941
  0
LINE
  8
0
  6
CONTINUOUS
 62
3
 10
3249.240305
 20
3520.487941
 11
3561.440305
 21
3520.487941
  0
LINE
  8
0
  6
CONTINUOUS
 62
3
 10
3983.904771
 20
3520.487941
 11
4349.240305
 21
3520.487941
  0
LINE
  8
0
  6
CONTINUOUS
 62
3
 10
4397.040305
 20
3520.487941
 11
4349.240305
 21
3520.487941
  0
LINE
  8
0
  6
CONTINUOUS
 62
3
 10
3201.440305
 20
3520.487941
 11
3201.440305
 21
3445.487941
  0
LINE
  8
0
  6
CONTINUOUS
 62
3
 10
4397.040305
 20
3520.487941
 11
4397.040305
 21
3445.487941
  0
ARC
  8
0
  6
CONTINUOUS
 62
3
 10
3974.032308
 20
3551.115478
 40
10.000000
 50
9.160482
 51
99.160482
  0
LINE
  8
0
  6
CONTINUOUS
 62
3
 10
3983.904771
 20
3552.707481
 11
3983.904771
 21
2932.337941
  0
LINE
  8
0
  6
CONTINUOUS
 62
3
 10
3562.904771
 20
2932.337941
 11
3561.440305
 21
3560.987941
  0
ARC
  8
0
  6
CONTINUOUS
 62
3
 10
3572.904771
 20
2932.337941
 40
10.000000
 50
180.000000
 51
270.000000
  0
ARC
  8
0
  6
CONTINUOUS
 62
3
 10
3973.904771
 20
2932.337941
 40
10.000000
 50
270.000000
 51
0.000000
  0
LINE
  8
0
  6
CONTINUOUS
 62
3
 10
3972.440305
 20
3560.987941
 11
3546.440305
 21
3560.987941
  0
LINE
  8
0
  6
CONTINUOUS
 62
3
 10
3546.440305
 20
3560.987941
 11
3542.940305
 21
3560.837941
  0
LINE
  8
0
  6
CONTINUOUS
 62
3
 10
4161.140305
 20
3823.037941
 11
4170.940305
 21
3823.037941
  0
LINE
  8
0
  6
CONTINUOUS
 62
3
 10
4392.940305
 20
3821.056618
 11
4392.940305
 21
3823.037941
  0
LINE
  8
0
  6
CONTINUOUS
 62
3
 10
4382.940305
 20
3823.037941
 11
4392.940305
 21
3823.037941
  0
LINE
  8
0
  6
CONTINUOUS
 62
3
 10
4382.940305
 20
3823.037941
 11
4170.940305
 21
3823.037941
  0
ARC
  8
0
  6
CONTINUOUS
 62
3
 10
4391.740305
 20
3818.637941
 40
2.700000
 50
0.000000
 51
63.612200
  0
ARC
  8
0
  6
CONTINUOUS
 62
3
 10
4391.740305
 20
3744.140343
 40
2.700000
 50
300.000000
 51
0.000000
  0
LINE
  8
0
  6
CONTINUOUS
 62
3
 10
4394.440305
 20
3818.637941
 11
4394.440305
 21
3744.140343
  0
ARC
  8
0
  6
CONTINUOUS
 62
3
 10
4183.716843
 20
3624.037941
 40
2.700000
 50
270.000000
 51
300.000000
  0
ARC
  8
0
  6
CONTINUOUS
 62
3
 10
4162.140305
 20
3624.037941
 40
2.700000
 50
248.261539
 51
270.000000
  0
LINE
  8
0
  6
CONTINUOUS
 62
3
 10
4162.140305
 20
3621.337941
 11
4183.716843
 21
3621.337941
  0
LINE
  8
0
  6
CONTINUOUS
 62
3
 10
4393.090305
 20
3741.802074
 11
4363.123746
 21
3724.500873
  0
LINE
  8
0
  6
CONTINUOUS
 62
3
 10
4220.997504
 20
3636.670746
 11
4362.159644
 21
3718.170746
  0
LINE
  8
0
  6
CONTINUOUS
 62
3
 10
4363.123746
 20
3724.500873
 11
4363.623746
 21
3723.634848
  0
LINE
  8
0
  6
CONTINUOUS
 62
3
 10
4215.033402
 20
3639.000873
 11
4215.533402
 21
3638.134848
  0
ARC
  8
0
  6
CONTINUOUS
 62
3
 10
4218.997504
 20
3640.134848
 40
4.000000
 50
210.000000
 51
300.000000
  0
ARC
  8
0
  6
CONTINUOUS
 62
3
 10
4360.159644
 20
3721.634848
 40
4.000000
 50
300.000000
 51
30.000000
  0
ARC
  8
0
  6
CONTINUOUS
 62
3
 10
4161.940305
 20
3837.162941
 40
36.000000
 50
336.898505
 51
56.251011
  0
LINE
  8
0
  6
CONTINUOUS
 62
3
 10
3524.940305
 20
2945.073178
 11
3524.940305
 21
2959.342993
  0
LINE
  8
0
  6
CONTINUOUS
 62
3
 10
3521.940305
 20
2940.969427
 11
3491.940305
 21
2940.969427
  0
LINE
  8
0
  6
CONTINUOUS
 62
3
 10
3488.940305
 20
2959.342993
 11
3488.940305
 21
2945.073178
  0
LINE
  8
0
  6
CONTINUOUS
 62
3
 10
3522.502784
 20
2959.342993
 11
3524.894319
 21
2959.342993
  0
LINE
  8
0
  6
CONTINUOUS
 62
3
 10
3532.570306
 20
3009.807922
 11
3532.570306
 21
2962.482262
  0
LINE
  8
0
  6
CONTINUOUS
 62
3
 10
3481.310305
 20
3009.807922
 11
3481.310305
 21
2962.482210
  0
POLYLINE
  8
0
  6
CONTINUOUS
 62
3
 66
1
 70
2
  0
VERTEX
  8
0
 10
3485.310305
 20
2959.342994
 70
0
 42
0.020785
  0
VERTEX
  8
0
 10
3483.594191
 20
2959.283802
 70
0
  0
SEQEND
  0
LINE
  8
0
  6
CONTINUOUS
 62
3
 10
3485.310305
 20
2959.342993
 11
3486.018213
 21
2959.342993
  0
LINE
  8
0
  6
CONTINUOUS
 62
3
 10
3486.018213
 20
2959.342993
 11
3486.036400
 21
2959.342993
  0
LINE
  8
0
  6
CONTINUOUS
 62
3
 10
3486.036400
 20
2959.342993
 11
3488.986292
 21
2959.342993
  0
LINE
  8
0
  6
CONTINUOUS
 62
3
 10
3488.986292
 20
2959.342993
 11
3491.377827
 21
2959.342993
  0
LINE
  8
0
  6
CONTINUOUS
 62
3
 10
3491.377827
 20
2959.342993
 11
3522.502784
 21
2959.342993
  0
LINE
  8
0
  6
CONTINUOUS
 62
3
 10
3524.894319
 20
2959.342993
 11
3527.844211
 21
2959.342993
  0
LINE
  8
0
  6
CONTINUOUS
 62
3
 10
3527.844211
 20
2959.342993
 11
3527.862398
 21
2959.342993
  0
LINE
  8
0
  6
CONTINUOUS
 62
3
 10
3527.862398
 20
2959.342993
 11
3528.570305
 21
2959.342993
  0
POLYLINE
  8
0
  6
CONTINUOUS
 62
3
 66
1
 70
2
  0
VERTEX
  8
0
 10
3530.286420
 20
2959.283802
 70
0
 42
0.020785
  0
VERTEX
  8
0
 10
3528.570305
 20
2959.342994
 70
0
  0
SEQEND
  0
LINE
  8
0
  6
CONTINUOUS
 62
3
 10
3481.342888
 20
2960.060065
 11
3481.405933
 21
2961.854983
  0
LINE
  8
0
  6
CONTINUOUS
 62
3
 10
3481.405933
 20
2961.854983
 11
3481.461767
 21
2963.650581
  0
LINE
  8
0
  6
CONTINUOUS
 62
3
 10
3481.461767
 20
2963.650581
 11
3481.509958
 21
2965.447309
  0
LINE
  8
0
  6
CONTINUOUS
 62
3
 10
3481.509958
 20
2965.447309
 11
3481.550535
 21
2967.245402
  0
LINE
  8
0
  6
CONTINUOUS
 62
3
 10
3481.550535
 20
2967.245402
 11
3481.583832
 21
2969.044843
  0
LINE
  8
0
  6
CONTINUOUS
 62
3
 10
3481.583832
 20
2969.044843
 11
3481.610186
 21
2970.845612
  0
LINE
  8
0
  6
CONTINUOUS
 62
3
 10
3481.610186
 20
2970.845612
 11
3481.630108
 21
2972.647647
  0
LINE
  8
0
  6
CONTINUOUS
 62
3
 10
3481.630108
 20
2972.647647
 11
3481.644577
 21
2974.450729
  0
LINE
  8
0
  6
CONTINUOUS
 62
3
 10
3481.644577
 20
2974.450729
 11
3481.654008
 21
2976.254750
  0
LINE
  8
0
  6
CONTINUOUS
 62
3
 10
3481.654008
 20
2976.254750
 11
3481.658766
 21
2978.059617
  0
LINE
  8
0
  6
CONTINUOUS
 62
3
 10
3481.658766
 20
2978.059617
 11
3481.659213
 21
2979.865237
  0
LINE
  8
0
  6
CONTINUOUS
 62
3
 10
3481.659213
 20
2979.865237
 11
3481.655712
 21
2981.671514
  0
LINE
  8
0
  6
CONTINUOUS
 62
3
 10
3481.655712
 20
2981.671514
 11
3481.648626
 21
2983.478355
  0
LINE
  8
0
  6
CONTINUOUS
 62
3
 10
3481.648626
 20
2983.478355
 11
3481.638318
 21
2985.285666
  0
LINE
  8
0
  6
CONTINUOUS
 62
3
 10
3481.638318
 20
2985.285666
 11
3481.625152
 21
2987.093353
  0
LINE
  8
0
  6
CONTINUOUS
 62
3
 10
3481.625152
 20
2987.093353
 11
3481.609489
 21
2988.901322
  0
LINE
  8
0
  6
CONTINUOUS
 62
3
 10
3481.609489
 20
2988.901322
 11
3481.591693
 21
2990.709478
  0
LINE
  8
0
  6
CONTINUOUS
 62
3
 10
3481.591693
 20
2990.709478
 11
3481.572127
 21
2992.517729
  0
LINE
  8
0
  6
CONTINUOUS
 62
3
 10
3481.572127
 20
2992.517729
 11
3481.551154
 21
2994.325979
  0
LINE
  8
0
  6
CONTINUOUS
 62
3
 10
3481.551154
 20
2994.325979
 11
3481.528982
 21
2996.134211
  0
LINE
  8
0
  6
CONTINUOUS
 62
3
 10
3481.528982
 20
2996.134211
 11
3481.505466
 21
2997.942550
  0
LINE
  8
0
  6
CONTINUOUS
 62
3
 10
3481.505466
 20
2997.942550
 11
3481.480682
 21
2999.750994
  0
LINE
  8
0
  6
CONTINUOUS
 62
3
 10
3481.480682
 20
2999.750994
 11
3481.454719
 21
3001.559532
  0
LINE
  8
0
  6
CONTINUOUS
 62
3
 10
3481.454719
 20
3001.559532
 11
3481.427665
 21
3003.368153
  0
LINE
  8
0
  6
CONTINUOUS
 62
3
 10
3481.427665
 20
3003.368153
 11
3481.399608
 21
3005.176846
  0
LINE
  8
0
  6
CONTINUOUS
 62
3
 10
3481.399608
 20
3005.176846
 11
3481.370637
 21
3006.985602
  0
LINE
  8
0
  6
CONTINUOUS
 62
3
 10
3481.370637
 20
3006.985602
 11
3481.340841
 21
3008.794410
  0
LINE
  8
0
  6
CONTINUOUS
 62
3
 10
3481.340841
 20
3008.794410
 11
3481.310307
 21
3010.603249
  0
LINE
  8
0
  6
CONTINUOUS
 62
3
 10
3532.537723
 20
2960.060065
 11
3532.541365
 21
2959.962015
  0
LINE
  8
0
  6
CONTINUOUS
 62
3
 10
3532.541365
 20
2959.962015
 11
3532.545026
 21
2959.863965
  0
LINE
  8
0
  6
CONTINUOUS
 62
3
 10
3532.545026
 20
2959.863965
 11
3532.548708
 21
2959.765916
  0
LINE
  8
0
  6
CONTINUOUS
 62
3
 10
3532.548708
 20
2959.765916
 11
3532.552408
 21
2959.667868
  0
LINE
  8
0
  6
CONTINUOUS
 62
3
 10
3532.552408
 20
2959.667868
 11
3532.556128
 21
2959.569821
  0
LINE
  8
0
  6
CONTINUOUS
 62
3
 10
3532.556128
 20
2959.569821
 11
3532.559868
 21
2959.471774
  0
LINE
  8
0
  6
CONTINUOUS
 62
3
 10
3532.559868
 20
2959.471774
 11
3532.563626
 21
2959.373728
  0
LINE
  8
0
  6
CONTINUOUS
 62
3
 10
3532.563626
 20
2959.373728
 11
3532.567403
 21
2959.275693
  0
LINE
  8
0
  6
CONTINUOUS
 62
3
 10
3532.570304
 20
3010.603259
 11
3532.460769
 21
3004.272931
  0
LINE
  8
0
  6
CONTINUOUS
 62
3
 10
3532.460769
 20
3004.272931
 11
3532.356481
 21
2997.940872
  0
LINE
  8
0
  6
CONTINUOUS
 62
3
 10
3532.356481
 20
2997.940872
 11
3532.269885
 21
2991.609723
  0
LINE
  8
0
  6
CONTINUOUS
 62
3
 10
3532.269885
 20
2991.609723
 11
3532.213421
 21
2985.282125
  0
LINE
  8
0
  6
CONTINUOUS
 62
3
 10
3532.213421
 20
2985.282125
 11
3532.199530
 21
2978.960718
  0
LINE
  8
0
  6
CONTINUOUS
 62
3
 10
3532.199530
 20
2978.960718
 11
3532.212439
 21
2975.803163
  0
LINE
  8
0
  6
CONTINUOUS
 62
3
 10
3532.212439
 20
2975.803163
 11
3532.240656
 21
2972.648146
  0
LINE
  8
0
  6
CONTINUOUS
 62
3
 10
3532.240656
 20
2972.648146
 11
3532.285738
 21
2969.495997
  0
LINE
  8
0
  6
CONTINUOUS
 62
3
 10
3532.285738
 20
2969.495997
 11
3532.349240
 21
2966.347048
  0
LINE
  8
0
  6
CONTINUOUS
 62
3
 10
3532.349240
 20
2966.347048
 11
3532.432716
 21
2963.201637
  0
LINE
  8
0
  6
CONTINUOUS
 62
3
 10
3532.432716
 20
2963.201637
 11
3532.537723
 21
2960.060075
  0
LINE
  8
0
  6
CONTINUOUS
 62
3
 10
3481.313208
 20
2959.275683
 11
3481.316985
 21
2959.373728
  0
LINE
  8
0
  6
CONTINUOUS
 62
3
 10
3481.316985
 20
2959.373728
 11
3481.320744
 21
2959.471774
  0
LINE
  8
0
  6
CONTINUOUS
 62
3
 10
3481.320744
 20
2959.471774
 11
3481.324483
 21
2959.569821
  0
LINE
  8
0
  6
CONTINUOUS
 62
3
 10
3481.324483
 20
2959.569821
 11
3481.328203
 21
2959.667868
  0
LINE
  8
0
  6
CONTINUOUS
 62
3
 10
3481.328203
 20
2959.667868
 11
3481.331904
 21
2959.765916
  0
LINE
  8
0
  6
CONTINUOUS
 62
3
 10
3481.331904
 20
2959.765916
 11
3481.335585
 21
2959.863965
  0
LINE
  8
0
  6
CONTINUOUS
 62
3
 10
3481.335585
 20
2959.863965
 11
3481.339246
 21
2959.962015
  0
LINE
  8
0
  6
CONTINUOUS
 62
3
 10
3481.339246
 20
2959.962015
 11
3481.342888
 21
2960.060056
  0
POLYLINE
  8
0
  6
CONTINUOUS
 62
3
 66
1
 70
2
  0
VERTEX
  8
0
 10
3521.940305
 20
2940.969426
 70
0
 42
0.411069
  0
VERTEX
  8
0
 10
3524.940305
 20
2943.559638
 70
0
  0
SEQEND
  0
LINE
  8
0
  6
CONTINUOUS
 62
3
 10
3524.940305
 20
2943.559638
 11
3524.940305
 21
2945.073178
  0
POLYLINE
  8
0
  6
CONTINUOUS
 62
3
 66
1
 70
2
  0
VERTEX
  8
0
 10
3488.940305
 20
2943.559638
 70
0
 42
0.411069
  0
VERTEX
  8
0
 10
3491.940305
 20
2940.969426
 70
0
  0
SEQEND
  0
LINE
  8
0
  6
CONTINUOUS
 62
3
 10
3488.940305
 20
2945.073178
 11
3488.940305
 21
2943.559638
  0
LINE
  8
0
  6
CONTINUOUS
 62
3
 10
3532.570305
 20
3035.740252
 11
3532.570305
 21
3010.892670
  0
LINE
  8
0
  6
CONTINUOUS
 62
3
 10
3481.310305
 20
3035.740252
 11
3481.310305
 21
3010.892670
  0
LINE
  8
0
  6
CONTINUOUS
 62
3
 10
3483.270793
 20
2959.261082
 11
3483.288261
 21
2959.261250
  0
LINE
  8
0
  6
CONTINUOUS
 62
3
 10
3483.288261
 20
2959.261250
 11
3483.307555
 21
2959.261776
  0
LINE
  8
0
  6
CONTINUOUS
 62
3
 10
3483.307555
 20
2959.261776
 11
3483.328665
 21
2959.262655
  0
LINE
  8
0
  6
CONTINUOUS
 62
3
 10
3483.328665
 20
2959.262655
 11
3483.351553
 21
2959.263874
  0
LINE
  8
0
  6
CONTINUOUS
 62
3
 10
3483.351553
 20
2959.263874
 11
3483.376153
 21
2959.265415
  0
LINE
  8
0
  6
CONTINUOUS
 62
3
 10
3483.376153
 20
2959.265415
 11
3483.402441
 21
2959.267260
  0
LINE
  8
0
  6
CONTINUOUS
 62
3
 10
3483.402441
 20
2959.267260
 11
3483.430391
 21
2959.269393
  0
LINE
  8
0
  6
CONTINUOUS
 62
3
 10
3483.430391
 20
2959.269393
 11
3483.459978
 21
2959.271797
  0
LINE
  8
0
  6
CONTINUOUS
 62
3
 10
3483.459978
 20
2959.271797
 11
3483.491177
 21
2959.274456
  0
LINE
  8
0
  6
CONTINUOUS
 62
3
 10
3483.491177
 20
2959.274456
 11
3483.523962
 21
2959.277355
  0
LINE
  8
0
  6
CONTINUOUS
 62
3
 10
3483.523962
 20
2959.277355
 11
3483.558308
 21
2959.280475
  0
LINE
  8
0
  6
CONTINUOUS
 62
3
 10
3483.558308
 20
2959.280475
 11
3483.594185
 21
2959.283801
  0
LINE
  8
0
  6
CONTINUOUS
 62
3
 10
3481.313703
 20
2959.272149
 11
3481.313613
 21
2959.272425
  0
LINE
  8
0
  6
CONTINUOUS
 62
3
 10
3481.313613
 20
2959.272425
 11
3481.313532
 21
2959.272704
  0
LINE
  8
0
  6
CONTINUOUS
 62
3
 10
3481.313532
 20
2959.272704
 11
3481.313459
 21
2959.272987
  0
LINE
  8
0
  6
CONTINUOUS
 62
3
 10
3481.313459
 20
2959.272987
 11
3481.313396
 21
2959.273273
  0
LINE
  8
0
  6
CONTINUOUS
 62
3
 10
3481.313396
 20
2959.273273
 11
3481.313341
 21
2959.273562
  0
LINE
  8
0
  6
CONTINUOUS
 62
3
 10
3481.313341
 20
2959.273562
 11
3481.313295
 21
2959.273855
  0
LINE
  8
0
  6
CONTINUOUS
 62
3
 10
3481.313295
 20
2959.273855
 11
3481.313258
 21
2959.274151
  0
LINE
  8
0
  6
CONTINUOUS
 62
3
 10
3481.313258
 20
2959.274151
 11
3481.313230
 21
2959.274451
  0
LINE
  8
0
  6
CONTINUOUS
 62
3
 10
3481.313230
 20
2959.274451
 11
3481.313211
 21
2959.274754
  0
LINE
  8
0
  6
CONTINUOUS
 62
3
 10
3481.313211
 20
2959.274754
 11
3481.313201
 21
2959.275060
  0
LINE
  8
0
  6
CONTINUOUS
 62
3
 10
3481.313201
 20
2959.275060
 11
3481.313200
 21
2959.275370
  0
LINE
  8
0
  6
CONTINUOUS
 62
3
 10
3481.313200
 20
2959.275370
 11
3481.313208
 21
2959.275682
  0
LINE
  8
0
  6
CONTINUOUS
 62
3
 10
3481.378223
 20
2961.041371
 11
3481.373827
 21
2961.104463
  0
LINE
  8
0
  6
CONTINUOUS
 62
3
 10
3481.373827
 20
2961.104463
 11
3481.369266
 21
2961.168535
  0
LINE
  8
0
  6
CONTINUOUS
 62
3
 10
3481.369266
 20
2961.168535
 11
3481.364588
 21
2961.233579
  0
LINE
  8
0
  6
CONTINUOUS
 62
3
 10
3481.364588
 20
2961.233579
 11
3481.359842
 21
2961.299591
  0
LINE
  8
0
  6
CONTINUOUS
 62
3
 10
3481.359842
 20
2961.299591
 11
3481.355079
 21
2961.366564
  0
LINE
  8
0
  6
CONTINUOUS
 62
3
 10
3481.355079
 20
2961.366564
 11
3481.350346
 21
2961.434493
  0
LINE
  8
0
  6
CONTINUOUS
 62
3
 10
3481.350346
 20
2961.434493
 11
3481.345696
 21
2961.503374
  0
LINE
  8
0
  6
CONTINUOUS
 62
3
 10
3481.345696
 20
2961.503374
 11
3481.341171
 21
2961.573203
  0
LINE
  8
0
  6
CONTINUOUS
 62
3
 10
3481.341171
 20
2961.573203
 11
3481.336811
 21
2961.643976
  0
LINE
  8
0
  6
CONTINUOUS
 62
3
 10
3481.336811
 20
2961.643976
 11
3481.332657
 21
2961.715688
  0
LINE
  8
0
  6
CONTINUOUS
 62
3
 10
3481.332657
 20
2961.715688
 11
3481.328750
 21
2961.788335
  0
LINE
  8
0
  6
CONTINUOUS
 62
3
 10
3481.328750
 20
2961.788335
 11
3481.325130
 21
2961.861913
  0
LINE
  8
0
  6
CONTINUOUS
 62
3
 10
3481.325130
 20
2961.861913
 11
3481.321838
 21
2961.936415
  0
LINE
  8
0
  6
CONTINUOUS
 62
3
 10
3481.321838
 20
2961.936415
 11
3481.318911
 21
2962.011792
  0
LINE
  8
0
  6
CONTINUOUS
 62
3
 10
3481.318911
 20
2962.011792
 11
3481.316374
 21
2962.088027
  0
LINE
  8
0
  6
CONTINUOUS
 62
3
 10
3481.316374
 20
2962.088027
 11
3481.314248
 21
2962.165124
  0
LINE
  8
0
  6
CONTINUOUS
 62
3
 10
3481.314248
 20
2962.165124
 11
3481.312557
 21
2962.243087
  0
LINE
  8
0
  6
CONTINUOUS
 62
3
 10
3481.312557
 20
2962.243087
 11
3481.311321
 21
2962.321919
  0
LINE
  8
0
  6
CONTINUOUS
 62
3
 10
3481.311321
 20
2962.321919
 11
3481.310563
 21
2962.401626
  0
LINE
  8
0
  6
CONTINUOUS
 62
3
 10
3481.310563
 20
2962.401626
 11
3481.310306
 21
2962.482203
  0
LINE
  8
0
  6
CONTINUOUS
 62
3
 10
3532.566908
 20
2959.272149
 11
3532.566002
 21
2959.270272
  0
LINE
  8
0
  6
CONTINUOUS
 62
3
 10
3532.566002
 20
2959.270272
 11
3532.564640
 21
2959.268569
  0
LINE
  8
0
  6
CONTINUOUS
 62
3
 10
3532.564640
 20
2959.268569
 11
3532.562823
 21
2959.267041
  0
LINE
  8
0
  6
CONTINUOUS
 62
3
 10
3532.562823
 20
2959.267041
 11
3532.560552
 21
2959.265687
  0
LINE
  8
0
  6
CONTINUOUS
 62
3
 10
3532.560552
 20
2959.265687
 11
3532.557829
 21
2959.264507
  0
LINE
  8
0
  6
CONTINUOUS
 62
3
 10
3532.557829
 20
2959.264507
 11
3532.554654
 21
2959.263501
  0
LINE
  8
0
  6
CONTINUOUS
 62
3
 10
3532.554654
 20
2959.263501
 11
3532.551029
 21
2959.262669
  0
LINE
  8
0
  6
CONTINUOUS
 62
3
 10
3532.551029
 20
2959.262669
 11
3532.546955
 21
2959.262010
  0
LINE
  8
0
  6
CONTINUOUS
 62
3
 10
3532.546955
 20
2959.262010
 11
3532.542434
 21
2959.261523
  0
LINE
  8
0
  6
CONTINUOUS
 62
3
 10
3532.542434
 20
2959.261523
 11
3532.537466
 21
2959.261208
  0
LINE
  8
0
  6
CONTINUOUS
 62
3
 10
3532.537466
 20
2959.261208
 11
3532.532053
 21
2959.261064
  0
LINE
  8
0
  6
CONTINUOUS
 62
3
 10
3532.532053
 20
2959.261064
 11
3532.526196
 21
2959.261091
  0
LINE
  8
0
  6
CONTINUOUS
 62
3
 10
3532.526196
 20
2959.261091
 11
3532.519895
 21
2959.261287
  0
LINE
  8
0
  6
CONTINUOUS
 62
3
 10
3532.519895
 20
2959.261287
 11
3532.513153
 21
2959.261653
  0
LINE
  8
0
  6
CONTINUOUS
 62
3
 10
3532.513153
 20
2959.261653
 11
3532.505970
 21
2959.262187
  0
LINE
  8
0
  6
CONTINUOUS
 62
3
 10
3532.505970
 20
2959.262187
 11
3532.498352
 21
2959.262888
  0
LINE
  8
0
  6
CONTINUOUS
 62
3
 10
3532.498352
 20
2959.262888
 11
3532.490302
 21
2959.263756
  0
LINE
  8
0
  6
CONTINUOUS
 62
3
 10
3532.490302
 20
2959.263756
 11
3532.481824
 21
2959.264787
  0
LINE
  8
0
  6
CONTINUOUS
 62
3
 10
3532.481824
 20
2959.264787
 11
3532.472918
 21
2959.265982
  0
LINE
  8
0
  6
CONTINUOUS
 62
3
 10
3532.472918
 20
2959.265982
 11
3532.463587
 21
2959.267338
  0
LINE
  8
0
  6
CONTINUOUS
 62
3
 10
3532.463587
 20
2959.267338
 11
3532.453833
 21
2959.268853
  0
LINE
  8
0
  6
CONTINUOUS
 62
3
 10
3532.453833
 20
2959.268853
 11
3532.443659
 21
2959.270527
  0
LINE
  8
0
  6
CONTINUOUS
 62
3
 10
3532.443659
 20
2959.270527
 11
3532.433065
 21
2959.272357
  0
LINE
  8
0
  6
CONTINUOUS
 62
3
 10
3532.433065
 20
2959.272357
 11
3532.422054
 21
2959.274342
  0
LINE
  8
0
  6
CONTINUOUS
 62
3
 10
3532.422054
 20
2959.274342
 11
3532.410629
 21
2959.276480
  0
LINE
  8
0
  6
CONTINUOUS
 62
3
 10
3532.410629
 20
2959.276480
 11
3532.398790
 21
2959.278771
  0
LINE
  8
0
  6
CONTINUOUS
 62
3
 10
3532.398790
 20
2959.278771
 11
3532.386541
 21
2959.281212
  0
LINE
  8
0
  6
CONTINUOUS
 62
3
 10
3532.386541
 20
2959.281212
 11
3532.373886
 21
2959.283801
  0
LINE
  8
0
  6
CONTINUOUS
 62
3
 10
3530.286420
 20
2959.283802
 11
3530.322301
 21
2959.280475
  0
LINE
  8
0
  6
CONTINUOUS
 62
3
 10
3530.322301
 20
2959.280475
 11
3530.356649
 21
2959.277354
  0
LINE
  8
0
  6
CONTINUOUS
 62
3
 10
3530.356649
 20
2959.277354
 11
3530.389440
 21
2959.274454
  0
LINE
  8
0
  6
CONTINUOUS
 62
3
 10
3530.389440
 20
2959.274454
 11
3530.420648
 21
2959.271794
  0
LINE
  8
0
  6
CONTINUOUS
 62
3
 10
3530.420648
 20
2959.271794
 11
3530.450246
 21
2959.269388
  0
LINE
  8
0
  6
CONTINUOUS
 62
3
 10
3530.450246
 20
2959.269388
 11
3530.478209
 21
2959.267254
  0
LINE
  8
0
  6
CONTINUOUS
 62
3
 10
3530.478209
 20
2959.267254
 11
3530.504512
 21
2959.265409
  0
LINE
  8
0
  6
CONTINUOUS
 62
3
 10
3530.504512
 20
2959.265409
 11
3530.529128
 21
2959.263869
  0
LINE
  8
0
  6
CONTINUOUS
 62
3
 10
3530.529128
 20
2959.263869
 11
3530.552011
 21
2959.262655
  0
LINE
  8
0
  6
CONTINUOUS
 62
3
 10
3530.552011
 20
2959.262655
 11
3530.573095
 21
2959.261783
  0
LINE
  8
0
  6
CONTINUOUS
 62
3
 10
3530.573095
 20
2959.261783
 11
3530.592368
 21
2959.261261
  0
LINE
  8
0
  6
CONTINUOUS
 62
3
 10
3530.592368
 20
2959.261261
 11
3530.609818
 21
2959.261095
  0
LINE
  8
0
  6
CONTINUOUS
 62
3
 10
3532.567404
 20
2959.275683
 11
3532.567411
 21
2959.275370
  0
LINE
  8
0
  6
CONTINUOUS
 62
3
 10
3532.567411
 20
2959.275370
 11
3532.567410
 21
2959.275060
  0
LINE
  8
0
  6
CONTINUOUS
 62
3
 10
3532.567410
 20
2959.275060
 11
3532.567400
 21
2959.274754
  0
LINE
  8
0
  6
CONTINUOUS
 62
3
 10
3532.567400
 20
2959.274754
 11
3532.567381
 21
2959.274451
  0
LINE
  8
0
  6
CONTINUOUS
 62
3
 10
3532.567381
 20
2959.274451
 11
3532.567353
 21
2959.274151
  0
LINE
  8
0
  6
CONTINUOUS
 62
3
 10
3532.567353
 20
2959.274151
 11
3532.567316
 21
2959.273855
  0
LINE
  8
0
  6
CONTINUOUS
 62
3
 10
3532.567316
 20
2959.273855
 11
3532.567270
 21
2959.273562
  0
LINE
  8
0
  6
CONTINUOUS
 62
3
 10
3532.567270
 20
2959.273562
 11
3532.567216
 21
2959.273273
  0
LINE
  8
0
  6
CONTINUOUS
 62
3
 10
3532.567216
 20
2959.273273
 11
3532.567152
 21
2959.272987
  0
LINE
  8
0
  6
CONTINUOUS
 62
3
 10
3532.567152
 20
2959.272987
 11
3532.567080
 21
2959.272704
  0
LINE
  8
0
  6
CONTINUOUS
 62
3
 10
3532.567080
 20
2959.272704
 11
3532.566998
 21
2959.272425
  0
LINE
  8
0
  6
CONTINUOUS
 62
3
 10
3532.566998
 20
2959.272425
 11
3532.566908
 21
2959.272149
  0
LINE
  8
0
  6
CONTINUOUS
 62
3
 10
3481.313207
 20
2959.275682
 11
3483.270797
 21
2959.261052
  0
LINE
  8
0
  6
CONTINUOUS
 62
3
 10
3530.609814
 20
2959.261052
 11
3532.530101
 21
2959.261052
  0
ARC
  8
0
  6
CONTINUOUS
 62
3
 10
3506.940305
 20
3061.162941
 40
36.100000
 50
303.643009
 51
6.840947
  0
ARC
  8
0
  6
CONTINUOUS
 62
3
 10
3506.940305
 20
3061.162941
 40
36.100000
 50
173.159053
 51
236.356991
  0
LINE
  8
0
  6
CONTINUOUS
 62
3
 10
4179.940305
 20
2945.073178
 11
4179.940305
 21
2959.342993
  0
LINE
  8
0
  6
CONTINUOUS
 62
3
 10
4176.940305
 20
2940.969427
 11
4146.940305
 21
2940.969427
  0
LINE
  8
0
  6
CONTINUOUS
 62
3
 10
4143.940305
 20
2959.342993
 11
4143.940305
 21
2945.073178
  0
LINE
  8
0
  6
CONTINUOUS
 62
3
 10
4177.502784
 20
2959.342993
 11
4179.894319
 21
2959.342993
  0
LINE
  8
0
  6
CONTINUOUS
 62
3
 10
4187.570306
 20
3009.807922
 11
4187.570306
 21
2962.482262
  0
LINE
  8
0
  6
CONTINUOUS
 62
3
 10
4136.310305
 20
3009.807922
 11
4136.310305
 21
2962.482210
  0
LINE
  8
0
  6
CONTINUOUS
 62
3
 10
4136.310305
 20
3010.603406
 11
4136.310305
 21
3010.879802
  0
POLYLINE
  8
0
  6
CONTINUOUS
 62
3
 66
1
 70
2
  0
VERTEX
  8
0
 10
4140.310305
 20
2959.342994
 70
0
 42
0.020785
  0
VERTEX
  8
0
 10
4138.594191
 20
2959.283802
 70
0
  0
SEQEND
  0
LINE
  8
0
  6
CONTINUOUS
 62
3
 10
4140.310305
 20
2959.342993
 11
4141.018213
 21
2959.342993
  0
LINE
  8
0
  6
CONTINUOUS
 62
3
 10
4141.018213
 20
2959.342993
 11
4141.036400
 21
2959.342993
  0
LINE
  8
0
  6
CONTINUOUS
 62
3
 10
4141.036400
 20
2959.342993
 11
4143.986292
 21
2959.342993
  0
LINE
  8
0
  6
CONTINUOUS
 62
3
 10
4143.986292
 20
2959.342993
 11
4146.377827
 21
2959.342993
  0
LINE
  8
0
  6
CONTINUOUS
 62
3
 10
4146.377827
 20
2959.342993
 11
4177.502784
 21
2959.342993
  0
LINE
  8
0
  6
CONTINUOUS
 62
3
 10
4179.894319
 20
2959.342993
 11
4182.844211
 21
2959.342993
  0
LINE
  8
0
  6
CONTINUOUS
 62
3
 10
4182.844211
 20
2959.342993
 11
4182.862398
 21
2959.342993
  0
LINE
  8
0
  6
CONTINUOUS
 62
3
 10
4182.862398
 20
2959.342993
 11
4183.570305
 21
2959.342993
  0
POLYLINE
  8
0
  6
CONTINUOUS
 62
3
 66
1
 70
2
  0
VERTEX
  8
0
 10
4185.286420
 20
2959.283802
 70
0
 42
0.020785
  0
VERTEX
  8
0
 10
4183.570305
 20
2959.342994
 70
0
  0
SEQEND
  0
LINE
  8
0
  6
CONTINUOUS
 62
3
 10
4136.310306
 20
3009.807923
 11
4136.310366
 21
3009.808944
  0
LINE
  8
0
  6
CONTINUOUS
 62
3
 10
4136.310366
 20
3009.808944
 11
4136.310550
 21
3009.809975
  0
LINE
  8
0
  6
CONTINUOUS
 62
3
 10
4136.310550
 20
3009.809975
 11
4136.310861
 21
3009.811016
  0
LINE
  8
0
  6
CONTINUOUS
 62
3
 10
4136.310861
 20
3009.811016
 11
4136.311301
 21
3009.812066
  0
LINE
  8
0
  6
CONTINUOUS
 62
3
 10
4136.311301
 20
3009.812066
 11
4136.311875
 21
3009.813125
  0
LINE
  8
0
  6
CONTINUOUS
 62
3
 10
4136.311875
 20
3009.813125
 11
4136.312585
 21
3009.814193
  0
LINE
  8
0
  6
CONTINUOUS
 62
3
 10
4136.312585
 20
3009.814193
 11
4136.313435
 21
3009.815269
  0
LINE
  8
0
  6
CONTINUOUS
 62
3
 10
4136.313435
 20
3009.815269
 11
4136.314427
 21
3009.816354
  0
LINE
  8
0
  6
CONTINUOUS
 62
3
 10
4136.314427
 20
3009.816354
 11
4136.315566
 21
3009.817447
  0
LINE
  8
0
  6
CONTINUOUS
 62
3
 10
4136.315566
 20
3009.817447
 11
4136.316854
 21
3009.818548
  0
LINE
  8
0
  6
CONTINUOUS
 62
3
 10
4136.316854
 20
3009.818548
 11
4136.318311
 21
3009.819656
  0
LINE
  8
0
  6
CONTINUOUS
 62
3
 10
4136.318311
 20
3009.819656
 11
4136.319947
 21
3009.820772
  0
LINE
  8
0
  6
CONTINUOUS
 62
3
 10
4136.319947
 20
3009.820772
 11
4136.321763
 21
3009.821895
  0
LINE
  8
0
  6
CONTINUOUS
 62
3
 10
4136.321763
 20
3009.821895
 11
4136.323758
 21
3009.823025
  0
LINE
  8
0
  6
CONTINUOUS
 62
3
 10
4136.342888
 20
2960.060065
 11
4136.405933
 21
2961.854983
  0
LINE
  8
0
  6
CONTINUOUS
 62
3
 10
4136.405933
 20
2961.854983
 11
4136.461767
 21
2963.650581
  0
LINE
  8
0
  6
CONTINUOUS
 62
3
 10
4136.461767
 20
2963.650581
 11
4136.509958
 21
2965.447309
  0
LINE
  8
0
  6
CONTINUOUS
 62
3
 10
4136.509958
 20
2965.447309
 11
4136.550535
 21
2967.245402
  0
LINE
  8
0
  6
CONTINUOUS
 62
3
 10
4136.550535
 20
2967.245402
 11
4136.583832
 21
2969.044843
  0
LINE
  8
0
  6
CONTINUOUS
 62
3
 10
4136.583832
 20
2969.044843
 11
4136.610186
 21
2970.845612
  0
LINE
  8
0
  6
CONTINUOUS
 62
3
 10
4136.610186
 20
2970.845612
 11
4136.630108
 21
2972.647647
  0
LINE
  8
0
  6
CONTINUOUS
 62
3
 10
4136.630108
 20
2972.647647
 11
4136.644577
 21
2974.450729
  0
LINE
  8
0
  6
CONTINUOUS
 62
3
 10
4136.644577
 20
2974.450729
 11
4136.654008
 21
2976.254750
  0
LINE
  8
0
  6
CONTINUOUS
 62
3
 10
4136.654008
 20
2976.254750
 11
4136.658766
 21
2978.059617
  0
LINE
  8
0
  6
CONTINUOUS
 62
3
 10
4136.658766
 20
2978.059617
 11
4136.659213
 21
2979.865237
  0
LINE
  8
0
  6
CONTINUOUS
 62
3
 10
4136.659213
 20
2979.865237
 11
4136.655712
 21
2981.671514
  0
LINE
  8
0
  6
CONTINUOUS
 62
3
 10
4136.655712
 20
2981.671514
 11
4136.648626
 21
2983.478355
  0
LINE
  8
0
  6
CONTINUOUS
 62
3
 10
4136.648626
 20
2983.478355
 11
4136.638318
 21
2985.285666
  0
LINE
  8
0
  6
CONTINUOUS
 62
3
 10
4136.638318
 20
2985.285666
 11
4136.625152
 21
2987.093353
  0
LINE
  8
0
  6
CONTINUOUS
 62
3
 10
4136.625152
 20
2987.093353
 11
4136.609489
 21
2988.901322
  0
LINE
  8
0
  6
CONTINUOUS
 62
3
 10
4136.609489
 20
2988.901322
 11
4136.591693
 21
2990.709478
  0
LINE
  8
0
  6
CONTINUOUS
 62
3
 10
4136.591693
 20
2990.709478
 11
4136.572127
 21
2992.517729
  0
LINE
  8
0
  6
CONTINUOUS
 62
3
 10
4136.572127
 20
2992.517729
 11
4136.551154
 21
2994.325979
  0
LINE
  8
0
  6
CONTINUOUS
 62
3
 10
4136.551154
 20
2994.325979
 11
4136.528982
 21
2996.134211
  0
LINE
  8
0
  6
CONTINUOUS
 62
3
 10
4136.528982
 20
2996.134211
 11
4136.505466
 21
2997.942550
  0
LINE
  8
0
  6
CONTINUOUS
 62
3
 10
4136.505466
 20
2997.942550
 11
4136.480682
 21
2999.750994
  0
LINE
  8
0
  6
CONTINUOUS
 62
3
 10
4136.480682
 20
2999.750994
 11
4136.454719
 21
3001.559532
  0
LINE
  8
0
  6
CONTINUOUS
 62
3
 10
4136.454719
 20
3001.559532
 11
4136.427665
 21
3003.368153
  0
LINE
  8
0
  6
CONTINUOUS
 62
3
 10
4136.427665
 20
3003.368153
 11
4136.399608
 21
3005.176846
  0
LINE
  8
0
  6
CONTINUOUS
 62
3
 10
4136.399608
 20
3005.176846
 11
4136.370637
 21
3006.985602
  0
LINE
  8
0
  6
CONTINUOUS
 62
3
 10
4136.370637
 20
3006.985602
 11
4136.340841
 21
3008.794410
  0
LINE
  8
0
  6
CONTINUOUS
 62
3
 10
4136.340841
 20
3008.794410
 11
4136.310307
 21
3010.603249
  0
LINE
  8
0
  6
CONTINUOUS
 62
3
 10
4187.537723
 20
2960.060065
 11
4187.541365
 21
2959.962015
  0
LINE
  8
0
  6
CONTINUOUS
 62
3
 10
4187.541365
 20
2959.962015
 11
4187.545026
 21
2959.863965
  0
LINE
  8
0
  6
CONTINUOUS
 62
3
 10
4187.545026
 20
2959.863965
 11
4187.548708
 21
2959.765916
  0
LINE
  8
0
  6
CONTINUOUS
 62
3
 10
4187.548708
 20
2959.765916
 11
4187.552408
 21
2959.667868
  0
LINE
  8
0
  6
CONTINUOUS
 62
3
 10
4187.552408
 20
2959.667868
 11
4187.556128
 21
2959.569821
  0
LINE
  8
0
  6
CONTINUOUS
 62
3
 10
4187.556128
 20
2959.569821
 11
4187.559868
 21
2959.471774
  0
LINE
  8
0
  6
CONTINUOUS
 62
3
 10
4187.559868
 20
2959.471774
 11
4187.563626
 21
2959.373728
  0
LINE
  8
0
  6
CONTINUOUS
 62
3
 10
4187.563626
 20
2959.373728
 11
4187.567403
 21
2959.275693
  0
LINE
  8
0
  6
CONTINUOUS
 62
3
 10
4187.570304
 20
3010.603259
 11
4187.460769
 21
3004.272931
  0
LINE
  8
0
  6
CONTINUOUS
 62
3
 10
4187.460769
 20
3004.272931
 11
4187.356481
 21
2997.940872
  0
LINE
  8
0
  6
CONTINUOUS
 62
3
 10
4187.356481
 20
2997.940872
 11
4187.269885
 21
2991.609723
  0
LINE
  8
0
  6
CONTINUOUS
 62
3
 10
4187.269885
 20
2991.609723
 11
4187.213421
 21
2985.282125
  0
LINE
  8
0
  6
CONTINUOUS
 62
3
 10
4187.213421
 20
2985.282125
 11
4187.199530
 21
2978.960718
  0
LINE
  8
0
  6
CONTINUOUS
 62
3
 10
4187.199530
 20
2978.960718
 11
4187.212439
 21
2975.803163
  0
LINE
  8
0
  6
CONTINUOUS
 62
3
 10
4187.212439
 20
2975.803163
 11
4187.240656
 21
2972.648146
  0
LINE
  8
0
  6
CONTINUOUS
 62
3
 10
4187.240656
 20
2972.648146
 11
4187.285738
 21
2969.495997
  0
LINE
  8
0
  6
CONTINUOUS
 62
3
 10
4187.285738
 20
2969.495997
 11
4187.349240
 21
2966.347048
  0
LINE
  8
0
  6
CONTINUOUS
 62
3
 10
4187.349240
 20
2966.347048
 11
4187.432716
 21
2963.201637
  0
LINE
  8
0
  6
CONTINUOUS
 62
3
 10
4187.432716
 20
2963.201637
 11
4187.537723
 21
2960.060075
  0
LINE
  8
0
  6
CONTINUOUS
 62
3
 10
4136.313208
 20
2959.275683
 11
4136.316985
 21
2959.373728
  0
LINE
  8
0
  6
CONTINUOUS
 62
3
 10
4136.316985
 20
2959.373728
 11
4136.320744
 21
2959.471774
  0
LINE
  8
0
  6
CONTINUOUS
 62
3
 10
4136.320744
 20
2959.471774
 11
4136.324483
 21
2959.569821
  0
LINE
  8
0
  6
CONTINUOUS
 62
3
 10
4136.324483
 20
2959.569821
 11
4136.328203
 21
2959.667868
  0
LINE
  8
0
  6
CONTINUOUS
 62
3
 10
4136.328203
 20
2959.667868
 11
4136.331904
 21
2959.765916
  0
LINE
  8
0
  6
CONTINUOUS
 62
3
 10
4136.331904
 20
2959.765916
 11
4136.335585
 21
2959.863965
  0
LINE
  8
0
  6
CONTINUOUS
 62
3
 10
4136.335585
 20
2959.863965
 11
4136.339246
 21
2959.962015
  0
LINE
  8
0
  6
CONTINUOUS
 62
3
 10
4136.339246
 20
2959.962015
 11
4136.342888
 21
2960.060056
  0
POLYLINE
  8
0
  6
CONTINUOUS
 62
3
 66
1
 70
2
  0
VERTEX
  8
0
 10
4176.940305
 20
2940.969426
 70
0
 42
0.411069
  0
VERTEX
  8
0
 10
4179.940305
 20
2943.559638
 70
0
  0
SEQEND
  0
LINE
  8
0
  6
CONTINUOUS
 62
3
 10
4179.940305
 20
2943.559638
 11
4179.940305
 21
2945.073178
  0
POLYLINE
  8
0
  6
CONTINUOUS
 62
3
 66
1
 70
2
  0
VERTEX
  8
0
 10
4143.940305
 20
2943.559638
 70
0
 42
0.411069
  0
VERTEX
  8
0
 10
4146.940305
 20
2940.969426
 70
0
  0
SEQEND
  0
LINE
  8
0
  6
CONTINUOUS
 62
3
 10
4143.940305
 20
2945.073178
 11
4143.940305
 21
2943.559638
  0
LINE
  8
0
  6
CONTINUOUS
 62
3
 10
4187.570305
 20
3035.740252
 11
4187.570305
 21
3010.892670
  0
LINE
  8
0
  6
CONTINUOUS
 62
3
 10
4136.310305
 20
3035.740252
 11
4136.310305
 21
3010.892670
  0
LINE
  8
0
  6
CONTINUOUS
 62
3
 10
4136.310305
 20
3009.807922
 11
4136.310305
 21
3010.603406
  0
LINE
  8
0
  6
CONTINUOUS
 62
3
 10
4136.310305
 20
3010.879802
 11
4136.310305
 21
3010.892670
  0
LINE
  8
0
  6
CONTINUOUS
 62
3
 10
4138.270793
 20
2959.261082
 11
4138.288261
 21
2959.261250
  0
LINE
  8
0
  6
CONTINUOUS
 62
3
 10
4138.288261
 20
2959.261250
 11
4138.307555
 21
2959.261776
  0
LINE
  8
0
  6
CONTINUOUS
 62
3
 10
4138.307555
 20
2959.261776
 11
4138.328665
 21
2959.262655
  0
LINE
  8
0
  6
CONTINUOUS
 62
3
 10
4138.328665
 20
2959.262655
 11
4138.351553
 21
2959.263874
  0
LINE
  8
0
  6
CONTINUOUS
 62
3
 10
4138.351553
 20
2959.263874
 11
4138.376153
 21
2959.265415
  0
LINE
  8
0
  6
CONTINUOUS
 62
3
 10
4138.376153
 20
2959.265415
 11
4138.402441
 21
2959.267260
  0
LINE
  8
0
  6
CONTINUOUS
 62
3
 10
4138.402441
 20
2959.267260
 11
4138.430391
 21
2959.269393
  0
LINE
  8
0
  6
CONTINUOUS
 62
3
 10
4138.430391
 20
2959.269393
 11
4138.459978
 21
2959.271797
  0
LINE
  8
0
  6
CONTINUOUS
 62
3
 10
4138.459978
 20
2959.271797
 11
4138.491177
 21
2959.274456
  0
LINE
  8
0
  6
CONTINUOUS
 62
3
 10
4138.491177
 20
2959.274456
 11
4138.523962
 21
2959.277355
  0
LINE
  8
0
  6
CONTINUOUS
 62
3
 10
4138.523962
 20
2959.277355
 11
4138.558308
 21
2959.280475
  0
LINE
  8
0
  6
CONTINUOUS
 62
3
 10
4138.558308
 20
2959.280475
 11
4138.594185
 21
2959.283801
  0
LINE
  8
0
  6
CONTINUOUS
 62
3
 10
4136.313703
 20
2959.272149
 11
4136.313613
 21
2959.272425
  0
LINE
  8
0
  6
CONTINUOUS
 62
3
 10
4136.313613
 20
2959.272425
 11
4136.313532
 21
2959.272704
  0
LINE
  8
0
  6
CONTINUOUS
 62
3
 10
4136.313532
 20
2959.272704
 11
4136.313459
 21
2959.272987
  0
LINE
  8
0
  6
CONTINUOUS
 62
3
 10
4136.313459
 20
2959.272987
 11
4136.313396
 21
2959.273273
  0
LINE
  8
0
  6
CONTINUOUS
 62
3
 10
4136.313396
 20
2959.273273
 11
4136.313341
 21
2959.273562
  0
LINE
  8
0
  6
CONTINUOUS
 62
3
 10
4136.313341
 20
2959.273562
 11
4136.313295
 21
2959.273855
  0
LINE
  8
0
  6
CONTINUOUS
 62
3
 10
4136.313295
 20
2959.273855
 11
4136.313258
 21
2959.274151
  0
LINE
  8
0
  6
CONTINUOUS
 62
3
 10
4136.313258
 20
2959.274151
 11
4136.313230
 21
2959.274451
  0
LINE
  8
0
  6
CONTINUOUS
 62
3
 10
4136.313230
 20
2959.274451
 11
4136.313211
 21
2959.274754
  0
LINE
  8
0
  6
CONTINUOUS
 62
3
 10
4136.313211
 20
2959.274754
 11
4136.313201
 21
2959.275060
  0
LINE
  8
0
  6
CONTINUOUS
 62
3
 10
4136.313201
 20
2959.275060
 11
4136.313200
 21
2959.275370
  0
LINE
  8
0
  6
CONTINUOUS
 62
3
 10
4136.313200
 20
2959.275370
 11
4136.313208
 21
2959.275682
  0
LINE
  8
0
  6
CONTINUOUS
 62
3
 10
4187.566908
 20
2959.272149
 11
4187.566002
 21
2959.270272
  0
LINE
  8
0
  6
CONTINUOUS
 62
3
 10
4187.566002
 20
2959.270272
 11
4187.564640
 21
2959.268569
  0
LINE
  8
0
  6
CONTINUOUS
 62
3
 10
4187.564640
 20
2959.268569
 11
4187.562823
 21
2959.267041
  0
LINE
  8
0
  6
CONTINUOUS
 62
3
 10
4187.562823
 20
2959.267041
 11
4187.560552
 21
2959.265687
  0
LINE
  8
0
  6
CONTINUOUS
 62
3
 10
4187.560552
 20
2959.265687
 11
4187.557829
 21
2959.264507
  0
LINE
  8
0
  6
CONTINUOUS
 62
3
 10
4187.557829
 20
2959.264507
 11
4187.554654
 21
2959.263501
  0
LINE
  8
0
  6
CONTINUOUS
 62
3
 10
4187.554654
 20
2959.263501
 11
4187.551029
 21
2959.262669
  0
LINE
  8
0
  6
CONTINUOUS
 62
3
 10
4187.551029
 20
2959.262669
 11
4187.546955
 21
2959.262010
  0
LINE
  8
0
  6
CONTINUOUS
 62
3
 10
4187.546955
 20
2959.262010
 11
4187.542434
 21
2959.261523
  0
LINE
  8
0
  6
CONTINUOUS
 62
3
 10
4187.542434
 20
2959.261523
 11
4187.537466
 21
2959.261208
  0
LINE
  8
0
  6
CONTINUOUS
 62
3
 10
4187.537466
 20
2959.261208
 11
4187.532053
 21
2959.261064
  0
LINE
  8
0
  6
CONTINUOUS
 62
3
 10
4187.532053
 20
2959.261064
 11
4187.526196
 21
2959.261091
  0
LINE
  8
0
  6
CONTINUOUS
 62
3
 10
4187.526196
 20
2959.261091
 11
4187.519895
 21
2959.261287
  0
LINE
  8
0
  6
CONTINUOUS
 62
3
 10
4187.519895
 20
2959.261287
 11
4187.513153
 21
2959.261653
  0
LINE
  8
0
  6
CONTINUOUS
 62
3
 10
4187.513153
 20
2959.261653
 11
4187.505970
 21
2959.262187
  0
LINE
  8
0
  6
CONTINUOUS
 62
3
 10
4187.505970
 20
2959.262187
 11
4187.498352
 21
2959.262888
  0
LINE
  8
0
  6
CONTINUOUS
 62
3
 10
4187.498352
 20
2959.262888
 11
4187.490302
 21
2959.263756
  0
LINE
  8
0
  6
CONTINUOUS
 62
3
 10
4187.490302
 20
2959.263756
 11
4187.481824
 21
2959.264787
  0
LINE
  8
0
  6
CONTINUOUS
 62
3
 10
4187.481824
 20
2959.264787
 11
4187.472918
 21
2959.265982
  0
LINE
  8
0
  6
CONTINUOUS
 62
3
 10
4187.472918
 20
2959.265982
 11
4187.463587
 21
2959.267338
  0
LINE
  8
0
  6
CONTINUOUS
 62
3
 10
4187.463587
 20
2959.267338
 11
4187.453833
 21
2959.268853
  0
LINE
  8
0
  6
CONTINUOUS
 62
3
 10
4187.453833
 20
2959.268853
 11
4187.443659
 21
2959.270527
  0
LINE
  8
0
  6
CONTINUOUS
 62
3
 10
4187.443659
 20
2959.270527
 11
4187.433065
 21
2959.272357
  0
LINE
  8
0
  6
CONTINUOUS
 62
3
 10
4187.433065
 20
2959.272357
 11
4187.422054
 21
2959.274342
  0
LINE
  8
0
  6
CONTINUOUS
 62
3
 10
4187.422054
 20
2959.274342
 11
4187.410629
 21
2959.276480
  0
LINE
  8
0
  6
CONTINUOUS
 62
3
 10
4187.410629
 20
2959.276480
 11
4187.398790
 21
2959.278771
  0
LINE
  8
0
  6
CONTINUOUS
 62
3
 10
4187.398790
 20
2959.278771
 11
4187.386541
 21
2959.281212
  0
LINE
  8
0
  6
CONTINUOUS
 62
3
 10
4187.386541
 20
2959.281212
 11
4187.373886
 21
2959.283801
  0
LINE
  8
0
  6
CONTINUOUS
 62
3
 10
4185.286420
 20
2959.283802
 11
4185.322301
 21
2959.280475
  0
LINE
  8
0
  6
CONTINUOUS
 62
3
 10
4185.322301
 20
2959.280475
 11
4185.356649
 21
2959.277354
  0
LINE
  8
0
  6
CONTINUOUS
 62
3
 10
4185.356649
 20
2959.277354
 11
4185.389440
 21
2959.274454
  0
LINE
  8
0
  6
CONTINUOUS
 62
3
 10
4185.389440
 20
2959.274454
 11
4185.420648
 21
2959.271794
  0
LINE
  8
0
  6
CONTINUOUS
 62
3
 10
4185.420648
 20
2959.271794
 11
4185.450246
 21
2959.269388
  0
LINE
  8
0
  6
CONTINUOUS
 62
3
 10
4185.450246
 20
2959.269388
 11
4185.478209
 21
2959.267254
  0
LINE
  8
0
  6
CONTINUOUS
 62
3
 10
4185.478209
 20
2959.267254
 11
4185.504512
 21
2959.265409
  0
LINE
  8
0
  6
CONTINUOUS
 62
3
 10
4185.504512
 20
2959.265409
 11
4185.529128
 21
2959.263869
  0
LINE
  8
0
  6
CONTINUOUS
 62
3
 10
4185.529128
 20
2959.263869
 11
4185.552011
 21
2959.262655
  0
LINE
  8
0
  6
CONTINUOUS
 62
3
 10
4185.552011
 20
2959.262655
 11
4185.573095
 21
2959.261783
  0
LINE
  8
0
  6
CONTINUOUS
 62
3
 10
4185.573095
 20
2959.261783
 11
4185.592368
 21
2959.261261
  0
LINE
  8
0
  6
CONTINUOUS
 62
3
 10
4185.592368
 20
2959.261261
 11
4185.609818
 21
2959.261095
  0
LINE
  8
0
  6
CONTINUOUS
 62
3
 10
4187.570306
 20
2962.482211
 11
4187.569455
 21
2962.335543
  0
LINE
  8
0
  6
CONTINUOUS
 62
3
 10
4187.569455
 20
2962.335543
 11
4187.567041
 21
2962.194086
  0
LINE
  8
0
  6
CONTINUOUS
 62
3
 10
4187.567041
 20
2962.194086
 11
4187.563271
 21
2962.057730
  0
LINE
  8
0
  6
CONTINUOUS
 62
3
 10
4187.563271
 20
2962.057730
 11
4187.558352
 21
2961.926365
  0
LINE
  8
0
  6
CONTINUOUS
 62
3
 10
4187.558352
 20
2961.926365
 11
4187.552490
 21
2961.799880
  0
LINE
  8
0
  6
CONTINUOUS
 62
3
 10
4187.552490
 20
2961.799880
 11
4187.545893
 21
2961.678167
  0
LINE
  8
0
  6
CONTINUOUS
 62
3
 10
4187.545893
 20
2961.678167
 11
4187.538767
 21
2961.561115
  0
LINE
  8
0
  6
CONTINUOUS
 62
3
 10
4187.538767
 20
2961.561115
 11
4187.531319
 21
2961.448615
  0
LINE
  8
0
  6
CONTINUOUS
 62
3
 10
4187.531319
 20
2961.448615
 11
4187.523757
 21
2961.340557
  0
LINE
  8
0
  6
CONTINUOUS
 62
3
 10
4187.523757
 20
2961.340557
 11
4187.516287
 21
2961.236831
  0
LINE
  8
0
  6
CONTINUOUS
 62
3
 10
4187.516287
 20
2961.236831
 11
4187.509116
 21
2961.137327
  0
LINE
  8
0
  6
CONTINUOUS
 62
3
 10
4187.509116
 20
2961.137327
 11
4187.502389
 21
2961.041377
  0
LINE
  8
0
  6
CONTINUOUS
 62
3
 10
4187.567404
 20
2959.275683
 11
4187.567411
 21
2959.275370
  0
LINE
  8
0
  6
CONTINUOUS
 62
3
 10
4187.567411
 20
2959.275370
 11
4187.567410
 21
2959.275060
  0
LINE
  8
0
  6
CONTINUOUS
 62
3
 10
4187.567410
 20
2959.275060
 11
4187.567400
 21
2959.274754
  0
LINE
  8
0
  6
CONTINUOUS
 62
3
 10
4187.567400
 20
2959.274754
 11
4187.567381
 21
2959.274451
  0
LINE
  8
0
  6
CONTINUOUS
 62
3
 10
4187.567381
 20
2959.274451
 11
4187.567353
 21
2959.274151
  0
LINE
  8
0
  6
CONTINUOUS
 62
3
 10
4187.567353
 20
2959.274151
 11
4187.567316
 21
2959.273855
  0
LINE
  8
0
  6
CONTINUOUS
 62
3
 10
4187.567316
 20
2959.273855
 11
4187.567270
 21
2959.273562
  0
LINE
  8
0
  6
CONTINUOUS
 62
3
 10
4187.567270
 20
2959.273562
 11
4187.567216
 21
2959.273273
  0
LINE
  8
0
  6
CONTINUOUS
 62
3
 10
4187.567216
 20
2959.273273
 11
4187.567152
 21
2959.272987
  0
LINE
  8
0
  6
CONTINUOUS
 62
3
 10
4187.567152
 20
2959.272987
 11
4187.567080
 21
2959.272704
  0
LINE
  8
0
  6
CONTINUOUS
 62
3
 10
4187.567080
 20
2959.272704
 11
4187.566998
 21
2959.272425
  0
LINE
  8
0
  6
CONTINUOUS
 62
3
 10
4187.566998
 20
2959.272425
 11
4187.566908
 21
2959.272149
  0
LINE
  8
0
  6
CONTINUOUS
 62
3
 10
4136.350509
 20
2959.261052
 11
4138.270797
 21
2959.261052
  0
LINE
  8
0
  6
CONTINUOUS
 62
3
 10
4185.609814
 20
2959.261052
 11
4187.530101
 21
2959.261052
  0
ARC
  8
0
  6
CONTINUOUS
 62
3
 10
4161.940305
 20
3061.162941
 40
36.100000
 50
303.643009
 51
6.840947
  0
ARC
  8
0
  6
CONTINUOUS
 62
3
 10
4161.940305
 20
3061.162941
 40
36.100000
 50
173.159053
 51
236.356991
  0
LINE
  8
0
  6
CONTINUOUS
 62
3
 10
4313.771196
 20
3687.981997
 11
4312.814979
 21
3688.238214
  0
LINE
  8
0
  6
CONTINUOUS
 62
3
 10
4337.153882
 20
3701.481997
 11
4337.410100
 21
3702.438214
  0
LINE
  8
0
  6
CONTINUOUS
 62
3
 10
4353.636168
 20
3685.022635
 11
4353.666234
 21
3685.039993
  0
LINE
  8
0
  6
CONTINUOUS
 62
3
 10
4353.666234
 20
3685.039993
 11
4353.832813
 21
3685.136167
  0
LINE
  8
0
  6
CONTINUOUS
 62
3
 10
4355.010363
 20
3683.053665
 11
4354.983067
 21
3683.164065
  0
LINE
  8
0
  6
CONTINUOUS
 62
3
 10
4354.983067
 20
3683.164065
 11
4354.951027
 21
3683.274489
  0
LINE
  8
0
  6
CONTINUOUS
 62
3
 10
4354.951027
 20
3683.274489
 11
4354.914650
 21
3683.384165
  0
LINE
  8
0
  6
CONTINUOUS
 62
3
 10
4354.914650
 20
3683.384165
 11
4354.874339
 21
3683.492322
  0
LINE
  8
0
  6
CONTINUOUS
 62
3
 10
4354.874339
 20
3683.492322
 11
4354.830502
 21
3683.598188
  0
LINE
  8
0
  6
CONTINUOUS
 62
3
 10
4354.830502
 20
3683.598188
 11
4354.783544
 21
3683.700993
  0
LINE
  8
0
  6
CONTINUOUS
 62
3
 10
4354.783544
 20
3683.700993
 11
4354.733870
 21
3683.799963
  0
LINE
  8
0
  6
CONTINUOUS
 62
3
 10
4354.733870
 20
3683.799963
 11
4354.681890
 21
3683.894321
  0
LINE
  8
0
  6
CONTINUOUS
 62
3
 10
4354.681885
 20
3683.894329
 11
4353.931885
 21
3685.193367
  0
LINE
  8
0
  6
CONTINUOUS
 62
3
 10
4354.985925
 20
3681.595999
 11
4354.986482
 21
3681.598176
  0
LINE
  8
0
  6
CONTINUOUS
 62
3
 10
4354.986482
 20
3681.598176
 11
4354.988146
 21
3681.604637
  0
LINE
  8
0
  6
CONTINUOUS
 62
3
 10
4354.988146
 20
3681.604637
 11
4354.990836
 21
3681.615250
  0
LINE
  8
0
  6
CONTINUOUS
 62
3
 10
4354.990836
 20
3681.615250
 11
4354.994468
 21
3681.629885
  0
LINE
  8
0
  6
CONTINUOUS
 62
3
 10
4354.994468
 20
3681.629885
 11
4354.998958
 21
3681.648413
  0
LINE
  8
0
  6
CONTINUOUS
 62
3
 10
4354.998958
 20
3681.648413
 11
4355.004240
 21
3681.670793
  0
LINE
  8
0
  6
CONTINUOUS
 62
3
 10
4355.004240
 20
3681.670793
 11
4355.010247
 21
3681.697158
  0
LINE
  8
0
  6
CONTINUOUS
 62
3
 10
4355.010247
 20
3681.697158
 11
4355.016859
 21
3681.727541
  0
LINE
  8
0
  6
CONTINUOUS
 62
3
 10
4355.016859
 20
3681.727541
 11
4355.023955
 21
3681.761969
  0
LINE
  8
0
  6
CONTINUOUS
 62
3
 10
4355.023955
 20
3681.761969
 11
4355.031413
 21
3681.800470
  0
LINE
  8
0
  6
CONTINUOUS
 62
3
 10
4355.031413
 20
3681.800470
 11
4355.039096
 21
3681.842996
  0
LINE
  8
0
  6
CONTINUOUS
 62
3
 10
4355.039096
 20
3681.842996
 11
4355.046801
 21
3681.889375
  0
LINE
  8
0
  6
CONTINUOUS
 62
3
 10
4355.046801
 20
3681.889375
 11
4355.054335
 21
3681.939622
  0
LINE
  8
0
  6
CONTINUOUS
 62
3
 10
4355.054335
 20
3681.939622
 11
4355.061505
 21
3681.993761
  0
LINE
  8
0
  6
CONTINUOUS
 62
3
 10
4355.061505
 20
3681.993761
 11
4355.068117
 21
3682.051819
  0
LINE
  8
0
  6
CONTINUOUS
 62
3
 10
4355.068117
 20
3682.051819
 11
4355.073978
 21
3682.113818
  0
LINE
  8
0
  6
CONTINUOUS
 62
3
 10
4355.073978
 20
3682.113818
 11
4355.078841
 21
3682.179162
  0
LINE
  8
0
  6
CONTINUOUS
 62
3
 10
4355.078841
 20
3682.179162
 11
4355.082454
 21
3682.247095
  0
LINE
  8
0
  6
CONTINUOUS
 62
3
 10
4355.082454
 20
3682.247095
 11
4355.084638
 21
3682.317550
  0
LINE
  8
0
  6
CONTINUOUS
 62
3
 10
4355.084638
 20
3682.317550
 11
4355.085215
 21
3682.390461
  0
LINE
  8
0
  6
CONTINUOUS
 62
3
 10
4355.085215
 20
3682.390461
 11
4355.084005
 21
3682.465761
  0
LINE
  8
0
  6
CONTINUOUS
 62
3
 10
4355.084005
 20
3682.465761
 11
4355.080829
 21
3682.543386
  0
LINE
  8
0
  6
CONTINUOUS
 62
3
 10
4355.080829
 20
3682.543386
 11
4355.075507
 21
3682.623268
  0
LINE
  8
0
  6
CONTINUOUS
 62
3
 10
4355.075507
 20
3682.623268
 11
4355.067861
 21
3682.705341
  0
LINE
  8
0
  6
CONTINUOUS
 62
3
 10
4355.067861
 20
3682.705341
 11
4355.057712
 21
3682.789540
  0
LINE
  8
0
  6
CONTINUOUS
 62
3
 10
4355.057712
 20
3682.789540
 11
4355.044875
 21
3682.875784
  0
LINE
  8
0
  6
CONTINUOUS
 62
3
 10
4355.044875
 20
3682.875784
 11
4355.029153
 21
3682.963886
  0
LINE
  8
0
  6
CONTINUOUS
 62
3
 10
4355.029153
 20
3682.963886
 11
4355.010365
 21
3683.053657
  0
LINE
  8
0
  6
CONTINUOUS
 62
3
 10
4319.754214
 20
3665.460879
 11
4319.784279
 21
3665.478237
  0
LINE
  8
0
  6
CONTINUOUS
 62
3
 10
4319.587634
 20
3665.364704
 11
4319.754214
 21
3665.460879
  0
LINE
  8
0
  6
CONTINUOUS
 62
3
 10
4320.238562
 20
3664.008467
 11
4320.294293
 21
3663.916265
  0
LINE
  8
0
  6
CONTINUOUS
 62
3
 10
4320.294293
 20
3663.916265
 11
4320.355168
 21
3663.823760
  0
LINE
  8
0
  6
CONTINUOUS
 62
3
 10
4320.355168
 20
3663.823760
 11
4320.420720
 21
3663.731691
  0
LINE
  8
0
  6
CONTINUOUS
 62
3
 10
4320.420720
 20
3663.731691
 11
4320.490484
 21
3663.640794
  0
LINE
  8
0
  6
CONTINUOUS
 62
3
 10
4320.490484
 20
3663.640794
 11
4320.563996
 21
3663.551805
  0
LINE
  8
0
  6
CONTINUOUS
 62
3
 10
4320.563996
 20
3663.551805
 11
4320.640789
 21
3663.465463
  0
LINE
  8
0
  6
CONTINUOUS
 62
3
 10
4320.640789
 20
3663.465463
 11
4320.720399
 21
3663.382504
  0
LINE
  8
0
  6
CONTINUOUS
 62
3
 10
4320.720399
 20
3663.382504
 11
4320.802352
 21
3663.303672
  0
LINE
  8
0
  6
CONTINUOUS
 62
3
 10
4319.488562
 20
3665.307505
 11
4320.238562
 21
3664.008467
  0
LINE
  8
0
  6
CONTINUOUS
 62
3
 10
4320.802360
 20
3663.303665
 11
4320.873940
 21
3663.239713
  0
LINE
  8
0
  6
CONTINUOUS
 62
3
 10
4320.873940
 20
3663.239713
 11
4320.946140
 21
3663.179153
  0
LINE
  8
0
  6
CONTINUOUS
 62
3
 10
4320.946140
 20
3663.179153
 11
4321.018767
 21
3663.121917
  0
LINE
  8
0
  6
CONTINUOUS
 62
3
 10
4321.018767
 20
3663.121917
 11
4321.091625
 21
3663.067936
  0
LINE
  8
0
  6
CONTINUOUS
 62
3
 10
4321.091625
 20
3663.067936
 11
4321.164520
 21
3663.017141
  0
LINE
  8
0
  6
CONTINUOUS
 62
3
 10
4321.164520
 20
3663.017141
 11
4321.237256
 21
3662.969464
  0
LINE
  8
0
  6
CONTINUOUS
 62
3
 10
4321.237256
 20
3662.969464
 11
4321.309640
 21
3662.924835
  0
LINE
  8
0
  6
CONTINUOUS
 62
3
 10
4321.309640
 20
3662.924835
 11
4321.381421
 21
3662.883213
  0
LINE
  8
0
  6
CONTINUOUS
 62
3
 10
4321.381421
 20
3662.883213
 11
4321.451141
 21
3662.845154
  0
LINE
  8
0
  6
CONTINUOUS
 62
3
 10
4321.451141
 20
3662.845154
 11
4321.518109
 21
3662.810718
  0
LINE
  8
0
  6
CONTINUOUS
 62
3
 10
4321.518109
 20
3662.810718
 11
4321.582179
 21
3662.779666
  0
LINE
  8
0
  6
CONTINUOUS
 62
3
 10
4321.582179
 20
3662.779666
 11
4321.643208
 21
3662.751761
  0
LINE
  8
0
  6
CONTINUOUS
 62
3
 10
4321.643208
 20
3662.751761
 11
4321.701051
 21
3662.726765
  0
LINE
  8
0
  6
CONTINUOUS
 62
3
 10
4321.701051
 20
3662.726765
 11
4321.755586
 21
3662.704430
  0
LINE
  8
0
  6
CONTINUOUS
 62
3
 10
4321.755586
 20
3662.704430
 11
4321.807550
 21
3662.684249
  0
LINE
  8
0
  6
CONTINUOUS
 62
3
 10
4321.807550
 20
3662.684249
 11
4321.856937
 21
3662.666038
  0
LINE
  8
0
  6
CONTINUOUS
 62
3
 10
4321.856937
 20
3662.666038
 11
4321.903159
 21
3662.649825
  0
LINE
  8
0
  6
CONTINUOUS
 62
3
 10
4321.903159
 20
3662.649825
 11
4321.945629
 21
3662.635637
  0
LINE
  8
0
  6
CONTINUOUS
 62
3
 10
4321.945629
 20
3662.635637
 11
4321.983462
 21
3662.623568
  0
LINE
  8
0
  6
CONTINUOUS
 62
3
 10
4321.983462
 20
3662.623568
 11
4322.015757
 21
3662.613684
  0
LINE
  8
0
  6
CONTINUOUS
 62
3
 10
4322.015757
 20
3662.613684
 11
4322.041905
 21
3662.605965
  0
LINE
  8
0
  6
CONTINUOUS
 62
3
 10
4322.041905
 20
3662.605965
 11
4322.061224
 21
3662.600412
  0
LINE
  8
0
  6
CONTINUOUS
 62
3
 10
4322.061224
 20
3662.600412
 11
4322.072988
 21
3662.597091
  0
LINE
  8
0
  6
CONTINUOUS
 62
3
 10
4322.072988
 20
3662.597091
 11
4322.076955
 21
3662.595996
  0
LINE
  8
0
  6
CONTINUOUS
 62
3
 10
4320.255741
 20
3665.750436
 11
4319.784279
 21
3665.478237
  0
LINE
  8
0
  6
CONTINUOUS
 62
3
 10
4319.587634
 20
3665.364704
 11
4319.488562
 21
3665.307505
  0
LINE
  8
0
  6
CONTINUOUS
 62
3
 10
4353.931885
 20
3685.193367
 11
4353.832813
 21
3685.136167
  0
LINE
  8
0
  6
CONTINUOUS
 62
3
 10
4353.636168
 20
3685.022635
 11
4353.164706
 21
3684.750436
  0
LINE
  8
0
  6
CONTINUOUS
 62
3
 10
4343.086895
 20
3692.205717
 11
4318.838184
 21
3678.205717
  0
LINE
  8
0
  6
CONTINUOUS
 62
3
 10
4348.952920
 20
3684.045463
 11
4322.972158
 21
3669.045463
  0
ARC
  8
0
  6
CONTINUOUS
 62
3
 10
4352.096053
 20
3682.401398
 40
3.000000
 50
316.860093
 51
344.427004
  0
ARC
  8
0
  6
CONTINUOUS
 62
3
 10
4322.824394
 20
3665.501398
 40
3.000000
 50
255.572996
 51
283.139907
  0
ARC
  8
0
  6
CONTINUOUS
 62
3
 10
4309.578194
 20
3722.244489
 40
61.268690
 50
314.654162
 51
316.860093
  0
ARC
  8
0
  6
CONTINUOUS
 62
3
 10
4309.578194
 20
3722.244489
 40
61.268690
 50
308.919970
 51
311.772100
  0
ARC
  8
0
  6
CONTINUOUS
 62
3
 10
4309.578194
 20
3722.244489
 40
61.268690
 50
288.227900
 51
291.080030
  0
ARC
  8
0
  6
CONTINUOUS
 62
3
 10
4309.578194
 20
3722.244489
 40
61.268690
 50
283.139907
 51
285.345838
  0
ARC
  8
0
  6
CONTINUOUS
 62
3
 10
4352.082175
 20
3684.125436
 40
1.250000
 50
30.000000
 51
115.000000
  0
ARC
  8
0
  6
CONTINUOUS
 62
3
 10
4321.338273
 20
3666.375436
 40
1.250000
 50
125.000000
 51
210.000000
  0
LINE
  8
0
  6
CONTINUOUS
 62
3
 10
4348.952920
 20
3684.045463
 11
4351.553902
 21
3685.258321
  0
LINE
  8
0
  6
CONTINUOUS
 62
3
 10
4322.972158
 20
3669.045463
 11
4320.621302
 21
3667.399376
  0
LINE
  8
0
  6
CONTINUOUS
 62
3
 10
4322.972158
 20
3669.045463
 11
4318.472158
 21
3676.839692
  0
LINE
  8
0
  6
CONTINUOUS
 62
3
 10
4348.952920
 20
3684.045463
 11
4344.452920
 21
3691.839692
  0
LINE
  8
0
  6
CONTINUOUS
 62
3
 10
4343.086895
 20
3692.205717
 11
4344.452920
 21
3691.839692
  0
LINE
  8
0
  6
CONTINUOUS
 62
3
 10
4318.838184
 20
3678.205717
 11
4318.472158
 21
3676.839692
  0
LINE
  8
0
  6
CONTINUOUS
 62
3
 10
4348.439781
 20
3673.934247
 11
4331.985298
 21
3664.434247
  0
LINE
  8
0
  6
CONTINUOUS
 62
3
 10
4331.985298
 20
3664.434247
 11
4331.614803
 21
3665.075964
  0
LINE
  8
0
  6
CONTINUOUS
 62
3
 10
4348.439781
 20
3673.934247
 11
4348.069285
 21
3674.575964
  0
LINE
  8
0
  6
CONTINUOUS
 62
3
 10
4352.639412
 20
3678.660273
 11
4350.810132
 21
3677.604138
  0
ARC
  8
0
  6
CONTINUOUS
 62
3
 10
4309.578194
 20
3722.244489
 40
60.768690
 50
311.870364
 51
312.727029
  0
LINE
  8
0
  6
CONTINUOUS
 62
3
 10
4350.393520
 20
3676.550271
 11
4350.138103
 21
3676.992666
  0
LINE
  8
0
  6
CONTINUOUS
 62
3
 10
4327.621904
 20
3664.216408
 11
4325.792624
 21
3663.160273
  0
ARC
  8
0
  6
CONTINUOUS
 62
3
 10
4309.578194
 20
3722.244489
 40
60.768690
 50
287.272971
 51
288.129636
  0
LINE
  8
0
  6
CONTINUOUS
 62
3
 10
4328.742885
 20
3664.050271
 11
4328.487468
 21
3664.492666
  0
LINE
  8
0
  6
CONTINUOUS
 62
3
 10
4336.785100
 20
3703.520746
 11
4337.410100
 21
3702.438214
  0
LINE
  8
0
  6
CONTINUOUS
 62
3
 10
4312.189979
 20
3689.320746
 11
4312.814979
 21
3688.238214
  0
LINE
  8
0
  6
CONTINUOUS
 62
3
 10
4319.271196
 20
3678.455717
 11
4313.771196
 21
3687.981997
  0
LINE
  8
0
  6
CONTINUOUS
 62
3
 10
4342.653882
 20
3691.955717
 11
4337.153882
 21
3701.481997
  0
LINE
  8
0
  6
CONTINUOUS
 62
3
 10
3536.319306
 20
3559.337941
 11
3536.325378
 21
3559.339197
  0
LINE
  8
0
  6
CONTINUOUS
 62
3
 10
3536.325378
 20
3559.339197
 11
3536.343638
 21
3559.342894
  0
LINE
  8
0
  6
CONTINUOUS
 62
3
 10
3536.343638
 20
3559.342894
 11
3536.374149
 21
3559.348920
  0
LINE
  8
0
  6
CONTINUOUS
 62
3
 10
3536.374149
 20
3559.348920
 11
3536.416977
 21
3559.357168
  0
LINE
  8
0
  6
CONTINUOUS
 62
3
 10
3536.416977
 20
3559.357168
 11
3536.472151
 21
3559.367503
  0
LINE
  8
0
  6
CONTINUOUS
 62
3
 10
3536.472151
 20
3559.367503
 11
3536.538942
 21
3559.379519
  0
LINE
  8
0
  6
CONTINUOUS
 62
3
 10
3536.538942
 20
3559.379519
 11
3536.615872
 21
3559.392696
  0
LINE
  8
0
  6
CONTINUOUS
 62
3
 10
3536.615872
 20
3559.392696
 11
3536.701431
 21
3559.406522
  0
LINE
  8
0
  6
CONTINUOUS
 62
3
 10
3536.701431
 20
3559.406522
 11
3536.794111
 21
3559.420484
  0
LINE
  8
0
  6
CONTINUOUS
 62
3
 10
3536.794111
 20
3559.420484
 11
3536.895295
 21
3559.434474
  0
LINE
  8
0
  6
CONTINUOUS
 62
3
 10
3536.895295
 20
3559.434474
 11
3537.006468
 21
3559.448376
  0
LINE
  8
0
  6
CONTINUOUS
 62
3
 10
3537.006468
 20
3559.448376
 11
3537.126275
 21
3559.461666
  0
LINE
  8
0
  6
CONTINUOUS
 62
3
 10
3537.126275
 20
3559.461666
 11
3537.253360
 21
3559.473820
  0
LINE
  8
0
  6
CONTINUOUS
 62
3
 10
3537.253360
 20
3559.473820
 11
3537.386357
 21
3559.484305
  0
LINE
  8
0
  6
CONTINUOUS
 62
3
 10
3537.386357
 20
3559.484305
 11
3537.523578
 21
3559.492692
  0
LINE
  8
0
  6
CONTINUOUS
 62
3
 10
3537.523578
 20
3559.492692
 11
3537.663003
 21
3559.498832
  0
LINE
  8
0
  6
CONTINUOUS
 62
3
 10
3537.663003
 20
3559.498832
 11
3537.802592
 21
3559.502605
  0
LINE
  8
0
  6
CONTINUOUS
 62
3
 10
3537.802592
 20
3559.502605
 11
3537.940306
 21
3559.503890
  0
LINE
  8
0
  6
CONTINUOUS
 62
3
 10
3537.940306
 20
3559.503890
 11
3538.078020
 21
3559.502605
  0
LINE
  8
0
  6
CONTINUOUS
 62
3
 10
3538.078020
 20
3559.502605
 11
3538.217608
 21
3559.498832
  0
LINE
  8
0
  6
CONTINUOUS
 62
3
 10
3538.217608
 20
3559.498832
 11
3538.357033
 21
3559.492692
  0
LINE
  8
0
  6
CONTINUOUS
 62
3
 10
3538.357033
 20
3559.492692
 11
3538.494255
 21
3559.484305
  0
LINE
  8
0
  6
CONTINUOUS
 62
3
 10
3538.494255
 20
3559.484305
 11
3538.627251
 21
3559.473820
  0
LINE
  8
0
  6
CONTINUOUS
 62
3
 10
3538.627251
 20
3559.473820
 11
3538.754337
 21
3559.461666
  0
LINE
  8
0
  6
CONTINUOUS
 62
3
 10
3538.754337
 20
3559.461666
 11
3538.874143
 21
3559.448376
  0
LINE
  8
0
  6
CONTINUOUS
 62
3
 10
3538.874143
 20
3559.448376
 11
3538.985316
 21
3559.434474
  0
LINE
  8
0
  6
CONTINUOUS
 62
3
 10
3538.985316
 20
3559.434474
 11
3539.086500
 21
3559.420484
  0
LINE
  8
0
  6
CONTINUOUS
 62
3
 10
3539.086500
 20
3559.420484
 11
3539.179180
 21
3559.406522
  0
LINE
  8
0
  6
CONTINUOUS
 62
3
 10
3539.179180
 20
3559.406522
 11
3539.264739
 21
3559.392696
  0
LINE
  8
0
  6
CONTINUOUS
 62
3
 10
3539.264739
 20
3559.392696
 11
3539.341670
 21
3559.379519
  0
LINE
  8
0
  6
CONTINUOUS
 62
3
 10
3539.341670
 20
3559.379519
 11
3539.408461
 21
3559.367503
  0
LINE
  8
0
  6
CONTINUOUS
 62
3
 10
3539.408461
 20
3559.367503
 11
3539.463635
 21
3559.357168
  0
LINE
  8
0
  6
CONTINUOUS
 62
3
 10
3539.463635
 20
3559.357168
 11
3539.506462
 21
3559.348920
  0
LINE
  8
0
  6
CONTINUOUS
 62
3
 10
3539.506462
 20
3559.348920
 11
3539.536974
 21
3559.342894
  0
LINE
  8
0
  6
CONTINUOUS
 62
3
 10
3539.536974
 20
3559.342894
 11
3539.555233
 21
3559.339197
  0
LINE
  8
0
  6
CONTINUOUS
 62
3
 10
3539.555233
 20
3559.339197
 11
3539.561306
 21
3559.337941
  0
LINE
  8
0
  6
CONTINUOUS
 62
3
 10
3468.440305
 20
3635.437941
 11
3468.440305
 21
3640.237941
  0
LINE
  8
0
  6
CONTINUOUS
 62
3
 10
3468.440305
 20
3546.437941
 11
3468.440305
 21
3551.237941
  0
ARC
  8
0
  6
CONTINUOUS
 62
3
 10
3470.440305
 20
3640.837941
 40
2.000000
 50
90.000000
 51
180.000000
  0
ARC
  8
0
  6
CONTINUOUS
 62
3
 10
3470.440305
 20
3545.837941
 40
2.000000
 50
180.000000
 51
270.000000
  0
LINE
  8
0
  6
CONTINUOUS
 62
3
 10
3468.440305
 20
3635.437941
 11
3468.440305
 21
3631.337941
  0
LINE
  8
0
  6
CONTINUOUS
 62
3
 10
3468.440305
 20
3640.837941
 11
3468.440305
 21
3640.237941
  0
LINE
  8
0
  6
CONTINUOUS
 62
3
 10
3468.440305
 20
3631.337941
 11
3468.440305
 21
3555.337941
  0
LINE
  8
0
  6
CONTINUOUS
 62
3
 10
3468.440305
 20
3555.337941
 11
3468.440305
 21
3551.237941
  0
LINE
  8
0
  6
CONTINUOUS
 62
3
 10
3468.440305
 20
3546.437941
 11
3468.440305
 21
3545.837941
  0
LINE
  8
0
  6
CONTINUOUS
 62
3
 10
3472.940305
 20
3642.837941
 11
3470.440305
 21
3642.837941
  0
LINE
  8
0
  6
CONTINUOUS
 62
3
 10
3470.440305
 20
3543.837941
 11
3472.940305
 21
3543.837941
  0
LINE
  8
0
  6
CONTINUOUS
 62
3
 10
3478.940305
 20
3642.837941
 11
3472.940305
 21
3642.837941
  0
LINE
  8
0
  6
CONTINUOUS
 62
3
 10
3472.940305
 20
3543.837941
 11
3506.440305
 21
3543.837941
  0
LINE
  8
0
  6
CONTINUOUS
 62
3
 10
3506.440305
 20
3544.337941
 11
3506.440305
 21
3543.837941
  0
LINE
  8
0
  6
CONTINUOUS
 62
3
 10
3506.440305
 20
3646.337941
 11
3490.940305
 21
3646.337941
  0
LINE
  8
0
  6
CONTINUOUS
 62
3
 10
3478.940305
 20
3646.337941
 11
3490.940305
 21
3646.337941
  0
LINE
  8
0
  6
CONTINUOUS
 62
3
 10
3478.940305
 20
3646.337941
 11
3478.940305
 21
3642.837941
  0
LINE
  8
0
  6
CONTINUOUS
 62
3
 10
3542.940305
 20
3560.837941
 11
3541.440305
 21
3559.337941
  0
LINE
  8
0
  6
CONTINUOUS
 62
3
 10
3512.940305
 20
3559.337941
 11
3536.319305
 21
3559.337941
  0
LINE
  8
0
  6
CONTINUOUS
 62
3
 10
3539.561305
 20
3559.337941
 11
3541.440305
 21
3559.337941
  0
LINE
  8
0
  6
CONTINUOUS
 62
3
 10
3512.940305
 20
3559.337941
 11
3509.440305
 21
3559.215718
  0
LINE
  8
0
  6
CONTINUOUS
 62
3
 10
3391.340305
 20
3685.712941
 11
3391.340305
 21
3709.070301
  0
LINE
  8
0
  6
CONTINUOUS
 62
3
 10
3391.340305
 20
3713.055080
 11
3391.340305
 21
3709.070301
  0
LINE
  8
0
  6
CONTINUOUS
 62
3
 10
3391.340305
 20
3713.055080
 11
3391.340305
 21
3715.592251
  0
LINE
  8
0
  6
CONTINUOUS
 62
3
 10
3391.340305
 20
3715.607473
 11
3391.340305
 21
3715.592251
  0
ARC
  8
0
  6
CONTINUOUS
 62
3
 10
3387.340305
 20
3715.607473
 40
4.000000
 50
0.000000
 51
90.000000
  0
LINE
  8
0
  6
CONTINUOUS
 62
3
 10
3366.340305
 20
3709.070301
 11
3366.340305
 21
3685.712941
  0
LINE
  8
0
  6
CONTINUOUS
 62
3
 10
3366.340305
 20
3719.577030
 11
3366.340305
 21
3717.039859
  0
LINE
  8
0
  6
CONTINUOUS
 62
3
 10
3366.340305
 20
3719.577030
 11
3366.340305
 21
3719.607473
  0
LINE
  8
0
  6
CONTINUOUS
 62
3
 10
3366.340305
 20
3709.070301
 11
3366.340305
 21
3717.039859
  0
LINE
  8
0
  6
CONTINUOUS
 62
3
 10
3387.340305
 20
3719.607473
 11
3366.340305
 21
3719.607473
  0
LINE
  8
0
  6
CONTINUOUS
 62
3
 10
3348.340305
 20
3686.337941
 11
3349.340305
 21
3687.337941
  0
LINE
  8
0
  6
CONTINUOUS
 62
3
 10
3348.340305
 20
3686.337941
 11
3348.340305
 21
3685.712941
  0
LINE
  8
0
  6
CONTINUOUS
 62
3
 10
3348.340305
 20
3704.337941
 11
3349.340305
 21
3703.337941
  0
LINE
  8
0
  6
CONTINUOUS
 62
3
 10
3348.340305
 20
3708.712941
 11
3349.340305
 21
3709.712941
  0
LINE
  8
0
  6
CONTINUOUS
 62
3
 10
3348.340305
 20
3708.712941
 11
3348.340305
 21
3704.337941
  0
LINE
  8
0
  6
CONTINUOUS
 62
3
 10
3343.740305
 20
3696.337941
 11
3343.740305
 21
3694.337941
  0
LINE
  8
0
  6
CONTINUOUS
 62
3
 10
3343.740305
 20
3694.337941
 11
3344.740305
 21
3693.337941
  0
LINE
  8
0
  6
CONTINUOUS
 62
3
 10
3343.740305
 20
3696.337941
 11
3344.740305
 21
3697.337941
  0
LINE
  8
0
  6
CONTINUOUS
 62
3
 10
3357.740305
 20
3687.337941
 11
3349.340305
 21
3687.337941
  0
LINE
  8
0
  6
CONTINUOUS
 62
3
 10
3357.740305
 20
3703.337941
 11
3349.340305
 21
3703.337941
  0
LINE
  8
0
  6
CONTINUOUS
 62
3
 10
3357.740305
 20
3709.712941
 11
3349.340305
 21
3709.712941
  0
LINE
  8
0
  6
CONTINUOUS
 62
3
 10
3366.340305
 20
3709.712941
 11
3357.740305
 21
3709.712941
  0
LINE
  8
0
  6
CONTINUOUS
 62
3
 10
3366.340305
 20
3703.337941
 11
3357.740305
 21
3703.337941
  0
LINE
  8
0
  6
CONTINUOUS
 62
3
 10
3366.340305
 20
3687.337941
 11
3357.740305
 21
3687.337941
  0
LINE
  8
0
  6
CONTINUOUS
 62
3
 10
3357.740305
 20
3697.337941
 11
3344.740305
 21
3697.337941
  0
LINE
  8
0
  6
CONTINUOUS
 62
3
 10
3357.740305
 20
3693.337941
 11
3344.740305
 21
3693.337941
  0
LINE
  8
0
  6
CONTINUOUS
 62
3
 10
3366.340305
 20
3697.337941
 11
3357.740305
 21
3697.337941
  0
LINE
  8
0
  6
CONTINUOUS
 62
3
 10
3366.340305
 20
3693.337941
 11
3357.740305
 21
3693.337941
  0
LINE
  8
0
  6
CONTINUOUS
 62
3
 10
3308.096197
 20
3798.335261
 11
3311.580825
 21
3796.102399
  0
LINE
  8
0
  6
CONTINUOUS
 62
3
 10
3311.580825
 20
3796.102399
 11
3313.261322
 21
3794.893437
  0
LINE
  8
0
  6
CONTINUOUS
 62
3
 10
3313.261322
 20
3794.893437
 11
3314.896388
 21
3793.626043
  0
LINE
  8
0
  6
CONTINUOUS
 62
3
 10
3314.896388
 20
3793.626043
 11
3315.695897
 21
3792.971196
  0
LINE
  8
0
  6
CONTINUOUS
 62
3
 10
3315.695897
 20
3792.971196
 11
3316.482861
 21
3792.302657
  0
LINE
  8
0
  6
CONTINUOUS
 62
3
 10
3316.482861
 20
3792.302657
 11
3318.017577
 21
3790.925723
  0
LINE
  8
0
  6
CONTINUOUS
 62
3
 10
3318.017577
 20
3790.925723
 11
3318.392799
 21
3790.573408
  0
LINE
  8
0
  6
CONTINUOUS
 62
3
 10
3318.392799
 20
3790.573408
 11
3318.764612
 21
3790.217862
  0
LINE
  8
0
  6
CONTINUOUS
 62
3
 10
3318.764612
 20
3790.217862
 11
3319.499032
 21
3789.496032
  0
LINE
  8
0
  6
CONTINUOUS
 62
3
 10
3319.499032
 20
3789.496032
 11
3320.930427
 21
3788.010358
  0
LINE
  8
0
  6
CONTINUOUS
 62
3
 10
3320.930427
 20
3788.010358
 11
3321.280256
 21
3787.630476
  0
LINE
  8
0
  6
CONTINUOUS
 62
3
 10
3321.280256
 20
3787.630476
 11
3321.626802
 21
3787.247307
  0
LINE
  8
0
  6
CONTINUOUS
 62
3
 10
3321.626802
 20
3787.247307
 11
3322.309895
 21
3786.471308
  0
LINE
  8
0
  6
CONTINUOUS
 62
3
 10
3322.309895
 20
3786.471308
 11
3323.635037
 21
3784.882052
  0
LINE
  8
0
  6
CONTINUOUS
 62
3
 10
3323.635037
 20
3784.882052
 11
3323.957553
 21
3784.477265
  0
LINE
  8
0
  6
CONTINUOUS
 62
3
 10
3323.957553
 20
3784.477265
 11
3324.276486
 21
3784.069587
  0
LINE
  8
0
  6
CONTINUOUS
 62
3
 10
3324.276486
 20
3784.069587
 11
3324.903454
 21
3783.245759
  0
LINE
  8
0
  6
CONTINUOUS
 62
3
 10
3324.903454
 20
3783.245759
 11
3326.112746
 21
3781.565598
  0
LINE
  8
0
  6
CONTINUOUS
 62
3
 10
3326.112746
 20
3781.565598
 11
3326.259631
 21
3781.352651
  0
LINE
  8
0
  6
CONTINUOUS
 62
3
 10
3326.259631
 20
3781.352651
 11
3326.405549
 21
3781.139075
  0
LINE
  8
0
  6
CONTINUOUS
 62
3
 10
3326.405549
 20
3781.139075
 11
3326.694470
 21
3780.710058
  0
LINE
  8
0
  6
CONTINUOUS
 62
3
 10
3326.694470
 20
3780.710058
 11
3327.260513
 21
3779.844739
  0
LINE
  8
0
  6
CONTINUOUS
 62
3
 10
3327.260513
 20
3779.844739
 11
3328.344356
 21
3778.086350
  0
LINE
  8
0
  6
CONTINUOUS
 62
3
 10
3328.344356
 20
3778.086350
 11
3328.475222
 21
3777.864071
  0
LINE
  8
0
  6
CONTINUOUS
 62
3
 10
3328.475222
 20
3777.864071
 11
3328.605047
 21
3777.641261
  0
LINE
  8
0
  6
CONTINUOUS
 62
3
 10
3328.605047
 20
3777.641261
 11
3328.861556
 21
3777.194073
  0
LINE
  8
0
  6
CONTINUOUS
 62
3
 10
3328.861556
 20
3777.194073
 11
3329.361875
 21
3776.293602
  0
LINE
  8
0
  6
CONTINUOUS
 62
3
 10
3329.361875
 20
3776.293602
 11
3330.312157
 21
3774.467035
  0
LINE
  8
0
  6
CONTINUOUS
 62
3
 10
3330.312157
 20
3774.467035
 11
3330.426379
 21
3774.236031
  0
LINE
  8
0
  6
CONTINUOUS
 62
3
 10
3330.426379
 20
3774.236031
 11
3330.539584
 21
3774.004445
  0
LINE
  8
0
  6
CONTINUOUS
 62
3
 10
3330.539584
 20
3774.004445
 11
3330.762933
 21
3773.539555
  0
LINE
  8
0
  6
CONTINUOUS
 62
3
 10
3330.762933
 20
3773.539555
 11
3331.197317
 21
3772.603110
  0
LINE
  8
0
  6
CONTINUOUS
 62
3
 10
3331.197317
 20
3772.603110
 11
3332.016275
 21
3770.705204
  0
LINE
  8
0
  6
CONTINUOUS
 62
3
 10
3332.016275
 20
3770.705204
 11
3332.113926
 21
3770.465763
  0
LINE
  8
0
  6
CONTINUOUS
 62
3
 10
3332.113926
 20
3770.465763
 11
3332.210521
 21
3770.225858
  0
LINE
  8
0
  6
CONTINUOUS
 62
3
 10
3332.210521
 20
3770.225858
 11
3332.400528
 21
3769.744684
  0
LINE
  8
0
  6
CONTINUOUS
 62
3
 10
3332.400528
 20
3769.744684
 11
3332.767751
 21
3768.777080
  0
LINE
  8
0
  6
CONTINUOUS
 62
3
 10
3332.767751
 20
3768.777080
 11
3333.450464
 21
3766.822501
  0
LINE
  8
0
  6
CONTINUOUS
 62
3
 10
3333.450464
 20
3766.822501
 11
3333.530905
 21
3766.576506
  0
LINE
  8
0
  6
CONTINUOUS
 62
3
 10
3333.530905
 20
3766.576506
 11
3333.610248
 21
3766.330164
  0
LINE
  8
0
  6
CONTINUOUS
 62
3
 10
3333.610248
 20
3766.330164
 11
3333.765635
 21
3765.836468
  0
LINE
  8
0
  6
CONTINUOUS
 62
3
 10
3333.765635
 20
3765.836468
 11
3334.063135
 21
3764.845232
  0
LINE
  8
0
  6
CONTINUOUS
 62
3
 10
3334.063135
 20
3764.845232
 11
3334.604484
 21
3762.849036
  0
LINE
  8
0
  6
CONTINUOUS
 62
3
 10
3334.604484
 20
3762.849036
 11
3334.667074
 21
3762.598368
  0
LINE
  8
0
  6
CONTINUOUS
 62
3
 10
3334.667074
 20
3762.598368
 11
3334.728527
 21
3762.347471
  0
LINE
  8
0
  6
CONTINUOUS
 62
3
 10
3334.728527
 20
3762.347471
 11
3334.848013
 21
3761.845016
  0
LINE
  8
0
  6
CONTINUOUS
 62
3
 10
3334.848013
 20
3761.845016
 11
3335.073230
 21
3760.837676
  0
LINE
  8
0
  6
CONTINUOUS
 62
3
 10
3335.073230
 20
3760.837676
 11
3335.468094
 21
3758.814916
  0
LINE
  8
0
  6
CONTINUOUS
 62
3
 10
3335.468094
 20
3758.814916
 11
3335.490291
 21
3758.688200
  0
LINE
  8
0
  6
CONTINUOUS
 62
3
 10
3335.490291
 20
3758.688200
 11
3335.512193
 21
3758.561456
  0
LINE
  8
0
  6
CONTINUOUS
 62
3
 10
3335.512193
 20
3758.561456
 11
3335.555120
 21
3758.307861
  0
LINE
  8
0
  6
CONTINUOUS
 62
3
 10
3335.555120
 20
3758.307861
 11
3335.637522
 21
3757.799876
  0
LINE
  8
0
  6
CONTINUOUS
 62
3
 10
3335.637522
 20
3757.799876
 11
3335.788545
 21
3756.780774
  0
LINE
  8
0
  6
CONTINUOUS
 62
3
 10
3335.788545
 20
3756.780774
 11
3336.035460
 21
3754.731793
  0
LINE
  8
0
  6
CONTINUOUS
 62
3
 10
3336.035460
 20
3754.731793
 11
3336.048451
 21
3754.603323
  0
LINE
  8
0
  6
CONTINUOUS
 62
3
 10
3336.048451
 20
3754.603323
 11
3336.061154
 21
3754.474811
  0
LINE
  8
0
  6
CONTINUOUS
 62
3
 10
3336.061154
 20
3754.474811
 11
3336.085700
 21
3754.217664
  0
LINE
  8
0
  6
CONTINUOUS
 62
3
 10
3336.085700
 20
3754.217664
 11
3336.131343
 21
3753.702906
  0
LINE
  8
0
  6
CONTINUOUS
 62
3
 10
3336.131343
 20
3753.702906
 11
3336.208839
 21
3752.671751
  0
LINE
  8
0
  6
CONTINUOUS
 62
3
 10
3336.208839
 20
3752.671751
 11
3336.308652
 21
3750.604624
  0
LINE
  8
0
  6
CONTINUOUS
 62
3
 10
3336.308652
 20
3750.604624
 11
3336.312447
 21
3750.475284
  0
LINE
  8
0
  6
CONTINUOUS
 62
3
 10
3336.312447
 20
3750.475284
 11
3336.315955
 21
3750.345933
  0
LINE
  8
0
  6
CONTINUOUS
 62
3
 10
3336.315955
 20
3750.345933
 11
3336.322107
 21
3750.087201
  0
LINE
  8
0
  6
CONTINUOUS
 62
3
 10
3336.322107
 20
3750.087201
 11
3336.330962
 21
3749.569646
  0
LINE
  8
0
  6
CONTINUOUS
 62
3
 10
3336.330962
 20
3749.569646
 11
3336.334869
 21
3748.534387
  0
LINE
  8
0
  6
CONTINUOUS
 62
3
 10
3336.334869
 20
3748.534387
 11
3336.287458
 21
3746.465016
  0
LINE
  8
0
  6
CONTINUOUS
 62
3
 10
3336.287458
 20
3746.465016
 11
3336.282050
 21
3746.335799
  0
LINE
  8
0
  6
CONTINUOUS
 62
3
 10
3336.282050
 20
3746.335799
 11
3336.276353
 21
3746.206603
  0
LINE
  8
0
  6
CONTINUOUS
 62
3
 10
3336.276353
 20
3746.206603
 11
3336.264098
 21
3745.948274
  0
LINE
  8
0
  6
CONTINUOUS
 62
3
 10
3336.264098
 20
3745.948274
 11
3336.236133
 21
3745.431897
  0
LINE
  8
0
  6
CONTINUOUS
 62
3
 10
3336.236133
 20
3745.431897
 11
3336.166390
 21
3744.400484
  0
LINE
  8
0
  6
CONTINUOUS
 62
3
 10
3336.166390
 20
3744.400484
 11
3335.971634
 21
3742.344768
  0
LINE
  8
0
  6
CONTINUOUS
 62
3
 10
3335.971634
 20
3742.344768
 11
3335.957014
 21
3742.216670
  0
LINE
  8
0
  6
CONTINUOUS
 62
3
 10
3335.957014
 20
3742.216670
 11
3335.942107
 21
3742.088622
  0
LINE
  8
0
  6
CONTINUOUS
 62
3
 10
3335.942107
 20
3742.088622
 11
3335.911427
 21
3741.832683
  0
LINE
  8
0
  6
CONTINUOUS
 62
3
 10
3335.911427
 20
3741.832683
 11
3335.846613
 21
3741.321458
  0
LINE
  8
0
  6
CONTINUOUS
 62
3
 10
3335.846613
 20
3741.321458
 11
3335.703159
 21
3740.301843
  0
LINE
  8
0
  6
CONTINUOUS
 62
3
 10
3335.703159
 20
3740.301843
 11
3335.360375
 21
3738.271006
  0
LINE
  8
0
  6
CONTINUOUS
 62
3
 10
3335.360375
 20
3738.271006
 11
3335.336469
 21
3738.144349
  0
LINE
  8
0
  6
CONTINUOUS
 62
3
 10
3335.336469
 20
3738.144349
 11
3335.312272
 21
3738.017728
  0
LINE
  8
0
  6
CONTINUOUS
 62
3
 10
3335.312272
 20
3738.017728
 11
3335.263009
 21
3737.764600
  0
LINE
  8
0
  6
CONTINUOUS
 62
3
 10
3335.263009
 20
3737.764600
 11
3335.161014
 21
3737.258829
  0
LINE
  8
0
  6
CONTINUOUS
 62
3
 10
3335.161014
 20
3737.258829
 11
3334.943207
 21
3736.249425
  0
LINE
  8
0
  6
CONTINUOUS
 62
3
 10
3334.943207
 20
3736.249425
 11
3334.452871
 21
3734.240831
  0
LINE
  8
0
  6
CONTINUOUS
 62
3
 10
3334.452871
 20
3734.240831
 11
3334.419823
 21
3734.115811
  0
LINE
  8
0
  6
CONTINUOUS
 62
3
 10
3334.419823
 20
3734.115811
 11
3334.386495
 21
3733.990858
  0
LINE
  8
0
  6
CONTINUOUS
 62
3
 10
3334.386495
 20
3733.990858
 11
3334.318997
 21
3733.741155
  0
LINE
  8
0
  6
CONTINUOUS
 62
3
 10
3334.318997
 20
3733.741155
 11
3334.180646
 21
3733.242586
  0
LINE
  8
0
  6
CONTINUOUS
 62
3
 10
3334.180646
 20
3733.242586
 11
3333.890587
 21
3732.249006
  0
LINE
  8
0
  6
CONTINUOUS
 62
3
 10
3333.890587
 20
3732.249006
 11
3333.257578
 21
3730.277734
  0
LINE
  8
0
  6
CONTINUOUS
 62
3
 10
3333.257578
 20
3730.277734
 11
3333.215695
 21
3730.155298
  0
LINE
  8
0
  6
CONTINUOUS
 62
3
 10
3333.215695
 20
3730.155298
 11
3333.173540
 21
3730.032958
  0
LINE
  8
0
  6
CONTINUOUS
 62
3
 10
3333.173540
 20
3730.032958
 11
3333.088419
 21
3729.788570
  0
LINE
  8
0
  6
CONTINUOUS
 62
3
 10
3333.088419
 20
3729.788570
 11
3332.914934
 21
3729.300986
  0
LINE
  8
0
  6
CONTINUOUS
 62
3
 10
3332.914934
 20
3729.300986
 11
3332.555067
 21
3728.330796
  0
LINE
  8
0
  6
CONTINUOUS
 62
3
 10
3332.555067
 20
3728.330796
 11
3331.784274
 21
3726.411976
  0
LINE
  8
0
  6
CONTINUOUS
 62
3
 10
3331.784274
 20
3726.411976
 11
3331.733860
 21
3726.293070
  0
LINE
  8
0
  6
CONTINUOUS
 62
3
 10
3331.733860
 20
3726.293070
 11
3331.683185
 21
3726.174289
  0
LINE
  8
0
  6
CONTINUOUS
 62
3
 10
3331.683185
 20
3726.174289
 11
3331.581050
 21
3725.937107
  0
LINE
  8
0
  6
CONTINUOUS
 62
3
 10
3331.581050
 20
3725.937107
 11
3331.373654
 21
3725.464292
  0
LINE
  8
0
  6
CONTINUOUS
 62
3
 10
3331.373654
 20
3725.464292
 11
3330.946423
 21
3724.525056
  0
LINE
  8
0
  6
CONTINUOUS
 62
3
 10
3330.946423
 20
3724.525056
 11
3330.042735
 21
3722.673819
  0
LINE
  8
0
  6
CONTINUOUS
 62
3
 10
3330.042735
 20
3722.673819
 11
3329.984087
 21
3722.559371
  0
LINE
  8
0
  6
CONTINUOUS
 62
3
 10
3329.984087
 20
3722.559371
 11
3329.925168
 21
3722.445038
  0
LINE
  8
0
  6
CONTINUOUS
 62
3
 10
3329.925168
 20
3722.445038
 11
3329.806514
 21
3722.216720
  0
LINE
  8
0
  6
CONTINUOUS
 62
3
 10
3329.806514
 20
3722.216720
 11
3329.565965
 21
3721.761498
  0
LINE
  8
0
  6
CONTINUOUS
 62
3
 10
3329.565965
 20
3721.761498
 11
3329.072027
 21
3720.856885
  0
LINE
  8
0
  6
CONTINUOUS
 62
3
 10
3329.072027
 20
3720.856885
 11
3328.033816
 21
3719.072390
  0
LINE
  8
0
  6
CONTINUOUS
 62
3
 10
3328.033816
 20
3719.072390
 11
3327.966741
 21
3718.962010
  0
LINE
  8
0
  6
CONTINUOUS
 62
3
 10
3327.966741
 20
3718.962010
 11
3327.899411
 21
3718.851769
  0
LINE
  8
0
  6
CONTINUOUS
 62
3
 10
3327.899411
 20
3718.851769
 11
3327.763992
 21
3718.631711
  0
LINE
  8
0
  6
CONTINUOUS
 62
3
 10
3327.763992
 20
3718.631711
 11
3327.490133
 21
3718.193309
  0
LINE
  8
0
  6
CONTINUOUS
 62
3
 10
3327.490133
 20
3718.193309
 11
3326.930455
 21
3717.323540
  0
LINE
  8
0
  6
CONTINUOUS
 62
3
 10
3326.930455
 20
3717.323540
 11
3325.764292
 21
3715.613539
  0
LINE
  8
0
  6
CONTINUOUS
 62
3
 10
3325.764292
 20
3715.613539
 11
3325.689375
 21
3715.508028
  0
LINE
  8
0
  6
CONTINUOUS
 62
3
 10
3325.689375
 20
3715.508028
 11
3325.614223
 21
3715.402681
  0
LINE
  8
0
  6
CONTINUOUS
 62
3
 10
3325.614223
 20
3715.402681
 11
3325.463214
 21
3715.192485
  0
LINE
  8
0
  6
CONTINUOUS
 62
3
 10
3325.463214
 20
3715.192485
 11
3325.158395
 21
3714.774110
  0
LINE
  8
0
  6
CONTINUOUS
 62
3
 10
3325.158395
 20
3714.774110
 11
3324.537679
 21
3713.945595
  0
LINE
  8
0
  6
CONTINUOUS
 62
3
 10
3324.537679
 20
3713.945595
 11
3323.252965
 21
3712.322913
  0
LINE
  8
0
  6
CONTINUOUS
 62
3
 10
3323.252965
 20
3712.322913
 11
3323.170795
 21
3712.223071
  0
LINE
  8
0
  6
CONTINUOUS
 62
3
 10
3323.170795
 20
3712.223071
 11
3323.088408
 21
3712.123420
  0
LINE
  8
0
  6
CONTINUOUS
 62
3
 10
3323.088408
 20
3712.123420
 11
3322.922984
 21
3711.924690
  0
LINE
  8
0
  6
CONTINUOUS
 62
3
 10
3322.922984
 20
3711.924690
 11
3322.589555
 21
3711.529547
  0
LINE
  8
0
  6
CONTINUOUS
 62
3
 10
3322.589555
 20
3711.529547
 11
3321.912502
 21
3710.748699
  0
LINE
  8
0
  6
CONTINUOUS
 62
3
 10
3321.912502
 20
3710.748699
 11
3320.518640
 21
3709.226158
  0
LINE
  8
0
  6
CONTINUOUS
 62
3
 10
3320.518640
 20
3709.226158
 11
3320.474247
 21
3709.179446
  0
LINE
  8
0
  6
CONTINUOUS
 62
3
 10
3320.474247
 20
3709.179446
 11
3320.429804
 21
3709.132788
  0
LINE
  8
0
  6
CONTINUOUS
 62
3
 10
3320.429804
 20
3709.132788
 11
3320.340770
 21
3709.039633
  0
LINE
  8
0
  6
CONTINUOUS
 62
3
 10
3320.340770
 20
3709.039633
 11
3320.162107
 21
3708.853972
  0
LINE
  8
0
  6
CONTINUOUS
 62
3
 10
3320.162107
 20
3708.853972
 11
3319.802419
 21
3708.485267
  0
LINE
  8
0
  6
CONTINUOUS
 62
3
 10
3319.802419
 20
3708.485267
 11
3319.073700
 21
3707.758467
  0
LINE
  8
0
  6
CONTINUOUS
 62
3
 10
3319.073700
 20
3707.758467
 11
3317.575489
 21
3706.343976
  0
LINE
  8
0
  6
CONTINUOUS
 62
3
 10
3317.575489
 20
3706.343976
 11
3317.527790
 21
3706.300603
  0
LINE
  8
0
  6
CONTINUOUS
 62
3
 10
3317.527790
 20
3706.300603
 11
3317.480038
 21
3706.257281
  0
LINE
  8
0
  6
CONTINUOUS
 62
3
 10
3317.480038
 20
3706.257281
 11
3317.384380
 21
3706.170791
  0
LINE
  8
0
  6
CONTINUOUS
 62
3
 10
3317.384380
 20
3706.170791
 11
3317.192439
 21
3705.998427
  0
LINE
  8
0
  6
CONTINUOUS
 62
3
 10
3317.192439
 20
3705.998427
 11
3316.806092
 21
3705.656178
  0
LINE
  8
0
  6
CONTINUOUS
 62
3
 10
3316.806092
 20
3705.656178
 11
3316.023708
 21
3704.981728
  0
LINE
  8
0
  6
CONTINUOUS
 62
3
 10
3316.023708
 20
3704.981728
 11
3314.421596
 21
3703.674026
  0
LINE
  8
0
  6
CONTINUOUS
 62
3
 10
3314.421596
 20
3703.674026
 11
3314.370755
 21
3703.634065
  0
LINE
  8
0
  6
CONTINUOUS
 62
3
 10
3314.370755
 20
3703.634065
 11
3314.319867
 21
3703.594159
  0
LINE
  8
0
  6
CONTINUOUS
 62
3
 10
3314.319867
 20
3703.594159
 11
3314.217955
 21
3703.514514
  0
LINE
  8
0
  6
CONTINUOUS
 62
3
 10
3314.217955
 20
3703.514514
 11
3314.013584
 21
3703.355894
  0
LINE
  8
0
  6
CONTINUOUS
 62
3
 10
3314.013584
 20
3703.355894
 11
3313.602679
 21
3703.041350
  0
LINE
  8
0
  6
CONTINUOUS
 62
3
 10
3313.602679
 20
3703.041350
 11
3312.772395
 21
3702.423174
  0
LINE
  8
0
  6
CONTINUOUS
 62
3
 10
3312.772395
 20
3702.423174
 11
3311.079343
 21
3701.231473
  0
LINE
  8
0
  6
CONTINUOUS
 62
3
 10
3311.079343
 20
3701.231473
 11
3311.025764
 21
3701.195210
  0
LINE
  8
0
  6
CONTINUOUS
 62
3
 10
3311.025764
 20
3701.195210
 11
3310.972145
 21
3701.159008
  0
LINE
  8
0
  6
CONTINUOUS
 62
3
 10
3310.972145
 20
3701.159008
 11
3310.864790
 21
3701.086784
  0
LINE
  8
0
  6
CONTINUOUS
 62
3
 10
3310.864790
 20
3701.086784
 11
3310.649608
 21
3700.943060
  0
LINE
  8
0
  6
CONTINUOUS
 62
3
 10
3310.649608
 20
3700.943060
 11
3310.217386
 21
3700.658524
  0
LINE
  8
0
  6
CONTINUOUS
 62
3
 10
3310.217386
 20
3700.658524
 11
3309.345681
 21
3700.101227
  0
LINE
  8
0
  6
CONTINUOUS
 62
3
 10
3309.345681
 20
3700.101227
 11
3307.574649
 21
3699.034740
  0
LINE
  8
0
  6
CONTINUOUS
 62
3
 10
3307.574649
 20
3699.034740
 11
3307.518738
 21
3699.002465
  0
LINE
  8
0
  6
CONTINUOUS
 62
3
 10
3307.518738
 20
3699.002465
 11
3307.462793
 21
3698.970254
  0
LINE
  8
0
  6
CONTINUOUS
 62
3
 10
3307.462793
 20
3698.970254
 11
3307.350804
 21
3698.906027
  0
LINE
  8
0
  6
CONTINUOUS
 62
3
 10
3307.350804
 20
3698.906027
 11
3307.126432
 21
3698.778351
  0
LINE
  8
0
  6
CONTINUOUS
 62
3
 10
3307.126432
 20
3698.778351
 11
3306.676132
 21
3698.526126
  0
LINE
  8
0
  6
CONTINUOUS
 62
3
 10
3306.676132
 20
3698.526126
 11
3305.769487
 21
3698.034315
  0
LINE
  8
0
  6
CONTINUOUS
 62
3
 10
3305.769487
 20
3698.034315
 11
3303.933278
 21
3697.102174
  0
LINE
  8
0
  6
CONTINUOUS
 62
3
 10
3303.933278
 20
3697.102174
 11
3303.875377
 21
3697.074143
  0
LINE
  8
0
  6
CONTINUOUS
 62
3
 10
3303.875377
 20
3697.074143
 11
3303.817440
 21
3697.046176
  0
LINE
  8
0
  6
CONTINUOUS
 62
3
 10
3303.817440
 20
3697.046176
 11
3303.701456
 21
3696.990433
  0
LINE
  8
0
  6
CONTINUOUS
 62
3
 10
3303.701456
 20
3696.990433
 11
3303.469050
 21
3696.879716
  0
LINE
  8
0
  6
CONTINUOUS
 62
3
 10
3303.469050
 20
3696.879716
 11
3303.002516
 21
3696.661362
  0
LINE
  8
0
  6
CONTINUOUS
 62
3
 10
3303.002516
 20
3696.661362
 11
3302.062763
 21
3696.237042
  0
LINE
  8
0
  6
CONTINUOUS
 62
3
 10
3302.062763
 20
3696.237042
 11
3300.158185
 21
3695.438464
  0
LINE
  8
0
  6
CONTINUOUS
 62
3
 10
3300.158185
 20
3695.438464
 11
3300.098160
 21
3695.414593
  0
LINE
  8
0
  6
CONTINUOUS
 62
3
 10
3300.098160
 20
3695.414593
 11
3300.038105
 21
3695.390789
  0
LINE
  8
0
  6
CONTINUOUS
 62
3
 10
3300.038105
 20
3695.390789
 11
3299.917907
 21
3695.343379
  0
LINE
  8
0
  6
CONTINUOUS
 62
3
 10
3299.917907
 20
3695.343379
 11
3299.677164
 21
3695.249355
  0
LINE
  8
0
  6
CONTINUOUS
 62
3
 10
3299.677164
 20
3695.249355
 11
3299.194311
 21
3695.064496
  0
LINE
  8
0
  6
CONTINUOUS
 62
3
 10
3299.194311
 20
3695.064496
 11
3298.223345
 21
3694.707605
  0
LINE
  8
0
  6
CONTINUOUS
 62
3
 10
3298.223345
 20
3694.707605
 11
3296.262043
 21
3694.045631
  0
LINE
  8
0
  6
CONTINUOUS
 62
3
 10
3296.262043
 20
3694.045631
 11
3296.200367
 21
3694.026067
  0
LINE
  8
0
  6
CONTINUOUS
 62
3
 10
3296.200367
 20
3694.026067
 11
3296.138670
 21
3694.006572
  0
LINE
  8
0
  6
CONTINUOUS
 62
3
 10
3296.138670
 20
3694.006572
 11
3296.015209
 21
3693.967786
  0
LINE
  8
0
  6
CONTINUOUS
 62
3
 10
3296.015209
 20
3693.967786
 11
3295.768028
 21
3693.891038
  0
LINE
  8
0
  6
CONTINUOUS
 62
3
 10
3295.768028
 20
3693.891038
 11
3295.272656
 21
3693.740841
  0
LINE
  8
0
  6
CONTINUOUS
 62
3
 10
3295.272656
 20
3693.740841
 11
3294.278078
 21
3693.453710
  0
LINE
  8
0
  6
CONTINUOUS
 62
3
 10
3294.278078
 20
3693.453710
 11
3292.275252
 21
3692.933008
  0
LINE
  8
0
  6
CONTINUOUS
 62
3
 10
3292.275252
 20
3692.933008
 11
3292.212401
 21
3692.917896
  0
LINE
  8
0
  6
CONTINUOUS
 62
3
 10
3292.212401
 20
3692.917896
 11
3292.149536
 21
3692.902855
  0
LINE
  8
0
  6
CONTINUOUS
 62
3
 10
3292.149536
 20
3692.902855
 11
3292.023762
 21
3692.872986
  0
LINE
  8
0
  6
CONTINUOUS
 62
3
 10
3292.023762
 20
3692.872986
 11
3291.772043
 21
3692.814097
  0
LINE
  8
0
  6
CONTINUOUS
 62
3
 10
3291.772043
 20
3692.814097
 11
3291.267953
 21
3692.699728
  0
LINE
  8
0
  6
CONTINUOUS
 62
3
 10
3291.267953
 20
3692.699728
 11
3290.257364
 21
3692.484690
  0
LINE
  8
0
  6
CONTINUOUS
 62
3
 10
3290.257364
 20
3692.484690
 11
3288.228214
 21
3692.109924
  0
LINE
  8
0
  6
CONTINUOUS
 62
3
 10
3288.228214
 20
3692.109924
 11
3288.164663
 21
3692.099410
  0
LINE
  8
0
  6
CONTINUOUS
 62
3
 10
3288.164663
 20
3692.099410
 11
3288.101105
 21
3692.088970
  0
LINE
  8
0
  6
CONTINUOUS
 62
3
 10
3288.101105
 20
3692.088970
 11
3287.973968
 21
3692.068308
  0
LINE
  8
0
  6
CONTINUOUS
 62
3
 10
3287.973968
 20
3692.068308
 11
3287.719613
 21
3692.027861
  0
LINE
  8
0
  6
CONTINUOUS
 62
3
 10
3287.719613
 20
3692.027861
 11
3287.210604
 21
3691.950487
  0
LINE
  8
0
  6
CONTINUOUS
 62
3
 10
3287.210604
 20
3691.950487
 11
3286.191203
 21
3691.809815
  0
LINE
  8
0
  6
CONTINUOUS
 62
3
 10
3286.191203
 20
3691.809815
 11
3284.142273
 21
3691.584022
  0
LINE
  8
0
  6
CONTINUOUS
 62
3
 10
3284.142273
 20
3691.584022
 11
3284.078046
 21
3691.578157
  0
LINE
  8
0
  6
CONTINUOUS
 62
3
 10
3284.078046
 20
3691.578157
 11
3284.013808
 21
3691.572364
  0
LINE
  8
0
  6
CONTINUOUS
 62
3
 10
3284.013808
 20
3691.572364
 11
3283.885300
 21
3691.560995
  0
LINE
  8
0
  6
CONTINUOUS
 62
3
 10
3283.885300
 20
3691.560995
 11
3283.628162
 21
3691.539122
  0
LINE
  8
0
  6
CONTINUOUS
 62
3
 10
3283.628162
 20
3691.539122
 11
3283.113425
 21
3691.498838
  0
LINE
  8
0
  6
CONTINUOUS
 62
3
 10
3283.113425
 20
3691.498838
 11
3282.082316
 21
3691.432113
  0
LINE
  8
0
  6
CONTINUOUS
 62
3
 10
3282.082316
 20
3691.432113
 11
3280.015306
 21
3691.353998
  0
LINE
  8
0
  6
CONTINUOUS
 62
3
 10
3280.015306
 20
3691.353998
 11
3279.950641
 21
3691.352745
  0
LINE
  8
0
  6
CONTINUOUS
 62
3
 10
3279.950641
 20
3691.352745
 11
3279.885974
 21
3691.351564
  0
LINE
  8
0
  6
CONTINUOUS
 62
3
 10
3279.885974
 20
3691.351564
 11
3279.756632
 21
3691.349418
  0
LINE
  8
0
  6
CONTINUOUS
 62
3
 10
3279.756632
 20
3691.349418
 11
3279.497917
 21
3691.345989
  0
LINE
  8
0
  6
CONTINUOUS
 62
3
 10
3279.497917
 20
3691.345989
 11
3278.980398
 21
3691.342586
  0
LINE
  8
0
  6
CONTINUOUS
 62
3
 10
3278.980398
 20
3691.342586
 11
3277.945217
 21
3691.349589
  0
LINE
  8
0
  6
CONTINUOUS
 62
3
 10
3277.945217
 20
3691.349589
 11
3275.876023
 21
3691.418796
  0
LINE
  8
0
  6
CONTINUOUS
 62
3
 10
3275.876023
 20
3691.418796
 11
3275.811419
 21
3691.422144
  0
LINE
  8
0
  6
CONTINUOUS
 62
3
 10
3275.811419
 20
3691.422144
 11
3275.746819
 21
3691.425564
  0
LINE
  8
0
  6
CONTINUOUS
 62
3
 10
3275.746819
 20
3691.425564
 11
3275.617635
 21
3691.432619
  0
LINE
  8
0
  6
CONTINUOUS
 62
3
 10
3275.617635
 20
3691.432619
 11
3275.359331
 21
3691.447591
  0
LINE
  8
0
  6
CONTINUOUS
 62
3
 10
3275.359331
 20
3691.447591
 11
3274.843004
 21
3691.480979
  0
LINE
  8
0
  6
CONTINUOUS
 62
3
 10
3274.843004
 20
3691.480979
 11
3273.811699
 21
3691.561532
  0
LINE
  8
0
  6
CONTINUOUS
 62
3
 10
3273.811699
 20
3691.561532
 11
3271.756219
 21
3691.777706
  0
LINE
  8
0
  6
CONTINUOUS
 62
3
 10
3271.756219
 20
3691.777706
 11
3271.692171
 21
3691.785643
  0
LINE
  8
0
  6
CONTINUOUS
 62
3
 10
3271.692171
 20
3691.785643
 11
3271.628136
 21
3691.793653
  0
LINE
  8
0
  6
CONTINUOUS
 62
3
 10
3271.628136
 20
3691.793653
 11
3271.500104
 21
3691.809886
  0
LINE
  8
0
  6
CONTINUOUS
 62
3
 10
3271.500104
 20
3691.809886
 11
3271.244197
 21
3691.843213
  0
LINE
  8
0
  6
CONTINUOUS
 62
3
 10
3271.244197
 20
3691.843213
 11
3270.733038
 21
3691.913304
  0
LINE
  8
0
  6
CONTINUOUS
 62
3
 10
3270.733038
 20
3691.913304
 11
3269.713557
 21
3692.067229
  0
LINE
  8
0
  6
CONTINUOUS
 62
3
 10
3269.713557
 20
3692.067229
 11
3267.686971
 21
3692.430136
  0
LINE
  8
0
  6
CONTINUOUS
 62
3
 10
3267.686971
 20
3692.430136
 11
3267.623845
 21
3692.442674
  0
LINE
  8
0
  6
CONTINUOUS
 62
3
 10
3267.623845
 20
3692.442674
 11
3267.560728
 21
3692.455285
  0
LINE
  8
0
  6
CONTINUOUS
 62
3
 10
3267.560728
 20
3692.455285
 11
3267.434522
 21
3692.480726
  0
LINE
  8
0
  6
CONTINUOUS
 62
3
 10
3267.434522
 20
3692.480726
 11
3267.182228
 21
3692.532482
  0
LINE
  8
0
  6
CONTINUOUS
 62
3
 10
3267.182228
 20
3692.532482
 11
3266.678129
 21
3692.639484
  0
LINE
  8
0
  6
CONTINUOUS
 62
3
 10
3266.678129
 20
3692.639484
 11
3265.672101
 21
3692.867368
  0
LINE
  8
0
  6
CONTINUOUS
 62
3
 10
3265.672101
 20
3692.867368
 11
3263.670355
 21
3693.378080
  0
LINE
  8
0
  6
CONTINUOUS
 62
3
 10
3263.670355
 20
3693.378080
 11
3263.608052
 21
3693.395209
  0
LINE
  8
0
  6
CONTINUOUS
 62
3
 10
3263.608052
 20
3693.395209
 11
3263.545767
 21
3693.412409
  0
LINE
  8
0
  6
CONTINUOUS
 62
3
 10
3263.545767
 20
3693.412409
 11
3263.421246
 21
3693.447019
  0
LINE
  8
0
  6
CONTINUOUS
 62
3
 10
3263.421246
 20
3693.447019
 11
3263.172408
 21
3693.517083
  0
LINE
  8
0
  6
CONTINUOUS
 62
3
 10
3263.172408
 20
3693.517083
 11
3262.675573
 21
3693.660574
  0
LINE
  8
0
  6
CONTINUOUS
 62
3
 10
3262.675573
 20
3693.660574
 11
3261.685477
 21
3693.960936
  0
LINE
  8
0
  6
CONTINUOUS
 62
3
 10
3261.685477
 20
3693.960936
 11
3259.721212
 21
3694.614600
  0
LINE
  8
0
  6
CONTINUOUS
 62
3
 10
3259.721212
 20
3694.614600
 11
3259.660202
 21
3694.636154
  0
LINE
  8
0
  6
CONTINUOUS
 62
3
 10
3259.660202
 20
3694.636154
 11
3259.599216
 21
3694.657775
  0
LINE
  8
0
  6
CONTINUOUS
 62
3
 10
3259.599216
 20
3694.657775
 11
3259.477315
 21
3694.701221
  0
LINE
  8
0
  6
CONTINUOUS
 62
3
 10
3259.477315
 20
3694.701221
 11
3259.233806
 21
3694.788924
  0
LINE
  8
0
  6
CONTINUOUS
 62
3
 10
3259.233806
 20
3694.788924
 11
3258.747980
 21
3694.967569
  0
LINE
  8
0
  6
CONTINUOUS
 62
3
 10
3258.747980
 20
3694.967569
 11
3257.781304
 21
3695.337738
  0
LINE
  8
0
  6
CONTINUOUS
 62
3
 10
3257.781304
 20
3695.337738
 11
3255.869497
 21
3696.129014
  0
LINE
  8
0
  6
CONTINUOUS
 62
3
 10
3255.869497
 20
3696.129014
 11
3255.810247
 21
3696.154825
  0
LINE
  8
0
  6
CONTINUOUS
 62
3
 10
3255.810247
 20
3696.154825
 11
3255.751028
 21
3696.180701
  0
LINE
  8
0
  6
CONTINUOUS
 62
3
 10
3255.751028
 20
3696.180701
 11
3255.632684
 21
3696.232648
  0
LINE
  8
0
  6
CONTINUOUS
 62
3
 10
3255.632684
 20
3696.232648
 11
3255.396375
 21
3696.337323
  0
LINE
  8
0
  6
CONTINUOUS
 62
3
 10
3255.396375
 20
3696.337323
 11
3254.925302
 21
3696.549786
  0
LINE
  8
0
  6
CONTINUOUS
 62
3
 10
3254.925302
 20
3696.549786
 11
3253.989536
 21
3696.987093
  0
LINE
  8
0
  6
CONTINUOUS
 62
3
 10
3253.989536
 20
3696.987093
 11
3252.145164
 21
3697.910639
  0
LINE
  8
0
  6
CONTINUOUS
 62
3
 10
3252.145164
 20
3697.910639
 11
3252.088141
 21
3697.940540
  0
LINE
  8
0
  6
CONTINUOUS
 62
3
 10
3252.088141
 20
3697.940540
 11
3252.031157
 21
3697.970504
  0
LINE
  8
0
  6
CONTINUOUS
 62
3
 10
3252.031157
 20
3697.970504
 11
3251.917306
 21
3698.030619
  0
LINE
  8
0
  6
CONTINUOUS
 62
3
 10
3251.917306
 20
3698.030619
 11
3251.690070
 21
3698.151598
  0
LINE
  8
0
  6
CONTINUOUS
 62
3
 10
3251.690070
 20
3698.151598
 11
3251.237494
 21
3698.396545
  0
LINE
  8
0
  6
CONTINUOUS
 62
3
 10
3251.237494
 20
3698.396545
 11
3250.339115
 21
3698.898851
  0
LINE
  8
0
  6
CONTINUOUS
 62
3
 10
3250.339115
 20
3698.898851
 11
3248.567329
 21
3699.954021
  0
LINE
  8
0
  6
CONTINUOUS
 62
3
 10
3248.567329
 20
3699.954021
 11
3248.512522
 21
3699.988062
  0
LINE
  8
0
  6
CONTINUOUS
 62
3
 10
3248.512522
 20
3699.988062
 11
3248.457751
 21
3700.022166
  0
LINE
  8
0
  6
CONTINUOUS
 62
3
 10
3248.457751
 20
3700.022166
 11
3248.348313
 21
3700.090565
  0
LINE
  8
0
  6
CONTINUOUS
 62
3
 10
3248.348313
 20
3700.090565
 11
3248.129864
 21
3700.228127
  0
LINE
  8
0
  6
CONTINUOUS
 62
3
 10
3248.129864
 20
3700.228127
 11
3247.694690
 21
3700.506282
  0
LINE
  8
0
  6
CONTINUOUS
 62
3
 10
3247.694690
 20
3700.506282
 11
3246.831408
 21
3701.074585
  0
LINE
  8
0
  6
CONTINUOUS
 62
3
 10
3246.831408
 20
3701.074585
 11
3245.134487
 21
3702.258097
  0
LINE
  8
0
  6
CONTINUOUS
 62
3
 10
3245.134487
 20
3702.258097
 11
3245.082121
 21
3702.296070
  0
LINE
  8
0
  6
CONTINUOUS
 62
3
 10
3245.082121
 20
3702.296070
 11
3245.029796
 21
3702.334101
  0
LINE
  8
0
  6
CONTINUOUS
 62
3
 10
3245.029796
 20
3702.334101
 11
3244.925271
 21
3702.410340
  0
LINE
  8
0
  6
CONTINUOUS
 62
3
 10
3244.925271
 20
3702.410340
 11
3244.716718
 21
3702.563524
  0
LINE
  8
0
  6
CONTINUOUS
 62
3
 10
3244.716718
 20
3702.563524
 11
3244.301631
 21
3702.872695
  0
LINE
  8
0
  6
CONTINUOUS
 62
3
 10
3244.301631
 20
3702.872695
 11
3243.479700
 21
3703.502112
  0
LINE
  8
0
  6
CONTINUOUS
 62
3
 10
3243.479700
 20
3703.502112
 11
3241.870179
 21
3704.804183
  0
LINE
  8
0
  6
CONTINUOUS
 62
3
 10
3241.870179
 20
3704.804183
 11
3241.820645
 21
3704.845781
  0
LINE
  8
0
  6
CONTINUOUS
 62
3
 10
3241.820645
 20
3704.845781
 11
3241.771159
 21
3704.887434
  0
LINE
  8
0
  6
CONTINUOUS
 62
3
 10
3241.771159
 20
3704.887434
 11
3241.672328
 21
3704.970902
  0
LINE
  8
0
  6
CONTINUOUS
 62
3
 10
3241.672328
 20
3704.970902
 11
3241.475239
 21
3705.138485
  0
LINE
  8
0
  6
CONTINUOUS
 62
3
 10
3241.475239
 20
3705.138485
 11
3241.083373
 21
3705.476225
  0
LINE
  8
0
  6
CONTINUOUS
 62
3
 10
3241.083373
 20
3705.476225
 11
3240.309059
 21
3706.161864
  0
LINE
  8
0
  6
CONTINUOUS
 62
3
 10
3240.309059
 20
3706.161864
 11
3238.799473
 21
3707.572711
  0
LINE
  8
0
  6
CONTINUOUS
 62
3
 10
3238.799473
 20
3707.572711
 11
3238.753163
 21
3707.617629
  0
LINE
  8
0
  6
CONTINUOUS
 62
3
 10
3238.753163
 20
3707.617629
 11
3238.706907
 21
3707.662598
  0
LINE
  8
0
  6
CONTINUOUS
 62
3
 10
3238.706907
 20
3707.662598
 11
3238.614555
 21
3707.752683
  0
LINE
  8
0
  6
CONTINUOUS
 62
3
 10
3238.614555
 20
3707.752683
 11
3238.430496
 21
3707.933442
  0
LINE
  8
0
  6
CONTINUOUS
 62
3
 10
3238.430496
 20
3707.933442
 11
3238.064985
 21
3708.297306
  0
LINE
  8
0
  6
CONTINUOUS
 62
3
 10
3238.064985
 20
3708.297306
 11
3237.344556
 21
3709.034276
  0
LINE
  8
0
  6
CONTINUOUS
 62
3
 10
3237.344556
 20
3709.034276
 11
3235.946293
 21
3710.545302
  0
LINE
  8
0
  6
CONTINUOUS
 62
3
 10
3235.946293
 20
3710.545302
 11
3235.903460
 21
3710.593377
  0
LINE
  8
0
  6
CONTINUOUS
 62
3
 10
3235.903460
 20
3710.593377
 11
3235.860678
 21
3710.641504
  0
LINE
  8
0
  6
CONTINUOUS
 62
3
 10
3235.860678
 20
3710.641504
 11
3235.775268
 21
3710.737915
  0
LINE
  8
0
  6
CONTINUOUS
 62
3
 10
3235.775268
 20
3710.737915
 11
3235.605070
 21
3710.931362
  0
LINE
  8
0
  6
CONTINUOUS
 62
3
 10
3235.605070
 20
3710.931362
 11
3235.267169
 21
3711.320733
  0
LINE
  8
0
  6
CONTINUOUS
 62
3
 10
3235.267169
 20
3711.320733
 11
3234.601476
 21
3712.109199
  0
LINE
  8
0
  6
CONTINUOUS
 62
3
 10
3234.601476
 20
3712.109199
 11
3233.311482
 21
3713.723580
  0
LINE
  8
0
  6
CONTINUOUS
 62
3
 10
3233.311482
 20
3713.723580
 11
3233.272077
 21
3713.774807
  0
LINE
  8
0
  6
CONTINUOUS
 62
3
 10
3233.272077
 20
3713.774807
 11
3233.232728
 21
3713.826080
  0
LINE
  8
0
  6
CONTINUOUS
 62
3
 10
3233.232728
 20
3713.826080
 11
3233.154197
 21
3713.928763
  0
LINE
  8
0
  6
CONTINUOUS
 62
3
 10
3233.154197
 20
3713.928763
 11
3232.997808
 21
3714.134676
  0
LINE
  8
0
  6
CONTINUOUS
 62
3
 10
3232.997808
 20
3714.134676
 11
3232.687733
 21
3714.548669
  0
LINE
  8
0
  6
CONTINUOUS
 62
3
 10
3232.687733
 20
3714.548669
 11
3232.078516
 21
3715.385138
  0
LINE
  8
0
  6
CONTINUOUS
 62
3
 10
3232.078516
 20
3715.385138
 11
3230.904783
 21
3717.090565
  0
LINE
  8
0
  6
CONTINUOUS
 62
3
 10
3230.904783
 20
3717.090565
 11
3230.869083
 21
3717.144530
  0
LINE
  8
0
  6
CONTINUOUS
 62
3
 10
3230.869083
 20
3717.144530
 11
3230.833442
 21
3717.198535
  0
LINE
  8
0
  6
CONTINUOUS
 62
3
 10
3230.833442
 20
3717.198535
 11
3230.762341
 21
3717.306663
  0
LINE
  8
0
  6
CONTINUOUS
 62
3
 10
3230.762341
 20
3717.306663
 11
3230.620864
 21
3717.523388
  0
LINE
  8
0
  6
CONTINUOUS
 62
3
 10
3230.620864
 20
3717.523388
 11
3230.340818
 21
3717.958695
  0
LINE
  8
0
  6
CONTINUOUS
 62
3
 10
3230.340818
 20
3717.958695
 11
3229.792488
 21
3718.836552
  0
LINE
  8
0
  6
CONTINUOUS
 62
3
 10
3229.792488
 20
3718.836552
 11
3228.743834
 21
3720.619793
  0
LINE
  8
0
  6
CONTINUOUS
 62
3
 10
3228.743834
 20
3720.619793
 11
3228.712113
 21
3720.676084
  0
LINE
  8
0
  6
CONTINUOUS
 62
3
 10
3228.712113
 20
3720.676084
 11
3228.680457
 21
3720.732407
  0
LINE
  8
0
  6
CONTINUOUS
 62
3
 10
3228.680457
 20
3720.732407
 11
3228.617337
 21
3720.845153
  0
LINE
  8
0
  6
CONTINUOUS
 62
3
 10
3228.617337
 20
3720.845153
 11
3228.491873
 21
3721.071037
  0
LINE
  8
0
  6
CONTINUOUS
 62
3
 10
3228.491873
 20
3721.071037
 11
3228.244062
 21
3721.524350
  0
LINE
  8
0
  6
CONTINUOUS
 62
3
 10
3228.244062
 20
3721.524350
 11
3227.761028
 21
3722.436979
  0
LINE
  8
0
  6
CONTINUOUS
 62
3
 10
3227.761028
 20
3722.436979
 11
3226.846272
 21
3724.284803
  0
LINE
  8
0
  6
CONTINUOUS
 62
3
 10
3226.846272
 20
3724.284803
 11
3226.818807
 21
3724.343005
  0
LINE
  8
0
  6
CONTINUOUS
 62
3
 10
3226.818807
 20
3724.343005
 11
3226.791410
 21
3724.401234
  0
LINE
  8
0
  6
CONTINUOUS
 62
3
 10
3226.791410
 20
3724.401234
 11
3226.736822
 21
3724.517770
  0
LINE
  8
0
  6
CONTINUOUS
 62
3
 10
3226.736822
 20
3724.517770
 11
3226.628475
 21
3724.751158
  0
LINE
  8
0
  6
CONTINUOUS
 62
3
 10
3226.628475
 20
3724.751158
 11
3226.415065
 21
3725.219253
  0
LINE
  8
0
  6
CONTINUOUS
 62
3
 10
3226.415065
 20
3725.219253
 11
3226.000791
 21
3726.161985
  0
LINE
  8
0
  6
CONTINUOUS
 62
3
 10
3226.000791
 20
3726.161985
 11
3225.222603
 21
3728.072583
  0
LINE
  8
0
  6
CONTINUOUS
 62
3
 10
3225.222603
 20
3728.072583
 11
3225.199375
 21
3728.132797
  0
LINE
  8
0
  6
CONTINUOUS
 62
3
 10
3225.199375
 20
3728.132797
 11
3225.176214
 21
3728.193042
  0
LINE
  8
0
  6
CONTINUOUS
 62
3
 10
3225.176214
 20
3728.193042
 11
3225.130091
 21
3728.313618
  0
LINE
  8
0
  6
CONTINUOUS
 62
3
 10
3225.130091
 20
3728.313618
 11
3225.038643
 21
3728.555119
  0
LINE
  8
0
  6
CONTINUOUS
 62
3
 10
3225.038643
 20
3728.555119
 11
3224.858951
 21
3729.039491
  0
LINE
  8
0
  6
CONTINUOUS
 62
3
 10
3224.858951
 20
3729.039491
 11
3224.512436
 21
3730.013499
  0
LINE
  8
0
  6
CONTINUOUS
 62
3
 10
3224.512436
 20
3730.013499
 11
3223.871342
 21
3731.980901
  0
LINE
  8
0
  6
CONTINUOUS
 62
3
 10
3223.871342
 20
3731.980901
 11
3223.852433
 21
3732.042767
  0
LINE
  8
0
  6
CONTINUOUS
 62
3
 10
3223.852433
 20
3732.042767
 11
3223.833591
 21
3732.104656
  0
LINE
  8
0
  6
CONTINUOUS
 62
3
 10
3223.833591
 20
3732.104656
 11
3223.796115
 21
3732.228498
  0
LINE
  8
0
  6
CONTINUOUS
 62
3
 10
3223.796115
 20
3732.228498
 11
3223.721985
 21
3732.476441
  0
LINE
  8
0
  6
CONTINUOUS
 62
3
 10
3223.721985
 20
3732.476441
 11
3223.577026
 21
3732.973336
  0
LINE
  8
0
  6
CONTINUOUS
 62
3
 10
3223.577026
 20
3732.973336
 11
3223.300373
 21
3733.970955
  0
LINE
  8
0
  6
CONTINUOUS
 62
3
 10
3223.300373
 20
3733.970955
 11
3222.800579
 21
3735.979826
  0
LINE
  8
0
  6
CONTINUOUS
 62
3
 10
3222.800579
 20
3735.979826
 11
3222.786118
 21
3736.042864
  0
LINE
  8
0
  6
CONTINUOUS
 62
3
 10
3222.786118
 20
3736.042864
 11
3222.771729
 21
3736.105918
  0
LINE
  8
0
  6
CONTINUOUS
 62
3
 10
3222.771729
 20
3736.105918
 11
3222.743161
 21
3736.232067
  0
LINE
  8
0
  6
CONTINUOUS
 62
3
 10
3222.743161
 20
3736.232067
 11
3222.686875
 21
3736.484535
  0
LINE
  8
0
  6
CONTINUOUS
 62
3
 10
3222.686875
 20
3736.484535
 11
3222.577701
 21
3736.990120
  0
LINE
  8
0
  6
CONTINUOUS
 62
3
 10
3222.577701
 20
3736.990120
 11
3222.373012
 21
3738.003681
  0
LINE
  8
0
  6
CONTINUOUS
 62
3
 10
3222.373012
 20
3738.003681
 11
3222.018724
 21
3740.038687
  0
LINE
  8
0
  6
CONTINUOUS
 62
3
 10
3222.018724
 20
3740.038687
 11
3222.008845
 21
3740.102419
  0
LINE
  8
0
  6
CONTINUOUS
 62
3
 10
3222.008845
 20
3740.102419
 11
3221.999038
 21
3740.166158
  0
LINE
  8
0
  6
CONTINUOUS
 62
3
 10
3221.999038
 20
3740.166158
 11
3221.979643
 21
3740.293656
  0
LINE
  8
0
  6
CONTINUOUS
 62
3
 10
3221.979643
 20
3740.293656
 11
3221.941725
 21
3740.548732
  0
LINE
  8
0
  6
CONTINUOUS
 62
3
 10
3221.941725
 20
3740.548732
 11
3221.869389
 21
3741.059174
  0
LINE
  8
0
  6
CONTINUOUS
 62
3
 10
3221.869389
 20
3741.059174
 11
3221.738767
 21
3742.081011
  0
LINE
  8
0
  6
CONTINUOUS
 62
3
 10
3221.738767
 20
3742.081011
 11
3221.533798
 21
3744.129740
  0
LINE
  8
0
  6
CONTINUOUS
 62
3
 10
3221.533798
 20
3744.129740
 11
3221.528592
 21
3744.193946
  0
LINE
  8
0
  6
CONTINUOUS
 62
3
 10
3221.528592
 20
3744.193946
 11
3221.523459
 21
3744.258163
  0
LINE
  8
0
  6
CONTINUOUS
 62
3
 10
3221.523459
 20
3744.258163
 11
3221.513411
 21
3744.386627
  0
LINE
  8
0
  6
CONTINUOUS
 62
3
 10
3221.513411
 20
3744.386627
 11
3221.494184
 21
3744.643678
  0
LINE
  8
0
  6
CONTINUOUS
 62
3
 10
3221.494184
 20
3744.643678
 11
3221.459210
 21
3745.158241
  0
LINE
  8
0
  6
CONTINUOUS
 62
3
 10
3221.459210
 20
3745.158241
 11
3221.403170
 21
3746.188990
  0
LINE
  8
0
  6
CONTINUOUS
 62
3
 10
3221.403170
 20
3746.188990
 11
3221.346630
 21
3748.255252
  0
LINE
  8
0
  6
CONTINUOUS
 62
3
 10
3221.346630
 20
3748.255252
 11
3221.346055
 21
3748.319893
  0
LINE
  8
0
  6
CONTINUOUS
 62
3
 10
3221.346055
 20
3748.319893
 11
3221.345551
 21
3748.384536
  0
LINE
  8
0
  6
CONTINUOUS
 62
3
 10
3221.345551
 20
3748.384536
 11
3221.344761
 21
3748.513830
  0
LINE
  8
0
  6
CONTINUOUS
 62
3
 10
3221.344761
 20
3748.513830
 11
3221.344047
 21
3748.772448
  0
LINE
  8
0
  6
CONTINUOUS
 62
3
 10
3221.344047
 20
3748.772448
 11
3221.346078
 21
3749.289772
  0
LINE
  8
0
  6
CONTINUOUS
 62
3
 10
3221.346078
 20
3749.289772
 11
3221.363969
 21
3750.324556
  0
LINE
  8
0
  6
CONTINUOUS
 62
3
 10
3221.363969
 20
3750.324556
 11
3221.454980
 21
3752.392932
  0
LINE
  8
0
  6
CONTINUOUS
 62
3
 10
3221.454980
 20
3752.392932
 11
3221.459009
 21
3752.457511
  0
LINE
  8
0
  6
CONTINUOUS
 62
3
 10
3221.459009
 20
3752.457511
 11
3221.463109
 21
3752.522084
  0
LINE
  8
0
  6
CONTINUOUS
 62
3
 10
3221.463109
 20
3752.522084
 11
3221.471526
 21
3752.651216
  0
LINE
  8
0
  6
CONTINUOUS
 62
3
 10
3221.471526
 20
3752.651216
 11
3221.489219
 21
3752.909416
  0
LINE
  8
0
  6
CONTINUOUS
 62
3
 10
3221.489219
 20
3752.909416
 11
3221.528046
 21
3753.425532
  0
LINE
  8
0
  6
CONTINUOUS
 62
3
 10
3221.528046
 20
3753.425532
 11
3221.619453
 21
3754.456411
  0
LINE
  8
0
  6
CONTINUOUS
 62
3
 10
3221.619453
 20
3754.456411
 11
3221.857180
 21
3756.511022
  0
LINE
  8
0
  6
CONTINUOUS
 62
3
 10
3221.857180
 20
3756.511022
 11
3221.865787
 21
3756.575042
  0
LINE
  8
0
  6
CONTINUOUS
 62
3
 10
3221.865787
 20
3756.575042
 11
3221.874465
 21
3756.639050
  0
LINE
  8
0
  6
CONTINUOUS
 62
3
 10
3221.874465
 20
3756.639050
 11
3221.892036
 21
3756.767027
  0
LINE
  8
0
  6
CONTINUOUS
 62
3
 10
3221.892036
 20
3756.767027
 11
3221.928033
 21
3757.022824
  0
LINE
  8
0
  6
CONTINUOUS
 62
3
 10
3221.928033
 20
3757.022824
 11
3222.003448
 21
3757.533762
  0
LINE
  8
0
  6
CONTINUOUS
 62
3
 10
3222.003448
 20
3757.533762
 11
3222.167952
 21
3758.552796
  0
LINE
  8
0
  6
CONTINUOUS
 62
3
 10
3222.167952
 20
3758.552796
 11
3222.551562
 21
3760.577764
  0
LINE
  8
0
  6
CONTINUOUS
 62
3
 10
3222.551562
 20
3760.577764
 11
3222.564721
 21
3760.640730
  0
LINE
  8
0
  6
CONTINUOUS
 62
3
 10
3222.564721
 20
3760.640730
 11
3222.577951
 21
3760.703676
  0
LINE
  8
0
  6
CONTINUOUS
 62
3
 10
3222.577951
 20
3760.703676
 11
3222.604624
 21
3760.829506
  0
LINE
  8
0
  6
CONTINUOUS
 62
3
 10
3222.604624
 20
3760.829506
 11
3222.658825
 21
3761.080933
  0
LINE
  8
0
  6
CONTINUOUS
 62
3
 10
3222.658825
 20
3761.080933
 11
3222.770723
 21
3761.583233
  0
LINE
  8
0
  6
CONTINUOUS
 62
3
 10
3222.770723
 20
3761.583233
 11
3223.008480
 21
3762.585632
  0
LINE
  8
0
  6
CONTINUOUS
 62
3
 10
3223.008480
 20
3762.585632
 11
3223.539198
 21
3764.579995
  0
LINE
  8
0
  6
CONTINUOUS
 62
3
 10
3223.539198
 20
3764.579995
 11
3223.556957
 21
3764.642064
  0
LINE
  8
0
  6
CONTINUOUS
 62
3
 10
3223.556957
 20
3764.642064
 11
3223.574787
 21
3764.704117
  0
LINE
  8
0
  6
CONTINUOUS
 62
3
 10
3223.574787
 20
3764.704117
 11
3223.610658
 21
3764.828171
  0
LINE
  8
0
  6
CONTINUOUS
 62
3
 10
3223.610658
 20
3764.828171
 11
3223.683247
 21
3765.076075
  0
LINE
  8
0
  6
CONTINUOUS
 62
3
 10
3223.683247
 20
3765.076075
 11
3223.831797
 21
3765.571034
  0
LINE
  8
0
  6
CONTINUOUS
 62
3
 10
3223.831797
 20
3765.571034
 11
3224.142315
 21
3766.557362
  0
LINE
  8
0
  6
CONTINUOUS
 62
3
 10
3224.142315
 20
3766.557362
 11
3224.816384
 21
3768.514031
  0
LINE
  8
0
  6
CONTINUOUS
 62
3
 10
3224.816384
 20
3768.514031
 11
3224.838576
 21
3768.574803
  0
LINE
  8
0
  6
CONTINUOUS
 62
3
 10
3224.838576
 20
3768.574803
 11
3224.860836
 21
3768.635551
  0
LINE
  8
0
  6
CONTINUOUS
 62
3
 10
3224.860836
 20
3768.635551
 11
3224.905560
 21
3768.756975
  0
LINE
  8
0
  6
CONTINUOUS
 62
3
 10
3224.905560
 20
3768.756975
 11
3224.995818
 21
3768.999530
  0
LINE
  8
0
  6
CONTINUOUS
 62
3
 10
3224.995818
 20
3768.999530
 11
3225.179573
 21
3769.483446
  0
LINE
  8
0
  6
CONTINUOUS
 62
3
 10
3225.179573
 20
3769.483446
 11
3225.559958
 21
3770.446299
  0
LINE
  8
0
  6
CONTINUOUS
 62
3
 10
3225.559958
 20
3770.446299
 11
3226.371589
 21
3772.350463
  0
LINE
  8
0
  6
CONTINUOUS
 62
3
 10
3226.371589
 20
3772.350463
 11
3226.398033
 21
3772.409475
  0
LINE
  8
0
  6
CONTINUOUS
 62
3
 10
3226.398033
 20
3772.409475
 11
3226.424542
 21
3772.468456
  0
LINE
  8
0
  6
CONTINUOUS
 62
3
 10
3226.424542
 20
3772.468456
 11
3226.477756
 21
3772.586323
  0
LINE
  8
0
  6
CONTINUOUS
 62
3
 10
3226.477756
 20
3772.586323
 11
3226.584961
 21
3772.821679
  0
LINE
  8
0
  6
CONTINUOUS
 62
3
 10
3226.584961
 20
3772.821679
 11
3226.802473
 21
3773.290850
  0
LINE
  8
0
  6
CONTINUOUS
 62
3
 10
3226.802473
 20
3773.290850
 11
3227.249830
 21
3774.222822
  0
LINE
  8
0
  6
CONTINUOUS
 62
3
 10
3227.249830
 20
3774.222822
 11
3228.193234
 21
3776.059673
  0
LINE
  8
0
  6
CONTINUOUS
 62
3
 10
3228.193234
 20
3776.059673
 11
3228.223749
 21
3776.116462
  0
LINE
  8
0
  6
CONTINUOUS
 62
3
 10
3228.223749
 20
3776.116462
 11
3228.254327
 21
3776.173213
  0
LINE
  8
0
  6
CONTINUOUS
 62
3
 10
3228.254327
 20
3776.173213
 11
3228.315669
 21
3776.286598
  0
LINE
  8
0
  6
CONTINUOUS
 62
3
 10
3228.315669
 20
3776.286598
 11
3228.439097
 21
3776.512904
  0
LINE
  8
0
  6
CONTINUOUS
 62
3
 10
3228.439097
 20
3776.512904
 11
3228.688919
 21
3776.963626
  0
LINE
  8
0
  6
CONTINUOUS
 62
3
 10
3228.688919
 20
3776.963626
 11
3229.200353
 21
3777.857313
  0
LINE
  8
0
  6
CONTINUOUS
 62
3
 10
3229.200353
 20
3777.857313
 11
3230.271956
 21
3779.616097
  0
LINE
  8
0
  6
CONTINUOUS
 62
3
 10
3230.271956
 20
3779.616097
 11
3230.306514
 21
3779.670491
  0
LINE
  8
0
  6
CONTINUOUS
 62
3
 10
3230.306514
 20
3779.670491
 11
3230.341136
 21
3779.724850
  0
LINE
  8
0
  6
CONTINUOUS
 62
3
 10
3230.341136
 20
3779.724850
 11
3230.410572
 21
3779.833460
  0
LINE
  8
0
  6
CONTINUOUS
 62
3
 10
3230.410572
 20
3779.833460
 11
3230.550210
 21
3780.050253
  0
LINE
  8
0
  6
CONTINUOUS
 62
3
 10
3230.550210
 20
3780.050253
 11
3230.832530
 21
3780.482103
  0
LINE
  8
0
  6
CONTINUOUS
 62
3
 10
3230.832530
 20
3780.482103
 11
3231.409208
 21
3781.338692
  0
LINE
  8
0
  6
CONTINUOUS
 62
3
 10
3231.409208
 20
3781.338692
 11
3232.609601
 21
3783.022093
  0
LINE
  8
0
  6
CONTINUOUS
 62
3
 10
3232.609601
 20
3783.022093
 11
3232.648103
 21
3783.074035
  0
LINE
  8
0
  6
CONTINUOUS
 62
3
 10
3232.648103
 20
3783.074035
 11
3232.686664
 21
3783.125935
  0
LINE
  8
0
  6
CONTINUOUS
 62
3
 10
3232.686664
 20
3783.125935
 11
3232.763964
 21
3783.229610
  0
LINE
  8
0
  6
CONTINUOUS
 62
3
 10
3232.763964
 20
3783.229610
 11
3232.919268
 21
3783.436461
  0
LINE
  8
0
  6
CONTINUOUS
 62
3
 10
3232.919268
 20
3783.436461
 11
3233.232683
 21
3783.848140
  0
LINE
  8
0
  6
CONTINUOUS
 62
3
 10
3233.232683
 20
3783.848140
 11
3233.870598
 21
3784.663241
  0
LINE
  8
0
  6
CONTINUOUS
 62
3
 10
3233.870598
 20
3784.663241
 11
3235.189658
 21
3786.259077
  0
LINE
  8
0
  6
CONTINUOUS
 62
3
 10
3235.189658
 20
3786.259077
 11
3235.231787
 21
3786.308184
  0
LINE
  8
0
  6
CONTINUOUS
 62
3
 10
3235.231787
 20
3786.308184
 11
3235.273970
 21
3786.357243
  0
LINE
  8
0
  6
CONTINUOUS
 62
3
 10
3235.273970
 20
3786.357243
 11
3235.358497
 21
3786.455218
  0
LINE
  8
0
  6
CONTINUOUS
 62
3
 10
3235.358497
 20
3786.455218
 11
3235.528198
 21
3786.650598
  0
LINE
  8
0
  6
CONTINUOUS
 62
3
 10
3235.528198
 20
3786.650598
 11
3235.870169
 21
3787.039048
  0
LINE
  8
0
  6
CONTINUOUS
 62
3
 10
3235.870169
 20
3787.039048
 11
3236.564244
 21
3787.806543
  0
LINE
  8
0
  6
CONTINUOUS
 62
3
 10
3236.564244
 20
3787.806543
 11
3237.991815
 21
3789.302579
  0
LINE
  8
0
  6
CONTINUOUS
 62
3
 10
3237.991815
 20
3789.302579
 11
3238.037253
 21
3789.348468
  0
LINE
  8
0
  6
CONTINUOUS
 62
3
 10
3238.037253
 20
3789.348468
 11
3238.082739
 21
3789.394304
  0
LINE
  8
0
  6
CONTINUOUS
 62
3
 10
3238.082739
 20
3789.394304
 11
3238.173860
 21
3789.485815
  0
LINE
  8
0
  6
CONTINUOUS
 62
3
 10
3238.173860
 20
3789.485815
 11
3238.356689
 21
3789.668194
  0
LINE
  8
0
  6
CONTINUOUS
 62
3
 10
3238.356689
 20
3789.668194
 11
3238.724677
 21
3790.030355
  0
LINE
  8
0
  6
CONTINUOUS
 62
3
 10
3238.724677
 20
3790.030355
 11
3239.469833
 21
3790.744127
  0
LINE
  8
0
  6
CONTINUOUS
 62
3
 10
3239.469833
 20
3790.744127
 11
3240.995759
 21
3792.128128
  0
LINE
  8
0
  6
CONTINUOUS
 62
3
 10
3240.995759
 20
3792.128128
 11
3241.044190
 21
3792.170419
  0
LINE
  8
0
  6
CONTINUOUS
 62
3
 10
3241.044190
 20
3792.170419
 11
3241.092673
 21
3792.212657
  0
LINE
  8
0
  6
CONTINUOUS
 62
3
 10
3241.092673
 20
3792.212657
 11
3241.189796
 21
3792.296977
  0
LINE
  8
0
  6
CONTINUOUS
 62
3
 10
3241.189796
 20
3792.296977
 11
3241.384670
 21
3792.464992
  0
LINE
  8
0
  6
CONTINUOUS
 62
3
 10
3241.384670
 20
3792.464992
 11
3241.776904
 21
3792.798506
  0
LINE
  8
0
  6
CONTINUOUS
 62
3
 10
3241.776904
 20
3792.798506
 11
3242.571135
 21
3793.455357
  0
LINE
  8
0
  6
CONTINUOUS
 62
3
 10
3242.571135
 20
3793.455357
 11
3244.197176
 21
3794.727424
  0
LINE
  8
0
  6
CONTINUOUS
 62
3
 10
3244.197176
 20
3794.727424
 11
3244.248769
 21
3794.766265
  0
LINE
  8
0
  6
CONTINUOUS
 62
3
 10
3244.248769
 20
3794.766265
 11
3244.300409
 21
3794.805049
  0
LINE
  8
0
  6
CONTINUOUS
 62
3
 10
3244.300409
 20
3794.805049
 11
3244.403826
 21
3794.882449
  0
LINE
  8
0
  6
CONTINUOUS
 62
3
 10
3244.403826
 20
3794.882449
 11
3244.611208
 21
3795.036576
  0
LINE
  8
0
  6
CONTINUOUS
 62
3
 10
3244.611208
 20
3795.036576
 11
3245.028142
 21
3795.342115
  0
LINE
  8
0
  6
CONTINUOUS
 62
3
 10
3245.028142
 20
3795.342115
 11
3245.870510
 21
3795.942227
  0
LINE
  8
0
  6
CONTINUOUS
 62
3
 10
3245.870510
 20
3795.942227
 11
3247.587765
 21
3797.097660
  0
LINE
  8
0
  6
CONTINUOUS
 62
3
 10
3247.587765
 20
3797.097660
 11
3247.642100
 21
3797.132788
  0
LINE
  8
0
  6
CONTINUOUS
 62
3
 10
3247.642100
 20
3797.132788
 11
3247.696475
 21
3797.167855
  0
LINE
  8
0
  6
CONTINUOUS
 62
3
 10
3247.696475
 20
3797.167855
 11
3247.805342
 21
3797.237810
  0
LINE
  8
0
  6
CONTINUOUS
 62
3
 10
3247.805342
 20
3797.237810
 11
3248.023546
 21
3797.376995
  0
LINE
  8
0
  6
CONTINUOUS
 62
3
 10
3248.023546
 20
3797.376995
 11
3248.461809
 21
3797.652456
  0
LINE
  8
0
  6
CONTINUOUS
 62
3
 10
3248.461809
 20
3797.652456
 11
3249.345568
 21
3798.191620
  0
LINE
  8
0
  6
CONTINUOUS
 62
3
 10
3249.345568
 20
3798.191620
 11
3251.140547
 21
3799.222003
  0
LINE
  8
0
  6
CONTINUOUS
 62
3
 10
3251.140547
 20
3799.222003
 11
3251.197202
 21
3799.253155
  0
LINE
  8
0
  6
CONTINUOUS
 62
3
 10
3251.197202
 20
3799.253155
 11
3251.253890
 21
3799.284243
  0
LINE
  8
0
  6
CONTINUOUS
 62
3
 10
3251.253890
 20
3799.284243
 11
3251.367365
 21
3799.346225
  0
LINE
  8
0
  6
CONTINUOUS
 62
3
 10
3251.367365
 20
3799.346225
 11
3251.594705
 21
3799.469418
  0
LINE
  8
0
  6
CONTINUOUS
 62
3
 10
3251.594705
 20
3799.469418
 11
3252.050923
 21
3799.712695
  0
LINE
  8
0
  6
CONTINUOUS
 62
3
 10
3252.050923
 20
3799.712695
 11
3252.969328
 21
3800.186704
  0
LINE
  8
0
  6
CONTINUOUS
 62
3
 10
3252.969328
 20
3800.186704
 11
3254.828539
 21
3801.083618
  0
LINE
  8
0
  6
CONTINUOUS
 62
3
 10
3254.828539
 20
3801.083618
 11
3254.887093
 21
3801.110532
  0
LINE
  8
0
  6
CONTINUOUS
 62
3
 10
3254.887093
 20
3801.110532
 11
3254.945673
 21
3801.137377
  0
LINE
  8
0
  6
CONTINUOUS
 62
3
 10
3254.945673
 20
3801.137377
 11
3255.062912
 21
3801.190862
  0
LINE
  8
0
  6
CONTINUOUS
 62
3
 10
3255.062912
 20
3801.190862
 11
3255.297702
 21
3801.297009
  0
LINE
  8
0
  6
CONTINUOUS
 62
3
 10
3255.297702
 20
3801.297009
 11
3255.768502
 21
3801.505999
  0
LINE
  8
0
  6
CONTINUOUS
 62
3
 10
3255.768502
 20
3801.505999
 11
3256.714839
 21
3801.910656
  0
LINE
  8
0
  6
CONTINUOUS
 62
3
 10
3256.714839
 20
3801.910656
 11
3258.630804
 21
3802.668498
  0
LINE
  8
0
  6
CONTINUOUS
 62
3
 10
3258.630804
 20
3802.668498
 11
3258.691187
 21
3802.691083
  0
LINE
  8
0
  6
CONTINUOUS
 62
3
 10
3258.691187
 20
3802.691083
 11
3258.751600
 21
3802.713602
  0
LINE
  8
0
  6
CONTINUOUS
 62
3
 10
3258.751600
 20
3802.713602
 11
3258.872515
 21
3802.758439
  0
LINE
  8
0
  6
CONTINUOUS
 62
3
 10
3258.872515
 20
3802.758439
 11
3259.114693
 21
3802.847309
  0
LINE
  8
0
  6
CONTINUOUS
 62
3
 10
3259.114693
 20
3802.847309
 11
3259.600420
 21
3803.021831
  0
LINE
  8
0
  6
CONTINUOUS
 62
3
 10
3259.600420
 20
3803.021831
 11
3260.577150
 21
3803.357951
  0
LINE
  8
0
  6
CONTINUOUS
 62
3
 10
3260.577150
 20
3803.357951
 11
3262.550015
 21
3803.978081
  0
LINE
  8
0
  6
CONTINUOUS
 62
3
 10
3262.550015
 20
3803.978081
 11
3262.612052
 21
3803.996333
  0
LINE
  8
0
  6
CONTINUOUS
 62
3
 10
3262.612052
 20
3803.996333
 11
3262.674111
 21
3804.014516
  0
LINE
  8
0
  6
CONTINUOUS
 62
3
 10
3262.674111
 20
3804.014516
 11
3262.798295
 21
3804.050676
  0
LINE
  8
0
  6
CONTINUOUS
 62
3
 10
3262.798295
 20
3804.050676
 11
3263.046922
 21
3804.122172
  0
LINE
  8
0
  6
CONTINUOUS
 62
3
 10
3263.046922
 20
3804.122172
 11
3263.545184
 21
3804.261857
  0
LINE
  8
0
  6
CONTINUOUS
 62
3
 10
3263.545184
 20
3804.261857
 11
3264.545535
 21
3804.527951
  0
LINE
  8
0
  6
CONTINUOUS
 62
3
 10
3264.545535
 20
3804.527951
 11
3266.559847
 21
3805.006625
  0
LINE
  8
0
  6
CONTINUOUS
 62
3
 10
3266.559847
 20
3805.006625
 11
3266.623054
 21
3805.020427
  0
LINE
  8
0
  6
CONTINUOUS
 62
3
 10
3266.623054
 20
3805.020427
 11
3266.686277
 21
3805.034157
  0
LINE
  8
0
  6
CONTINUOUS
 62
3
 10
3266.686277
 20
3805.034157
 11
3266.812764
 21
3805.061407
  0
LINE
  8
0
  6
CONTINUOUS
 62
3
 10
3266.812764
 20
3805.061407
 11
3267.065908
 21
3805.115060
  0
LINE
  8
0
  6
CONTINUOUS
 62
3
 10
3267.065908
 20
3805.115060
 11
3267.572842
 21
3805.218972
  0
LINE
  8
0
  6
CONTINUOUS
 62
3
 10
3267.572842
 20
3805.218972
 11
3268.589086
 21
3805.413169
  0
LINE
  8
0
  6
CONTINUOUS
 62
3
 10
3268.589086
 20
3805.413169
 11
3270.629391
 21
3805.746645
  0
LINE
  8
0
  6
CONTINUOUS
 62
3
 10
3270.629391
 20
3805.746645
 11
3270.693287
 21
3805.755879
  0
LINE
  8
0
  6
CONTINUOUS
 62
3
 10
3270.693287
 20
3805.755879
 11
3270.757189
 21
3805.765040
  0
LINE
  8
0
  6
CONTINUOUS
 62
3
 10
3270.757189
 20
3805.765040
 11
3270.885015
 21
3805.783146
  0
LINE
  8
0
  6
CONTINUOUS
 62
3
 10
3270.885015
 20
3805.783146
 11
3271.140743
 21
3805.818488
  0
LINE
  8
0
  6
CONTINUOUS
 62
3
 10
3271.140743
 20
3805.818488
 11
3271.652485
 21
3805.885691
  0
LINE
  8
0
  6
CONTINUOUS
 62
3
 10
3271.652485
 20
3805.885691
 11
3272.676897
 21
3806.006119
  0
LINE
  8
0
  6
CONTINUOUS
 62
3
 10
3272.676897
 20
3806.006119
 11
3274.727838
 21
3806.190687
  0
LINE
  8
0
  6
CONTINUOUS
 62
3
 10
3274.727838
 20
3806.190687
 11
3274.791968
 21
3806.195249
  0
LINE
  8
0
  6
CONTINUOUS
 62
3
 10
3274.791968
 20
3806.195249
 11
3274.856115
 21
3806.199740
  0
LINE
  8
0
  6
CONTINUOUS
 62
3
 10
3274.856115
 20
3806.199740
 11
3274.984426
 21
3806.208507
  0
LINE
  8
0
  6
CONTINUOUS
 62
3
 10
3274.984426
 20
3806.208507
 11
3275.241118
 21
3806.225179
  0
LINE
  8
0
  6
CONTINUOUS
 62
3
 10
3275.241118
 20
3806.225179
 11
3275.754751
 21
3806.255081
  0
LINE
  8
0
  6
CONTINUOUS
 62
3
 10
3275.754751
 20
3806.255081
 11
3276.782799
 21
3806.301102
  0
LINE
  8
0
  6
CONTINUOUS
 62
3
 10
3276.782799
 20
3806.301102
 11
3278.840296
 21
3806.337941
  0
LINE
  8
0
  6
CONTINUOUS
 62
3
 10
3278.840306
 20
3798.337941
 11
3275.147737
 21
3798.197847
  0
LINE
  8
0
  6
CONTINUOUS
 62
3
 10
3275.147737
 20
3798.197847
 11
3273.302796
 21
3798.023667
  0
LINE
  8
0
  6
CONTINUOUS
 62
3
 10
3273.302796
 20
3798.023667
 11
3271.463826
 21
3797.780902
  0
LINE
  8
0
  6
CONTINUOUS
 62
3
 10
3271.463826
 20
3797.780902
 11
3270.547770
 21
3797.633995
  0
LINE
  8
0
  6
CONTINUOUS
 62
3
 10
3270.547770
 20
3797.633995
 11
3269.634635
 21
3797.470176
  0
LINE
  8
0
  6
CONTINUOUS
 62
3
 10
3269.634635
 20
3797.470176
 11
3267.819029
 21
3797.092116
  0
LINE
  8
0
  6
CONTINUOUS
 62
3
 10
3267.819029
 20
3797.092116
 11
3267.367697
 21
3796.987153
  0
LINE
  8
0
  6
CONTINUOUS
 62
3
 10
3267.367697
 20
3796.987153
 11
3266.917511
 21
3796.878031
  0
LINE
  8
0
  6
CONTINUOUS
 62
3
 10
3266.917511
 20
3796.878031
 11
3266.020816
 21
3796.647347
  0
LINE
  8
0
  6
CONTINUOUS
 62
3
 10
3266.020816
 20
3796.647347
 11
3264.243803
 21
3796.136496
  0
LINE
  8
0
  6
CONTINUOUS
 62
3
 10
3264.243803
 20
3796.136496
 11
3263.803308
 21
3795.998531
  0
LINE
  8
0
  6
CONTINUOUS
 62
3
 10
3263.803308
 20
3795.998531
 11
3263.364436
 21
3795.856485
  0
LINE
  8
0
  6
CONTINUOUS
 62
3
 10
3263.364436
 20
3795.856485
 11
3262.491378
 21
3795.560055
  0
LINE
  8
0
  6
CONTINUOUS
 62
3
 10
3262.491378
 20
3795.560055
 11
3260.759991
 21
3794.916661
  0
LINE
  8
0
  6
CONTINUOUS
 62
3
 10
3260.759991
 20
3794.916661
 11
3260.330426
 21
3794.745415
  0
LINE
  8
0
  6
CONTINUOUS
 62
3
 10
3260.330426
 20
3794.745415
 11
3259.902280
 21
3794.570067
  0
LINE
  8
0
  6
CONTINUOUS
 62
3
 10
3259.902280
 20
3794.570067
 11
3259.050460
 21
3794.207176
  0
LINE
  8
0
  6
CONTINUOUS
 62
3
 10
3259.050460
 20
3794.207176
 11
3257.366193
 21
3793.433401
  0
LINE
  8
0
  6
CONTINUOUS
 62
3
 10
3257.366193
 20
3793.433401
 11
3257.157606
 21
3793.332248
  0
LINE
  8
0
  6
CONTINUOUS
 62
3
 10
3257.157606
 20
3793.332248
 11
3256.949474
 21
3793.230123
  0
LINE
  8
0
  6
CONTINUOUS
 62
3
 10
3256.949474
 20
3793.230123
 11
3256.534600
 21
3793.022968
  0
LINE
  8
0
  6
CONTINUOUS
 62
3
 10
3256.534600
 20
3793.022968
 11
3255.710602
 21
3792.597138
  0
LINE
  8
0
  6
CONTINUOUS
 62
3
 10
3255.710602
 20
3792.597138
 11
3254.087098
 21
3791.700190
  0
LINE
  8
0
  6
CONTINUOUS
 62
3
 10
3254.087098
 20
3791.700190
 11
3253.886586
 21
3791.583894
  0
LINE
  8
0
  6
CONTINUOUS
 62
3
 10
3253.886586
 20
3791.583894
 11
3253.686635
 21
3791.466682
  0
LINE
  8
0
  6
CONTINUOUS
 62
3
 10
3253.686635
 20
3791.466682
 11
3253.288444
 21
3791.229522
  0
LINE
  8
0
  6
CONTINUOUS
 62
3
 10
3253.288444
 20
3791.229522
 11
3252.499091
 21
3790.744357
  0
LINE
  8
0
  6
CONTINUOUS
 62
3
 10
3252.499091
 20
3790.744357
 11
3250.949992
 21
3789.731442
  0
LINE
  8
0
  6
CONTINUOUS
 62
3
 10
3250.949992
 20
3789.731442
 11
3250.759260
 21
3789.600903
  0
LINE
  8
0
  6
CONTINUOUS
 62
3
 10
3250.759260
 20
3789.600903
 11
3250.569196
 21
3789.469505
  0
LINE
  8
0
  6
CONTINUOUS
 62
3
 10
3250.569196
 20
3789.469505
 11
3250.191099
 21
3789.204141
  0
LINE
  8
0
  6
CONTINUOUS
 62
3
 10
3250.191099
 20
3789.204141
 11
3249.443211
 21
3788.663245
  0
LINE
  8
0
  6
CONTINUOUS
 62
3
 10
3249.443211
 20
3788.663245
 11
3247.979844
 21
3787.539922
  0
LINE
  8
0
  6
CONTINUOUS
 62
3
 10
3247.979844
 20
3787.539922
 11
3247.799724
 21
3787.395442
  0
LINE
  8
0
  6
CONTINUOUS
 62
3
 10
3247.799724
 20
3787.395442
 11
3247.620234
 21
3787.250071
  0
LINE
  8
0
  6
CONTINUOUS
 62
3
 10
3247.620234
 20
3787.250071
 11
3247.263168
 21
3786.956676
  0
LINE
  8
0
  6
CONTINUOUS
 62
3
 10
3247.263168
 20
3786.956676
 11
3246.556838
 21
3786.359425
  0
LINE
  8
0
  6
CONTINUOUS
 62
3
 10
3246.556838
 20
3786.359425
 11
3245.176550
 21
3785.124298
  0
LINE
  8
0
  6
CONTINUOUS
 62
3
 10
3245.176550
 20
3785.124298
 11
3245.007150
 21
3784.966205
  0
LINE
  8
0
  6
CONTINUOUS
 62
3
 10
3245.007150
 20
3784.966205
 11
3244.838465
 21
3784.807307
  0
LINE
  8
0
  6
CONTINUOUS
 62
3
 10
3244.838465
 20
3784.807307
 11
3244.503259
 21
3784.487118
  0
LINE
  8
0
  6
CONTINUOUS
 62
3
 10
3244.503259
 20
3784.487118
 11
3243.841649
 21
3783.837324
  0
LINE
  8
0
  6
CONTINUOUS
 62
3
 10
3243.841649
 20
3783.837324
 11
3242.554807
 21
3782.501286
  0
LINE
  8
0
  6
CONTINUOUS
 62
3
 10
3242.554807
 20
3782.501286
 11
3242.397464
 21
3782.330970
  0
LINE
  8
0
  6
CONTINUOUS
 62
3
 10
3242.397464
 20
3782.330970
 11
3242.240919
 21
3782.159936
  0
LINE
  8
0
  6
CONTINUOUS
 62
3
 10
3242.240919
 20
3782.159936
 11
3241.930243
 21
3781.815737
  0
LINE
  8
0
  6
CONTINUOUS
 62
3
 10
3241.930243
 20
3781.815737
 11
3241.318694
 21
3781.118967
  0
LINE
  8
0
  6
CONTINUOUS
 62
3
 10
3241.318694
 20
3781.118967
 11
3240.135981
 21
3779.693151
  0
LINE
  8
0
  6
CONTINUOUS
 62
3
 10
3240.135981
 20
3779.693151
 11
3240.063895
 21
3779.602657
  0
LINE
  8
0
  6
CONTINUOUS
 62
3
 10
3240.063895
 20
3779.602657
 11
3239.992029
 21
3779.512004
  0
LINE
  8
0
  6
CONTINUOUS
 62
3
 10
3239.992029
 20
3779.512004
 11
3239.848959
 21
3779.330227
  0
LINE
  8
0
  6
CONTINUOUS
 62
3
 10
3239.848959
 20
3779.330227
 11
3239.565483
 21
3778.964802
  0
LINE
  8
0
  6
CONTINUOUS
 62
3
 10
3239.565483
 20
3778.964802
 11
3239.009337
 21
3778.226622
  0
LINE
  8
0
  6
CONTINUOUS
 62
3
 10
3239.009337
 20
3778.226622
 11
3237.941349
 21
3776.722042
  0
LINE
  8
0
  6
CONTINUOUS
 62
3
 10
3237.941349
 20
3776.722042
 11
3237.876541
 21
3776.626710
  0
LINE
  8
0
  6
CONTINUOUS
 62
3
 10
3237.876541
 20
3776.626710
 11
3237.811948
 21
3776.531208
  0
LINE
  8
0
  6
CONTINUOUS
 62
3
 10
3237.811948
 20
3776.531208
 11
3237.683411
 21
3776.339695
  0
LINE
  8
0
  6
CONTINUOUS
 62
3
 10
3237.683411
 20
3776.339695
 11
3237.428946
 21
3775.954661
  0
LINE
  8
0
  6
CONTINUOUS
 62
3
 10
3237.428946
 20
3775.954661
 11
3236.930537
 21
3775.176753
  0
LINE
  8
0
  6
CONTINUOUS
 62
3
 10
3236.930537
 20
3775.176753
 11
3235.976535
 21
3773.591097
  0
LINE
  8
0
  6
CONTINUOUS
 62
3
 10
3235.976535
 20
3773.591097
 11
3235.918834
 21
3773.490733
  0
LINE
  8
0
  6
CONTINUOUS
 62
3
 10
3235.918834
 20
3773.490733
 11
3235.861361
 21
3773.390226
  0
LINE
  8
0
  6
CONTINUOUS
 62
3
 10
3235.861361
 20
3773.390226
 11
3235.747105
 21
3773.188784
  0
LINE
  8
0
  6
CONTINUOUS
 62
3
 10
3235.747105
 20
3773.188784
 11
3235.521356
 21
3772.784221
  0
LINE
  8
0
  6
CONTINUOUS
 62
3
 10
3235.521356
 20
3772.784221
 11
3235.081001
 21
3771.968559
  0
LINE
  8
0
  6
CONTINUOUS
 62
3
 10
3235.081001
 20
3771.968559
 11
3234.245594
 21
3770.312619
  0
LINE
  8
0
  6
CONTINUOUS
 62
3
 10
3234.245594
 20
3770.312619
 11
3234.195416
 21
3770.208094
  0
LINE
  8
0
  6
CONTINUOUS
 62
3
 10
3234.195416
 20
3770.208094
 11
3234.145479
 21
3770.103452
  0
LINE
  8
0
  6
CONTINUOUS
 62
3
 10
3234.145479
 20
3770.103452
 11
3234.046332
 21
3769.893824
  0
LINE
  8
0
  6
CONTINUOUS
 62
3
 10
3234.046332
 20
3769.893824
 11
3233.850957
 21
3769.473213
  0
LINE
  8
0
  6
CONTINUOUS
 62
3
 10
3233.850957
 20
3769.473213
 11
3233.471973
 21
3768.626762
  0
LINE
  8
0
  6
CONTINUOUS
 62
3
 10
3233.471973
 20
3768.626762
 11
3232.761796
 21
3766.914469
  0
LINE
  8
0
  6
CONTINUOUS
 62
3
 10
3232.761796
 20
3766.914469
 11
3232.719554
 21
3766.806653
  0
LINE
  8
0
  6
CONTINUOUS
 62
3
 10
3232.719554
 20
3766.806653
 11
3232.677567
 21
3766.698747
  0
LINE
  8
0
  6
CONTINUOUS
 62
3
 10
3232.677567
 20
3766.698747
 11
3232.594359
 21
3766.482673
  0
LINE
  8
0
  6
CONTINUOUS
 62
3
 10
3232.594359
 20
3766.482673
 11
3232.431017
 21
3766.049498
  0
LINE
  8
0
  6
CONTINUOUS
 62
3
 10
3232.431017
 20
3766.049498
 11
3232.116721
 21
3765.179223
  0
LINE
  8
0
  6
CONTINUOUS
 62
3
 10
3232.116721
 20
3765.179223
 11
3231.538407
 21
3763.424507
  0
LINE
  8
0
  6
CONTINUOUS
 62
3
 10
3231.538407
 20
3763.424507
 11
3231.504517
 21
3763.314270
  0
LINE
  8
0
  6
CONTINUOUS
 62
3
 10
3231.504517
 20
3763.314270
 11
3231.470894
 21
3763.203972
  0
LINE
  8
0
  6
CONTINUOUS
 62
3
 10
3231.470894
 20
3763.203972
 11
3231.404454
 21
3762.983194
  0
LINE
  8
0
  6
CONTINUOUS
 62
3
 10
3231.404454
 20
3762.983194
 11
3231.274787
 21
3762.540881
  0
LINE
  8
0
  6
CONTINUOUS
 62
3
 10
3231.274787
 20
3762.540881
 11
3231.027923
 21
3761.651946
  0
LINE
  8
0
  6
CONTINUOUS
 62
3
 10
3231.027923
 20
3761.651946
 11
3230.584023
 21
3759.857617
  0
LINE
  8
0
  6
CONTINUOUS
 62
3
 10
3230.584023
 20
3759.857617
 11
3230.558494
 21
3759.744809
  0
LINE
  8
0
  6
CONTINUOUS
 62
3
 10
3230.558494
 20
3759.744809
 11
3230.533226
 21
3759.631928
  0
LINE
  8
0
  6
CONTINUOUS
 62
3
 10
3230.533226
 20
3759.631928
 11
3230.483473
 21
3759.405954
  0
LINE
  8
0
  6
CONTINUOUS
 62
3
 10
3230.483473
 20
3759.405954
 11
3230.387108
 21
3758.953179
  0
LINE
  8
0
  6
CONTINUOUS
 62
3
 10
3230.387108
 20
3758.953179
 11
3230.206962
 21
3758.044531
  0
LINE
  8
0
  6
CONTINUOUS
 62
3
 10
3230.206962
 20
3758.044531
 11
3229.897216
 21
3756.216516
  0
LINE
  8
0
  6
CONTINUOUS
 62
3
 10
3229.897216
 20
3756.216516
 11
3229.880103
 21
3756.101857
  0
LINE
  8
0
  6
CONTINUOUS
 62
3
 10
3229.880103
 20
3756.101857
 11
3229.863254
 21
3755.987155
  0
LINE
  8
0
  6
CONTINUOUS
 62
3
 10
3229.863254
 20
3755.987155
 11
3229.830353
 21
3755.757629
  0
LINE
  8
0
  6
CONTINUOUS
 62
3
 10
3229.830353
 20
3755.757629
 11
3229.767735
 21
3755.298107
  0
LINE
  8
0
  6
CONTINUOUS
 62
3
 10
3229.767735
 20
3755.298107
 11
3229.655263
 21
3754.377401
  0
LINE
  8
0
  6
CONTINUOUS
 62
3
 10
3229.655263
 20
3754.377401
 11
3229.481582
 21
3752.531011
  0
LINE
  8
0
  6
CONTINUOUS
 62
3
 10
3229.481582
 20
3752.531011
 11
3229.473004
 21
3752.415458
  0
LINE
  8
0
  6
CONTINUOUS
 62
3
 10
3229.473004
 20
3752.415458
 11
3229.464696
 21
3752.299892
  0
LINE
  8
0
  6
CONTINUOUS
 62
3
 10
3229.464696
 20
3752.299892
 11
3229.448885
 21
3752.068726
  0
LINE
  8
0
  6
CONTINUOUS
 62
3
 10
3229.448885
 20
3752.068726
 11
3229.420492
 21
3751.606285
  0
LINE
  8
0
  6
CONTINUOUS
 62
3
 10
3229.420492
 20
3751.606285
 11
3229.376650
 21
3750.681176
  0
LINE
  8
0
  6
CONTINUOUS
 62
3
 10
3229.376650
 20
3750.681176
 11
3229.340945
 21
3748.831723
  0
LINE
  8
0
  6
CONTINUOUS
 62
3
 10
3229.340945
 20
3748.831723
 11
3229.341023
 21
3748.716232
  0
LINE
  8
0
  6
CONTINUOUS
 62
3
 10
3229.341023
 20
3748.716232
 11
3229.341373
 21
3748.600758
  0
LINE
  8
0
  6
CONTINUOUS
 62
3
 10
3229.341373
 20
3748.600758
 11
3229.342891
 21
3748.369867
  0
LINE
  8
0
  6
CONTINUOUS
 62
3
 10
3229.342891
 20
3748.369867
 11
3229.349202
 21
3747.908335
  0
LINE
  8
0
  6
CONTINUOUS
 62
3
 10
3229.349202
 20
3747.908335
 11
3229.374945
 21
3746.986470
  0
LINE
  8
0
  6
CONTINUOUS
 62
3
 10
3229.374945
 20
3746.986470
 11
3229.479105
 21
3745.143468
  0
LINE
  8
0
  6
CONTINUOUS
 62
3
 10
3229.479105
 20
3745.143468
 11
3229.487939
 21
3745.028278
  0
LINE
  8
0
  6
CONTINUOUS
 62
3
 10
3229.487939
 20
3745.028278
 11
3229.497046
 21
3744.913093
  0
LINE
  8
0
  6
CONTINUOUS
 62
3
 10
3229.497046
 20
3744.913093
 11
3229.516075
 21
3744.682743
  0
LINE
  8
0
  6
CONTINUOUS
 62
3
 10
3229.516075
 20
3744.682743
 11
3229.557394
 21
3744.222147
  0
LINE
  8
0
  6
CONTINUOUS
 62
3
 10
3229.557394
 20
3744.222147
 11
3229.653032
 21
3743.301575
  0
LINE
  8
0
  6
CONTINUOUS
 62
3
 10
3229.653032
 20
3743.301575
 11
3229.895974
 21
3741.464574
  0
LINE
  8
0
  6
CONTINUOUS
 62
3
 10
3229.895974
 20
3741.464574
 11
3229.913432
 21
3741.350010
  0
LINE
  8
0
  6
CONTINUOUS
 62
3
 10
3229.913432
 20
3741.350010
 11
3229.931157
 21
3741.235481
  0
LINE
  8
0
  6
CONTINUOUS
 62
3
 10
3229.931157
 20
3741.235481
 11
3229.967405
 21
3741.006531
  0
LINE
  8
0
  6
CONTINUOUS
 62
3
 10
3229.967405
 20
3741.006531
 11
3230.043091
 21
3740.549090
  0
LINE
  8
0
  6
CONTINUOUS
 62
3
 10
3230.043091
 20
3740.549090
 11
3230.207180
 21
3739.636248
  0
LINE
  8
0
  6
CONTINUOUS
 62
3
 10
3230.207180
 20
3739.636248
 11
3230.585899
 21
3737.820381
  0
LINE
  8
0
  6
CONTINUOUS
 62
3
 10
3230.585899
 20
3737.820381
 11
3230.611794
 21
3737.707389
  0
LINE
  8
0
  6
CONTINUOUS
 62
3
 10
3230.611794
 20
3737.707389
 11
3230.637949
 21
3737.594462
  0
LINE
  8
0
  6
CONTINUOUS
 62
3
 10
3230.637949
 20
3737.594462
 11
3230.691040
 21
3737.368804
  0
LINE
  8
0
  6
CONTINUOUS
 62
3
 10
3230.691040
 20
3737.368804
 11
3230.800342
 21
3736.918301
  0
LINE
  8
0
  6
CONTINUOUS
 62
3
 10
3230.800342
 20
3736.918301
 11
3231.031380
 21
3736.020756
  0
LINE
  8
0
  6
CONTINUOUS
 62
3
 10
3231.031380
 20
3736.020756
 11
3231.542871
 21
3734.241156
  0
LINE
  8
0
  6
CONTINUOUS
 62
3
 10
3231.542871
 20
3734.241156
 11
3231.577014
 21
3734.130683
  0
LINE
  8
0
  6
CONTINUOUS
 62
3
 10
3231.577014
 20
3734.130683
 11
3231.611411
 21
3734.020303
  0
LINE
  8
0
  6
CONTINUOUS
 62
3
 10
3231.611411
 20
3734.020303
 11
3231.680970
 21
3733.799829
  0
LINE
  8
0
  6
CONTINUOUS
 62
3
 10
3231.680970
 20
3733.799829
 11
3231.823136
 21
3733.360049
  0
LINE
  8
0
  6
CONTINUOUS
 62
3
 10
3231.823136
 20
3733.360049
 11
3232.119621
 21
3732.485366
  0
LINE
  8
0
  6
CONTINUOUS
 62
3
 10
3232.119621
 20
3732.485366
 11
3232.761284
 21
3730.756015
  0
LINE
  8
0
  6
CONTINUOUS
 62
3
 10
3232.761284
 20
3730.756015
 11
3232.803597
 21
3730.648682
  0
LINE
  8
0
  6
CONTINUOUS
 62
3
 10
3232.803597
 20
3730.648682
 11
3232.846170
 21
3730.541433
  0
LINE
  8
0
  6
CONTINUOUS
 62
3
 10
3232.846170
 20
3730.541433
 11
3232.932099
 21
3730.327187
  0
LINE
  8
0
  6
CONTINUOUS
 62
3
 10
3232.932099
 20
3730.327187
 11
3233.107069
 21
3729.899732
  0
LINE
  8
0
  6
CONTINUOUS
 62
3
 10
3233.107069
 20
3729.899732
 11
3233.469352
 21
3729.049151
  0
LINE
  8
0
  6
CONTINUOUS
 62
3
 10
3233.469352
 20
3729.049151
 11
3234.242458
 21
3727.366767
  0
LINE
  8
0
  6
CONTINUOUS
 62
3
 10
3234.242458
 20
3727.366767
 11
3234.292893
 21
3727.262508
  0
LINE
  8
0
  6
CONTINUOUS
 62
3
 10
3234.292893
 20
3727.262508
 11
3234.343574
 21
3727.158358
  0
LINE
  8
0
  6
CONTINUOUS
 62
3
 10
3234.343574
 20
3727.158358
 11
3234.445673
 21
3726.950390
  0
LINE
  8
0
  6
CONTINUOUS
 62
3
 10
3234.445673
 20
3726.950390
 11
3234.652805
 21
3726.535804
  0
LINE
  8
0
  6
CONTINUOUS
 62
3
 10
3234.652805
 20
3726.535804
 11
3235.078698
 21
3725.712220
  0
LINE
  8
0
  6
CONTINUOUS
 62
3
 10
3235.078698
 20
3725.712220
 11
3235.976168
 21
3724.088863
  0
LINE
  8
0
  6
CONTINUOUS
 62
3
 10
3235.976168
 20
3724.088863
 11
3236.005179
 21
3724.038672
  0
LINE
  8
0
  6
CONTINUOUS
 62
3
 10
3236.005179
 20
3724.038672
 11
3236.034249
 21
3723.988515
  0
LINE
  8
0
  6
CONTINUOUS
 62
3
 10
3236.034249
 20
3723.988515
 11
3236.092562
 21
3723.888303
  0
LINE
  8
0
  6
CONTINUOUS
 62
3
 10
3236.092562
 20
3723.888303
 11
3236.209879
 21
3723.688290
  0
LINE
  8
0
  6
CONTINUOUS
 62
3
 10
3236.209879
 20
3723.688290
 11
3236.447269
 21
3723.289929
  0
LINE
  8
0
  6
CONTINUOUS
 62
3
 10
3236.447269
 20
3723.289929
 11
3236.932964
 21
3722.500051
  0
LINE
  8
0
  6
CONTINUOUS
 62
3
 10
3236.932964
 20
3722.500051
 11
3237.947181
 21
3720.949139
  0
LINE
  8
0
  6
CONTINUOUS
 62
3
 10
3237.947181
 20
3720.949139
 11
3237.979780
 21
3720.901320
  0
LINE
  8
0
  6
CONTINUOUS
 62
3
 10
3237.979780
 20
3720.901320
 11
3238.012433
 21
3720.853542
  0
LINE
  8
0
  6
CONTINUOUS
 62
3
 10
3238.012433
 20
3720.853542
 11
3238.077901
 21
3720.758106
  0
LINE
  8
0
  6
CONTINUOUS
 62
3
 10
3238.077901
 20
3720.758106
 11
3238.209485
 21
3720.567725
  0
LINE
  8
0
  6
CONTINUOUS
 62
3
 10
3238.209485
 20
3720.567725
 11
3238.475228
 21
3720.188943
  0
LINE
  8
0
  6
CONTINUOUS
 62
3
 10
3238.475228
 20
3720.188943
 11
3239.016916
 21
3719.439480
  0
LINE
  8
0
  6
CONTINUOUS
 62
3
 10
3239.016916
 20
3719.439480
 11
3240.140265
 21
3717.974431
  0
LINE
  8
0
  6
CONTINUOUS
 62
3
 10
3240.140265
 20
3717.974431
 11
3240.176213
 21
3717.929404
  0
LINE
  8
0
  6
CONTINUOUS
 62
3
 10
3240.176213
 20
3717.929404
 11
3240.212211
 21
3717.884423
  0
LINE
  8
0
  6
CONTINUOUS
 62
3
 10
3240.212211
 20
3717.884423
 11
3240.284364
 21
3717.794597
  0
LINE
  8
0
  6
CONTINUOUS
 62
3
 10
3240.284364
 20
3717.794597
 11
3240.429347
 21
3717.615417
  0
LINE
  8
0
  6
CONTINUOUS
 62
3
 10
3240.429347
 20
3717.615417
 11
3240.722016
 21
3717.258954
  0
LINE
  8
0
  6
CONTINUOUS
 62
3
 10
3240.722016
 20
3717.258954
 11
3241.318010
 21
3716.553748
  0
LINE
  8
0
  6
CONTINUOUS
 62
3
 10
3241.318010
 20
3716.553748
 11
3242.551366
 21
3715.175350
  0
LINE
  8
0
  6
CONTINUOUS
 62
3
 10
3242.551366
 20
3715.175350
 11
3242.590773
 21
3715.132984
  0
LINE
  8
0
  6
CONTINUOUS
 62
3
 10
3242.590773
 20
3715.132984
 11
3242.630233
 21
3715.090662
  0
LINE
  8
0
  6
CONTINUOUS
 62
3
 10
3242.630233
 20
3715.090662
 11
3242.709305
 21
3715.006150
  0
LINE
  8
0
  6
CONTINUOUS
 62
3
 10
3242.709305
 20
3715.006150
 11
3242.868062
 21
3714.837656
  0
LINE
  8
0
  6
CONTINUOUS
 62
3
 10
3242.868062
 20
3714.837656
 11
3243.188013
 21
3714.502805
  0
LINE
  8
0
  6
CONTINUOUS
 62
3
 10
3243.188013
 20
3714.502805
 11
3243.837495
 21
3713.841793
  0
LINE
  8
0
  6
CONTINUOUS
 62
3
 10
3243.837495
 20
3713.841793
 11
3245.173534
 21
3712.555661
  0
LINE
  8
0
  6
CONTINUOUS
 62
3
 10
3245.173534
 20
3712.555661
 11
3245.216058
 21
3712.516262
  0
LINE
  8
0
  6
CONTINUOUS
 62
3
 10
3245.216058
 20
3712.516262
 11
3245.258628
 21
3712.476912
  0
LINE
  8
0
  6
CONTINUOUS
 62
3
 10
3245.258628
 20
3712.476912
 11
3245.343905
 21
3712.398358
  0
LINE
  8
0
  6
CONTINUOUS
 62
3
 10
3245.343905
 20
3712.398358
 11
3245.515006
 21
3712.241841
  0
LINE
  8
0
  6
CONTINUOUS
 62
3
 10
3245.515006
 20
3712.241841
 11
3245.859374
 21
3711.931188
  0
LINE
  8
0
  6
CONTINUOUS
 62
3
 10
3245.859374
 20
3711.931188
 11
3246.556619
 21
3711.319539
  0
LINE
  8
0
  6
CONTINUOUS
 62
3
 10
3246.556619
 20
3711.319539
 11
3247.983887
 21
3710.136012
  0
LINE
  8
0
  6
CONTINUOUS
 62
3
 10
3247.983887
 20
3710.136012
 11
3248.029169
 21
3710.099902
  0
LINE
  8
0
  6
CONTINUOUS
 62
3
 10
3248.029169
 20
3710.099902
 11
3248.074493
 21
3710.063847
  0
LINE
  8
0
  6
CONTINUOUS
 62
3
 10
3248.074493
 20
3710.063847
 11
3248.165259
 21
3709.991898
  0
LINE
  8
0
  6
CONTINUOUS
 62
3
 10
3248.165259
 20
3709.991898
 11
3248.347272
 21
3709.848651
  0
LINE
  8
0
  6
CONTINUOUS
 62
3
 10
3248.347272
 20
3709.848651
 11
3248.713195
 21
3709.564779
  0
LINE
  8
0
  6
CONTINUOUS
 62
3
 10
3248.713195
 20
3709.564779
 11
3249.452474
 21
3709.007663
  0
LINE
  8
0
  6
CONTINUOUS
 62
3
 10
3249.452474
 20
3709.007663
 11
3250.959519
 21
3707.937079
  0
LINE
  8
0
  6
CONTINUOUS
 62
3
 10
3250.959519
 20
3707.937079
 11
3251.007202
 21
3707.904582
  0
LINE
  8
0
  6
CONTINUOUS
 62
3
 10
3251.007202
 20
3707.904582
 11
3251.054920
 21
3707.872144
  0
LINE
  8
0
  6
CONTINUOUS
 62
3
 10
3251.054920
 20
3707.872144
 11
3251.150460
 21
3707.807446
  0
LINE
  8
0
  6
CONTINUOUS
 62
3
 10
3251.150460
 20
3707.807446
 11
3251.341953
 21
3707.678761
  0
LINE
  8
0
  6
CONTINUOUS
 62
3
 10
3251.341953
 20
3707.678761
 11
3251.726567
 21
3707.424256
  0
LINE
  8
0
  6
CONTINUOUS
 62
3
 10
3251.726567
 20
3707.424256
 11
3252.502710
 21
3706.926473
  0
LINE
  8
0
  6
CONTINUOUS
 62
3
 10
3252.502710
 20
3706.926473
 11
3254.085477
 21
3705.973790
  0
LINE
  8
0
  6
CONTINUOUS
 62
3
 10
3254.085477
 20
3705.973790
 11
3254.135569
 21
3705.944950
  0
LINE
  8
0
  6
CONTINUOUS
 62
3
 10
3254.135569
 20
3705.944950
 11
3254.185697
 21
3705.916167
  0
LINE
  8
0
  6
CONTINUOUS
 62
3
 10
3254.185697
 20
3705.916167
 11
3254.286065
 21
3705.858772
  0
LINE
  8
0
  6
CONTINUOUS
 62
3
 10
3254.286065
 20
3705.858772
 11
3254.487239
 21
3705.744668
  0
LINE
  8
0
  6
CONTINUOUS
 62
3
 10
3254.487239
 20
3705.744668
 11
3254.891317
 21
3705.519214
  0
LINE
  8
0
  6
CONTINUOUS
 62
3
 10
3254.891317
 20
3705.519214
 11
3255.706206
 21
3705.079406
  0
LINE
  8
0
  6
CONTINUOUS
 62
3
 10
3255.706206
 20
3705.079406
 11
3257.361365
 21
3704.244875
  0
LINE
  8
0
  6
CONTINUOUS
 62
3
 10
3257.361365
 20
3704.244875
 11
3257.413605
 21
3704.219777
  0
LINE
  8
0
  6
CONTINUOUS
 62
3
 10
3257.413605
 20
3704.219777
 11
3257.465875
 21
3704.194739
  0
LINE
  8
0
  6
CONTINUOUS
 62
3
 10
3257.465875
 20
3704.194739
 11
3257.570505
 21
3704.144844
  0
LINE
  8
0
  6
CONTINUOUS
 62
3
 10
3257.570505
 20
3704.144844
 11
3257.780121
 21
3704.045776
  0
LINE
  8
0
  6
CONTINUOUS
 62
3
 10
3257.780121
 20
3704.045776
 11
3258.200752
 21
3703.850539
  0
LINE
  8
0
  6
CONTINUOUS
 62
3
 10
3258.200752
 20
3703.850539
 11
3259.047423
 21
3703.471748
  0
LINE
  8
0
  6
CONTINUOUS
 62
3
 10
3259.047423
 20
3703.471748
 11
3260.760848
 21
3702.761576
  0
LINE
  8
0
  6
CONTINUOUS
 62
3
 10
3260.760848
 20
3702.761576
 11
3260.814795
 21
3702.740414
  0
LINE
  8
0
  6
CONTINUOUS
 62
3
 10
3260.814795
 20
3702.740414
 11
3260.868765
 21
3702.719316
  0
LINE
  8
0
  6
CONTINUOUS
 62
3
 10
3260.868765
 20
3702.719316
 11
3260.976774
 21
3702.677308
  0
LINE
  8
0
  6
CONTINUOUS
 62
3
 10
3260.976774
 20
3702.677308
 11
3261.193066
 21
3702.594052
  0
LINE
  8
0
  6
CONTINUOUS
 62
3
 10
3261.193066
 20
3702.594052
 11
3261.626720
 21
3702.430584
  0
LINE
  8
0
  6
CONTINUOUS
 62
3
 10
3261.626720
 20
3702.430584
 11
3262.498109
 21
3702.115912
  0
LINE
  8
0
  6
CONTINUOUS
 62
3
 10
3262.498109
 20
3702.115912
 11
3264.255675
 21
3701.536308
  0
LINE
  8
0
  6
CONTINUOUS
 62
3
 10
3264.255675
 20
3701.536308
 11
3264.310887
 21
3701.519277
  0
LINE
  8
0
  6
CONTINUOUS
 62
3
 10
3264.310887
 20
3701.519277
 11
3264.366116
 21
3701.502312
  0
LINE
  8
0
  6
CONTINUOUS
 62
3
 10
3264.366116
 20
3701.502312
 11
3264.476622
 21
3701.468580
  0
LINE
  8
0
  6
CONTINUOUS
 62
3
 10
3264.476622
 20
3701.468580
 11
3264.697825
 21
3701.401911
  0
LINE
  8
0
  6
CONTINUOUS
 62
3
 10
3264.697825
 20
3701.401911
 11
3265.140968
 21
3701.271763
  0
LINE
  8
0
  6
CONTINUOUS
 62
3
 10
3265.140968
 20
3701.271763
 11
3266.030014
 21
3701.024316
  0
LINE
  8
0
  6
CONTINUOUS
 62
3
 10
3266.030014
 20
3701.024316
 11
3267.820805
 21
3700.580549
  0
LINE
  8
0
  6
CONTINUOUS
 62
3
 10
3267.820805
 20
3700.580549
 11
3267.877100
 21
3700.567762
  0
LINE
  8
0
  6
CONTINUOUS
 62
3
 10
3267.877100
 20
3700.567762
 11
3267.933414
 21
3700.555041
  0
LINE
  8
0
  6
CONTINUOUS
 62
3
 10
3267.933414
 20
3700.555041
 11
3268.046099
 21
3700.529795
  0
LINE
  8
0
  6
CONTINUOUS
 62
3
 10
3268.046099
 20
3700.529795
 11
3268.271696
 21
3700.480090
  0
LINE
  8
0
  6
CONTINUOUS
 62
3
 10
3268.271696
 20
3700.480090
 11
3268.723766
 21
3700.383828
  0
LINE
  8
0
  6
CONTINUOUS
 62
3
 10
3268.723766
 20
3700.383828
 11
3269.631207
 21
3700.203923
  0
LINE
  8
0
  6
CONTINUOUS
 62
3
 10
3269.631207
 20
3700.203923
 11
3271.457609
 21
3699.894741
  0
LINE
  8
0
  6
CONTINUOUS
 62
3
 10
3271.457609
 20
3699.894741
 11
3271.514900
 21
3699.886170
  0
LINE
  8
0
  6
CONTINUOUS
 62
3
 10
3271.514900
 20
3699.886170
 11
3271.572202
 21
3699.877665
  0
LINE
  8
0
  6
CONTINUOUS
 62
3
 10
3271.572202
 20
3699.877665
 11
3271.686843
 21
3699.860853
  0
LINE
  8
0
  6
CONTINUOUS
 62
3
 10
3271.686843
 20
3699.860853
 11
3271.916259
 21
3699.828026
  0
LINE
  8
0
  6
CONTINUOUS
 62
3
 10
3271.916259
 20
3699.828026
 11
3272.375609
 21
3699.765554
  0
LINE
  8
0
  6
CONTINUOUS
 62
3
 10
3272.375609
 20
3699.765554
 11
3273.296169
 21
3699.653364
  0
LINE
  8
0
  6
CONTINUOUS
 62
3
 10
3273.296169
 20
3699.653364
 11
3275.143049
 21
3699.480155
  0
LINE
  8
0
  6
CONTINUOUS
 62
3
 10
3275.143049
 20
3699.480155
 11
3275.200856
 21
3699.475844
  0
LINE
  8
0
  6
CONTINUOUS
 62
3
 10
3275.200856
 20
3699.475844
 11
3275.258667
 21
3699.471601
  0
LINE
  8
0
  6
CONTINUOUS
 62
3
 10
3275.258667
 20
3699.471601
 11
3275.374302
 21
3699.463315
  0
LINE
  8
0
  6
CONTINUOUS
 62
3
 10
3275.374302
 20
3699.463315
 11
3275.605619
 21
3699.447546
  0
LINE
  8
0
  6
CONTINUOUS
 62
3
 10
3275.605619
 20
3699.447546
 11
3276.068408
 21
3699.419226
  0
LINE
  8
0
  6
CONTINUOUS
 62
3
 10
3276.068408
 20
3699.419226
 11
3276.994407
 21
3699.375474
  0
LINE
  8
0
  6
CONTINUOUS
 62
3
 10
3276.994407
 20
3699.375474
 11
3278.846403
 21
3699.339682
  0
LINE
  8
0
  6
CONTINUOUS
 62
3
 10
3278.846403
 20
3699.339682
 11
3278.904246
 21
3699.339678
  0
LINE
  8
0
  6
CONTINUOUS
 62
3
 10
3278.904246
 20
3699.339678
 11
3278.962086
 21
3699.339741
  0
LINE
  8
0
  6
CONTINUOUS
 62
3
 10
3278.962086
 20
3699.339741
 11
3279.077756
 21
3699.340070
  0
LINE
  8
0
  6
CONTINUOUS
 62
3
 10
3279.077756
 20
3699.340070
 11
3279.309052
 21
3699.341541
  0
LINE
  8
0
  6
CONTINUOUS
 62
3
 10
3279.309052
 20
3699.341541
 11
3279.771440
 21
3699.347733
  0
LINE
  8
0
  6
CONTINUOUS
 62
3
 10
3279.771440
 20
3699.347733
 11
3280.695197
 21
3699.373142
  0
LINE
  8
0
  6
CONTINUOUS
 62
3
 10
3280.695197
 20
3699.373142
 11
3282.537224
 21
3699.476230
  0
LINE
  8
0
  6
CONTINUOUS
 62
3
 10
3282.537224
 20
3699.476230
 11
3282.594705
 21
3699.480581
  0
LINE
  8
0
  6
CONTINUOUS
 62
3
 10
3282.594705
 20
3699.480581
 11
3282.652185
 21
3699.485000
  0
LINE
  8
0
  6
CONTINUOUS
 62
3
 10
3282.652185
 20
3699.485000
 11
3282.767145
 21
3699.494046
  0
LINE
  8
0
  6
CONTINUOUS
 62
3
 10
3282.767145
 20
3699.494046
 11
3282.997055
 21
3699.512960
  0
LINE
  8
0
  6
CONTINUOUS
 62
3
 10
3282.997055
 20
3699.512960
 11
3283.456816
 21
3699.554077
  0
LINE
  8
0
  6
CONTINUOUS
 62
3
 10
3283.456816
 20
3699.554077
 11
3284.375895
 21
3699.649416
  0
LINE
  8
0
  6
CONTINUOUS
 62
3
 10
3284.375895
 20
3699.649416
 11
3286.210635
 21
3699.892142
  0
LINE
  8
0
  6
CONTINUOUS
 62
3
 10
3286.210635
 20
3699.892142
 11
3286.267867
 21
3699.900838
  0
LINE
  8
0
  6
CONTINUOUS
 62
3
 10
3286.267867
 20
3699.900838
 11
3286.325090
 21
3699.909602
  0
LINE
  8
0
  6
CONTINUOUS
 62
3
 10
3286.325090
 20
3699.909602
 11
3286.439514
 21
3699.927329
  0
LINE
  8
0
  6
CONTINUOUS
 62
3
 10
3286.439514
 20
3699.927329
 11
3286.668266
 21
3699.963587
  0
LINE
  8
0
  6
CONTINUOUS
 62
3
 10
3286.668266
 20
3699.963587
 11
3287.125357
 21
3700.039311
  0
LINE
  8
0
  6
CONTINUOUS
 62
3
 10
3287.125357
 20
3700.039311
 11
3288.037687
 21
3700.203541
  0
LINE
  8
0
  6
CONTINUOUS
 62
3
 10
3288.037687
 20
3700.203541
 11
3289.853291
 21
3700.582747
  0
LINE
  8
0
  6
CONTINUOUS
 62
3
 10
3289.853291
 20
3700.582747
 11
3289.909804
 21
3700.595680
  0
LINE
  8
0
  6
CONTINUOUS
 62
3
 10
3289.909804
 20
3700.595680
 11
3289.966301
 21
3700.608679
  0
LINE
  8
0
  6
CONTINUOUS
 62
3
 10
3289.966301
 20
3700.608679
 11
3290.079250
 21
3700.634872
  0
LINE
  8
0
  6
CONTINUOUS
 62
3
 10
3290.079250
 20
3700.634872
 11
3290.304963
 21
3700.688042
  0
LINE
  8
0
  6
CONTINUOUS
 62
3
 10
3290.304963
 20
3700.688042
 11
3290.755626
 21
3700.797507
  0
LINE
  8
0
  6
CONTINUOUS
 62
3
 10
3290.755626
 20
3700.797507
 11
3291.653689
 21
3701.028894
  0
LINE
  8
0
  6
CONTINUOUS
 62
3
 10
3291.653689
 20
3701.028894
 11
3293.435122
 21
3701.541117
  0
LINE
  8
0
  6
CONTINUOUS
 62
3
 10
3293.435122
 20
3701.541117
 11
3293.490445
 21
3701.558179
  0
LINE
  8
0
  6
CONTINUOUS
 62
3
 10
3293.490445
 20
3701.558179
 11
3293.545746
 21
3701.575305
  0
LINE
  8
0
  6
CONTINUOUS
 62
3
 10
3293.545746
 20
3701.575305
 11
3293.656280
 21
3701.609748
  0
LINE
  8
0
  6
CONTINUOUS
 62
3
 10
3293.656280
 20
3701.609748
 11
3293.877076
 21
3701.679395
  0
LINE
  8
0
  6
CONTINUOUS
 62
3
 10
3293.877076
 20
3701.679395
 11
3294.317551
 21
3701.821736
  0
LINE
  8
0
  6
CONTINUOUS
 62
3
 10
3294.317551
 20
3701.821736
 11
3295.193830
 21
3702.118549
  0
LINE
  8
0
  6
CONTINUOUS
 62
3
 10
3295.193830
 20
3702.118549
 11
3296.926055
 21
3702.760326
  0
LINE
  8
0
  6
CONTINUOUS
 62
3
 10
3296.926055
 20
3702.760326
 11
3296.979719
 21
3702.781409
  0
LINE
  8
0
  6
CONTINUOUS
 62
3
 10
3296.979719
 20
3702.781409
 11
3297.033354
 21
3702.802553
  0
LINE
  8
0
  6
CONTINUOUS
 62
3
 10
3297.033354
 20
3702.802553
 11
3297.140534
 21
3702.845029
  0
LINE
  8
0
  6
CONTINUOUS
 62
3
 10
3297.140534
 20
3702.845029
 11
3297.354533
 21
3702.930722
  0
LINE
  8
0
  6
CONTINUOUS
 62
3
 10
3297.354533
 20
3702.930722
 11
3297.781197
 21
3703.105126
  0
LINE
  8
0
  6
CONTINUOUS
 62
3
 10
3297.781197
 20
3703.105126
 11
3298.630254
 21
3703.466416
  0
LINE
  8
0
  6
CONTINUOUS
 62
3
 10
3298.630254
 20
3703.466416
 11
3300.310131
 21
3704.238168
  0
LINE
  8
0
  6
CONTINUOUS
 62
3
 10
3300.310131
 20
3704.238168
 11
3300.362209
 21
3704.263325
  0
LINE
  8
0
  6
CONTINUOUS
 62
3
 10
3300.362209
 20
3704.263325
 11
3300.414259
 21
3704.288544
  0
LINE
  8
0
  6
CONTINUOUS
 62
3
 10
3300.414259
 20
3704.288544
 11
3300.518281
 21
3704.339170
  0
LINE
  8
0
  6
CONTINUOUS
 62
3
 10
3300.518281
 20
3704.339170
 11
3300.726001
 21
3704.441167
  0
LINE
  8
0
  6
CONTINUOUS
 62
3
 10
3300.726001
 20
3704.441167
 11
3301.140128
 21
3704.648127
  0
LINE
  8
0
  6
CONTINUOUS
 62
3
 10
3301.140128
 20
3704.648127
 11
3301.962947
 21
3705.073809
  0
LINE
  8
0
  6
CONTINUOUS
 62
3
 10
3301.962947
 20
3705.073809
 11
3303.585406
 21
3705.971334
  0
LINE
  8
0
  6
CONTINUOUS
 62
3
 10
3303.585406
 20
3705.971334
 11
3303.635583
 21
3706.000357
  0
LINE
  8
0
  6
CONTINUOUS
 62
3
 10
3303.635583
 20
3706.000357
 11
3303.685727
 21
3706.029438
  0
LINE
  8
0
  6
CONTINUOUS
 62
3
 10
3303.685727
 20
3706.029438
 11
3303.785915
 21
3706.087776
  0
LINE
  8
0
  6
CONTINUOUS
 62
3
 10
3303.785915
 20
3706.087776
 11
3303.985892
 21
3706.205150
  0
LINE
  8
0
  6
CONTINUOUS
 62
3
 10
3303.985892
 20
3706.205150
 11
3304.384222
 21
3706.442677
  0
LINE
  8
0
  6
CONTINUOUS
 62
3
 10
3304.384222
 20
3706.442677
 11
3305.174213
 21
3706.928739
  0
LINE
  8
0
  6
CONTINUOUS
 62
3
 10
3305.174213
 20
3706.928739
 11
3306.726073
 21
3707.944018
  0
LINE
  8
0
  6
CONTINUOUS
 62
3
 10
3306.726073
 20
3707.944018
 11
3306.773938
 21
3707.976656
  0
LINE
  8
0
  6
CONTINUOUS
 62
3
 10
3306.773938
 20
3707.976656
 11
3306.821763
 21
3708.009349
  0
LINE
  8
0
  6
CONTINUOUS
 62
3
 10
3306.821763
 20
3708.009349
 11
3306.917294
 21
3708.074897
  0
LINE
  8
0
  6
CONTINUOUS
 62
3
 10
3306.917294
 20
3708.074897
 11
3307.107879
 21
3708.206646
  0
LINE
  8
0
  6
CONTINUOUS
 62
3
 10
3307.107879
 20
3708.206646
 11
3307.487118
 21
3708.472734
  0
LINE
  8
0
  6
CONTINUOUS
 62
3
 10
3307.487118
 20
3708.472734
 11
3308.237691
 21
3709.015166
  0
LINE
  8
0
  6
CONTINUOUS
 62
3
 10
3308.237691
 20
3709.015166
 11
3309.705771
 21
3710.140179
  0
LINE
  8
0
  6
CONTINUOUS
 62
3
 10
3309.705771
 20
3710.140179
 11
3309.750911
 21
3710.176182
  0
LINE
  8
0
  6
CONTINUOUS
 62
3
 10
3309.750911
 20
3710.176182
 11
3309.796005
 21
3710.212235
  0
LINE
  8
0
  6
CONTINUOUS
 62
3
 10
3309.796005
 20
3710.212235
 11
3309.886056
 21
3710.284493
  0
LINE
  8
0
  6
CONTINUOUS
 62
3
 10
3309.886056
 20
3710.284493
 11
3310.065602
 21
3710.429613
  0
LINE
  8
0
  6
CONTINUOUS
 62
3
 10
3310.065602
 20
3710.429613
 11
3310.422455
 21
3710.722258
  0
LINE
  8
0
  6
CONTINUOUS
 62
3
 10
3310.422455
 20
3710.722258
 11
3311.127061
 21
3711.317086
  0
LINE
  8
0
  6
CONTINUOUS
 62
3
 10
3311.127061
 20
3711.317086
 11
3312.503266
 21
3712.547793
  0
LINE
  8
0
  6
CONTINUOUS
 62
3
 10
3312.503266
 20
3712.547793
 11
3312.545570
 21
3712.587135
  0
LINE
  8
0
  6
CONTINUOUS
 62
3
 10
3312.545570
 20
3712.587135
 11
3312.587830
 21
3712.626529
  0
LINE
  8
0
  6
CONTINUOUS
 62
3
 10
3312.587830
 20
3712.626529
 11
3312.672221
 21
3712.705473
  0
LINE
  8
0
  6
CONTINUOUS
 62
3
 10
3312.672221
 20
3712.705473
 11
3312.840478
 21
3712.863988
  0
LINE
  8
0
  6
CONTINUOUS
 62
3
 10
3312.840478
 20
3712.863988
 11
3313.174877
 21
3713.183497
  0
LINE
  8
0
  6
CONTINUOUS
 62
3
 10
3313.174877
 20
3713.183497
 11
3313.835077
 21
3713.832278
  0
LINE
  8
0
  6
CONTINUOUS
 62
3
 10
3313.835077
 20
3713.832278
 11
3315.119999
 21
3715.167599
  0
LINE
  8
0
  6
CONTINUOUS
 62
3
 10
3315.119999
 20
3715.167599
 11
3315.159370
 21
3715.210114
  0
LINE
  8
0
  6
CONTINUOUS
 62
3
 10
3315.159370
 20
3715.210114
 11
3315.198693
 21
3715.252677
  0
LINE
  8
0
  6
CONTINUOUS
 62
3
 10
3315.198693
 20
3715.252677
 11
3315.277193
 21
3715.337942
  0
LINE
  8
0
  6
CONTINUOUS
 62
3
 10
3315.277193
 20
3715.337942
 11
3315.433611
 21
3715.509028
  0
LINE
  8
0
  6
CONTINUOUS
 62
3
 10
3315.433611
 20
3715.509028
 11
3315.744097
 21
3715.853404
  0
LINE
  8
0
  6
CONTINUOUS
 62
3
 10
3315.744097
 20
3715.853404
 11
3316.355535
 21
3716.550816
  0
LINE
  8
0
  6
CONTINUOUS
 62
3
 10
3316.355535
 20
3716.550816
 11
3317.539189
 21
3717.978989
  0
LINE
  8
0
  6
CONTINUOUS
 62
3
 10
3317.539189
 20
3717.978989
 11
3317.575315
 21
3718.024312
  0
LINE
  8
0
  6
CONTINUOUS
 62
3
 10
3317.575315
 20
3718.024312
 11
3317.611388
 21
3718.069675
  0
LINE
  8
0
  6
CONTINUOUS
 62
3
 10
3317.611388
 20
3718.069675
 11
3317.683373
 21
3718.160525
  0
LINE
  8
0
  6
CONTINUOUS
 62
3
 10
3317.683373
 20
3718.160525
 11
3317.826703
 21
3718.342712
  0
LINE
  8
0
  6
CONTINUOUS
 62
3
 10
3317.826703
 20
3718.342712
 11
3318.110780
 21
3718.709015
  0
LINE
  8
0
  6
CONTINUOUS
 62
3
 10
3318.110780
 20
3718.709015
 11
3318.668463
 21
3719.449177
  0
LINE
  8
0
  6
CONTINUOUS
 62
3
 10
3318.668463
 20
3719.449177
 11
3319.740863
 21
3720.958441
  0
LINE
  8
0
  6
CONTINUOUS
 62
3
 10
3319.740863
 20
3720.958441
 11
3319.773431
 21
3721.006203
  0
LINE
  8
0
  6
CONTINUOUS
 62
3
 10
3319.773431
 20
3721.006203
 11
3319.805942
 21
3721.054000
  0
LINE
  8
0
  6
CONTINUOUS
 62
3
 10
3319.805942
 20
3721.054000
 11
3319.870789
 21
3721.149700
  0
LINE
  8
0
  6
CONTINUOUS
 62
3
 10
3319.870789
 20
3721.149700
 11
3319.999783
 21
3721.341517
  0
LINE
  8
0
  6
CONTINUOUS
 62
3
 10
3319.999783
 20
3721.341517
 11
3320.254954
 21
3721.726807
  0
LINE
  8
0
  6
CONTINUOUS
 62
3
 10
3320.254954
 20
3721.726807
 11
3320.753890
 21
3722.503838
  0
LINE
  8
0
  6
CONTINUOUS
 62
3
 10
3320.753890
 20
3722.503838
 11
3321.705883
 21
3724.083748
  0
LINE
  8
0
  6
CONTINUOUS
 62
3
 10
3321.705883
 20
3724.083748
 11
3321.734684
 21
3724.133738
  0
LINE
  8
0
  6
CONTINUOUS
 62
3
 10
3321.734684
 20
3724.133738
 11
3321.763428
 21
3724.183766
  0
LINE
  8
0
  6
CONTINUOUS
 62
3
 10
3321.763428
 20
3724.183766
 11
3321.820744
 21
3724.283935
  0
LINE
  8
0
  6
CONTINUOUS
 62
3
 10
3321.820744
 20
3724.283935
 11
3321.934693
 21
3724.484726
  0
LINE
  8
0
  6
CONTINUOUS
 62
3
 10
3321.934693
 20
3724.484726
 11
3322.159840
 21
3724.888091
  0
LINE
  8
0
  6
CONTINUOUS
 62
3
 10
3322.159840
 20
3724.888091
 11
3322.599053
 21
3725.701756
  0
LINE
  8
0
  6
CONTINUOUS
 62
3
 10
3322.599053
 20
3725.701756
 11
3323.432527
 21
3727.355269
  0
LINE
  8
0
  6
CONTINUOUS
 62
3
 10
3323.432527
 20
3727.355269
 11
3323.457595
 21
3727.407474
  0
LINE
  8
0
  6
CONTINUOUS
 62
3
 10
3323.457595
 20
3727.407474
 11
3323.482604
 21
3727.459710
  0
LINE
  8
0
  6
CONTINUOUS
 62
3
 10
3323.482604
 20
3727.459710
 11
3323.532442
 21
3727.564276
  0
LINE
  8
0
  6
CONTINUOUS
 62
3
 10
3323.532442
 20
3727.564276
 11
3323.631399
 21
3727.773775
  0
LINE
  8
0
  6
CONTINUOUS
 62
3
 10
3323.631399
 20
3727.773775
 11
3323.826427
 21
3728.194221
  0
LINE
  8
0
  6
CONTINUOUS
 62
3
 10
3323.826427
 20
3728.194221
 11
3324.204861
 21
3729.040709
  0
LINE
  8
0
  6
CONTINUOUS
 62
3
 10
3324.204861
 20
3729.040709
 11
3324.914610
 21
3730.754499
  0
LINE
  8
0
  6
CONTINUOUS
 62
3
 10
3324.914610
 20
3730.754499
 11
3324.935766
 21
3730.808473
  0
LINE
  8
0
  6
CONTINUOUS
 62
3
 10
3324.935766
 20
3730.808473
 11
3324.956859
 21
3730.862471
  0
LINE
  8
0
  6
CONTINUOUS
 62
3
 10
3324.956859
 20
3730.862471
 11
3324.998857
 21
3730.970538
  0
LINE
  8
0
  6
CONTINUOUS
 62
3
 10
3324.998857
 20
3730.970538
 11
3325.082100
 21
3731.186957
  0
LINE
  8
0
  6
CONTINUOUS
 62
3
 10
3325.082100
 20
3731.186957
 11
3325.245565
 21
3731.620908
  0
LINE
  8
0
  6
CONTINUOUS
 62
3
 10
3325.245565
 20
3731.620908
 11
3325.560332
 21
3732.493064
  0
LINE
  8
0
  6
CONTINUOUS
 62
3
 10
3325.560332
 20
3732.493064
 11
3326.140582
 21
3734.252825
  0
LINE
  8
0
  6
CONTINUOUS
 62
3
 10
3326.140582
 20
3734.252825
 11
3326.157644
 21
3734.308120
  0
LINE
  8
0
  6
CONTINUOUS
 62
3
 10
3326.157644
 20
3734.308120
 11
3326.174640
 21
3734.363432
  0
LINE
  8
0
  6
CONTINUOUS
 62
3
 10
3326.174640
 20
3734.363432
 11
3326.208437
 21
3734.474107
  0
LINE
  8
0
  6
CONTINUOUS
 62
3
 10
3326.208437
 20
3734.474107
 11
3326.275245
 21
3734.695658
  0
LINE
  8
0
  6
CONTINUOUS
 62
3
 10
3326.275245
 20
3734.695658
 11
3326.405703
 21
3735.139536
  0
LINE
  8
0
  6
CONTINUOUS
 62
3
 10
3326.405703
 20
3735.139536
 11
3326.653915
 21
3736.030206
  0
LINE
  8
0
  6
CONTINUOUS
 62
3
 10
3326.653915
 20
3736.030206
 11
3327.098889
 21
3737.821631
  0
LINE
  8
0
  6
CONTINUOUS
 62
3
 10
3327.098889
 20
3737.821631
 11
3327.111677
 21
3737.877800
  0
LINE
  8
0
  6
CONTINUOUS
 62
3
 10
3327.111677
 20
3737.877800
 11
3327.124399
 21
3737.933987
  0
LINE
  8
0
  6
CONTINUOUS
 62
3
 10
3327.124399
 20
3737.933987
 11
3327.149645
 21
3738.046422
  0
LINE
  8
0
  6
CONTINUOUS
 62
3
 10
3327.149645
 20
3738.046422
 11
3327.199345
 21
3738.271530
  0
LINE
  8
0
  6
CONTINUOUS
 62
3
 10
3327.199345
 20
3738.271530
 11
3327.295581
 21
3738.722675
  0
LINE
  8
0
  6
CONTINUOUS
 62
3
 10
3327.295581
 20
3738.722675
 11
3327.475379
 21
3739.628466
  0
LINE
  8
0
  6
CONTINUOUS
 62
3
 10
3327.475379
 20
3739.628466
 11
3327.784168
 21
3741.452372
  0
LINE
  8
0
  6
CONTINUOUS
 62
3
 10
3327.784168
 20
3741.452372
 11
3327.792724
 21
3741.509602
  0
LINE
  8
0
  6
CONTINUOUS
 62
3
 10
3327.792724
 20
3741.509602
 11
3327.801214
 21
3741.566845
  0
LINE
  8
0
  6
CONTINUOUS
 62
3
 10
3327.801214
 20
3741.566845
 11
3327.817995
 21
3741.681369
  0
LINE
  8
0
  6
CONTINUOUS
 62
3
 10
3327.817995
 20
3741.681369
 11
3327.850759
 21
3741.910565
  0
LINE
  8
0
  6
CONTINUOUS
 62
3
 10
3327.850759
 20
3741.910565
 11
3327.913099
 21
3742.369524
  0
LINE
  8
0
  6
CONTINUOUS
 62
3
 10
3327.913099
 20
3742.369524
 11
3328.025013
 21
3743.289501
  0
LINE
  8
0
  6
CONTINUOUS
 62
3
 10
3328.025013
 20
3743.289501
 11
3328.197668
 21
3745.136005
  0
LINE
  8
0
  6
CONTINUOUS
 62
3
 10
3328.197668
 20
3745.136005
 11
3328.201962
 21
3745.193817
  0
LINE
  8
0
  6
CONTINUOUS
 62
3
 10
3328.201962
 20
3745.193817
 11
3328.206189
 21
3745.251635
  0
LINE
  8
0
  6
CONTINUOUS
 62
3
 10
3328.206189
 20
3745.251635
 11
3328.214443
 21
3745.367286
  0
LINE
  8
0
  6
CONTINUOUS
 62
3
 10
3328.214443
 20
3745.367286
 11
3328.230149
 21
3745.598645
  0
LINE
  8
0
  6
CONTINUOUS
 62
3
 10
3328.230149
 20
3745.598645
 11
3328.258348
 21
3746.061569
  0
LINE
  8
0
  6
CONTINUOUS
 62
3
 10
3328.258348
 20
3746.061569
 11
3328.301890
 21
3746.988034
  0
LINE
  8
0
  6
CONTINUOUS
 62
3
 10
3328.301890
 20
3746.988034
 11
3328.337432
 21
3748.841737
  0
LINE
  8
0
  6
CONTINUOUS
 62
3
 10
3328.337432
 20
3748.841737
 11
3328.337434
 21
3748.899651
  0
LINE
  8
0
  6
CONTINUOUS
 62
3
 10
3328.337434
 20
3748.899651
 11
3328.337368
 21
3748.957562
  0
LINE
  8
0
  6
CONTINUOUS
 62
3
 10
3328.337368
 20
3748.957562
 11
3328.337034
 21
3749.073376
  0
LINE
  8
0
  6
CONTINUOUS
 62
3
 10
3328.337034
 20
3749.073376
 11
3328.335559
 21
3749.304974
  0
LINE
  8
0
  6
CONTINUOUS
 62
3
 10
3328.335559
 20
3749.304974
 11
3328.329373
 21
3749.768015
  0
LINE
  8
0
  6
CONTINUOUS
 62
3
 10
3328.329373
 20
3749.768015
 11
3328.304052
 21
3750.693267
  0
LINE
  8
0
  6
CONTINUOUS
 62
3
 10
3328.304052
 20
3750.693267
 11
3328.201505
 21
3752.538772
  0
LINE
  8
0
  6
CONTINUOUS
 62
3
 10
3328.201505
 20
3752.538772
 11
3328.197183
 21
3752.596305
  0
LINE
  8
0
  6
CONTINUOUS
 62
3
 10
3328.197183
 20
3752.596305
 11
3328.192793
 21
3752.653829
  0
LINE
  8
0
  6
CONTINUOUS
 62
3
 10
3328.192793
 20
3752.653829
 11
3328.183811
 21
3752.768845
  0
LINE
  8
0
  6
CONTINUOUS
 62
3
 10
3328.183811
 20
3752.768845
 11
3328.165031
 21
3752.998756
  0
LINE
  8
0
  6
CONTINUOUS
 62
3
 10
3328.165031
 20
3752.998756
 11
3328.124216
 21
3753.458063
  0
LINE
  8
0
  6
CONTINUOUS
 62
3
 10
3328.124216
 20
3753.458063
 11
3328.029470
 21
3754.375321
  0
LINE
  8
0
  6
CONTINUOUS
 62
3
 10
3328.029470
 20
3754.375321
 11
3327.787470
 21
3756.207038
  0
LINE
  8
0
  6
CONTINUOUS
 62
3
 10
3327.787470
 20
3756.207038
 11
3327.778788
 21
3756.264190
  0
LINE
  8
0
  6
CONTINUOUS
 62
3
 10
3327.778788
 20
3756.264190
 11
3327.770037
 21
3756.321335
  0
LINE
  8
0
  6
CONTINUOUS
 62
3
 10
3327.770037
 20
3756.321335
 11
3327.752334
 21
3756.435605
  0
LINE
  8
0
  6
CONTINUOUS
 62
3
 10
3327.752334
 20
3756.435605
 11
3327.716119
 21
3756.664060
  0
LINE
  8
0
  6
CONTINUOUS
 62
3
 10
3327.716119
 20
3756.664060
 11
3327.640457
 21
3757.120603
  0
LINE
  8
0
  6
CONTINUOUS
 62
3
 10
3327.640457
 20
3757.120603
 11
3327.476266
 21
3758.032017
  0
LINE
  8
0
  6
CONTINUOUS
 62
3
 10
3327.476266
 20
3758.032017
 11
3327.096837
 21
3759.846527
  0
LINE
  8
0
  6
CONTINUOUS
 62
3
 10
3327.096837
 20
3759.846527
 11
3327.083891
 21
3759.903021
  0
LINE
  8
0
  6
CONTINUOUS
 62
3
 10
3327.083891
 20
3759.903021
 11
3327.070880
 21
3759.959501
  0
LINE
  8
0
  6
CONTINUOUS
 62
3
 10
3327.070880
 20
3759.959501
 11
3327.044660
 21
3760.072419
  0
LINE
  8
0
  6
CONTINUOUS
 62
3
 10
3327.044660
 20
3760.072419
 11
3326.991434
 21
3760.298081
  0
LINE
  8
0
  6
CONTINUOUS
 62
3
 10
3326.991434
 20
3760.298081
 11
3326.881844
 21
3760.748690
  0
LINE
  8
0
  6
CONTINUOUS
 62
3
 10
3326.881844
 20
3760.748690
 11
3326.650163
 21
3761.646838
  0
LINE
  8
0
  6
CONTINUOUS
 62
3
 10
3326.650163
 20
3761.646838
 11
3326.137223
 21
3763.429218
  0
LINE
  8
0
  6
CONTINUOUS
 62
3
 10
3326.137223
 20
3763.429218
 11
3326.120137
 21
3763.484588
  0
LINE
  8
0
  6
CONTINUOUS
 62
3
 10
3326.120137
 20
3763.484588
 11
3326.102987
 21
3763.539936
  0
LINE
  8
0
  6
CONTINUOUS
 62
3
 10
3326.102987
 20
3763.539936
 11
3326.068496
 21
3763.650569
  0
LINE
  8
0
  6
CONTINUOUS
 62
3
 10
3326.068496
 20
3763.650569
 11
3325.998749
 21
3763.871574
  0
LINE
  8
0
  6
CONTINUOUS
 62
3
 10
3325.998749
 20
3763.871574
 11
3325.856210
 21
3764.312519
  0
LINE
  8
0
  6
CONTINUOUS
 62
3
 10
3325.856210
 20
3764.312519
 11
3325.558998
 21
3765.189937
  0
LINE
  8
0
  6
CONTINUOUS
 62
3
 10
3325.558998
 20
3765.189937
 11
3324.916467
 21
3766.925265
  0
LINE
  8
0
  6
CONTINUOUS
 62
3
 10
3324.916467
 20
3766.925265
 11
3324.895362
 21
3766.979044
  0
LINE
  8
0
  6
CONTINUOUS
 62
3
 10
3324.895362
 20
3766.979044
 11
3324.874196
 21
3767.032795
  0
LINE
  8
0
  6
CONTINUOUS
 62
3
 10
3324.874196
 20
3767.032795
 11
3324.831677
 21
3767.140210
  0
LINE
  8
0
  6
CONTINUOUS
 62
3
 10
3324.831677
 20
3767.140210
 11
3324.745901
 21
3767.354692
  0
LINE
  8
0
  6
CONTINUOUS
 62
3
 10
3324.745901
 20
3767.354692
 11
3324.571392
 21
3767.782241
  0
LINE
  8
0
  6
CONTINUOUS
 62
3
 10
3324.571392
 20
3767.782241
 11
3324.210609
 21
3768.631469
  0
LINE
  8
0
  6
CONTINUOUS
 62
3
 10
3324.210609
 20
3768.631469
 11
3323.440945
 21
3770.308426
  0
LINE
  8
0
  6
CONTINUOUS
 62
3
 10
3323.440945
 20
3770.308426
 11
3323.415841
 21
3770.360420
  0
LINE
  8
0
  6
CONTINUOUS
 62
3
 10
3323.415841
 20
3770.360420
 11
3323.390673
 21
3770.412387
  0
LINE
  8
0
  6
CONTINUOUS
 62
3
 10
3323.390673
 20
3770.412387
 11
3323.340148
 21
3770.516245
  0
LINE
  8
0
  6
CONTINUOUS
 62
3
 10
3323.340148
 20
3770.516245
 11
3323.238342
 21
3770.723646
  0
LINE
  8
0
  6
CONTINUOUS
 62
3
 10
3323.238342
 20
3770.723646
 11
3323.031726
 21
3771.137167
  0
LINE
  8
0
  6
CONTINUOUS
 62
3
 10
3323.031726
 20
3771.137167
 11
3322.606582
 21
3771.958914
  0
LINE
  8
0
  6
CONTINUOUS
 62
3
 10
3322.606582
 20
3771.958914
 11
3321.709573
 21
3773.579808
  0
LINE
  8
0
  6
CONTINUOUS
 62
3
 10
3321.709573
 20
3773.579808
 11
3321.680555
 21
3773.629949
  0
LINE
  8
0
  6
CONTINUOUS
 62
3
 10
3321.680555
 20
3773.629949
 11
3321.651478
 21
3773.680057
  0
LINE
  8
0
  6
CONTINUOUS
 62
3
 10
3321.651478
 20
3773.680057
 11
3321.593147
 21
3773.780178
  0
LINE
  8
0
  6
CONTINUOUS
 62
3
 10
3321.593147
 20
3773.780178
 11
3321.475779
 21
3773.980029
  0
LINE
  8
0
  6
CONTINUOUS
 62
3
 10
3321.475779
 20
3773.980029
 11
3321.238235
 21
3774.378147
  0
LINE
  8
0
  6
CONTINUOUS
 62
3
 10
3321.238235
 20
3774.378147
 11
3320.752024
 21
3775.167875
  0
LINE
  8
0
  6
CONTINUOUS
 62
3
 10
3320.752024
 20
3775.167875
 11
3319.736039
 21
3776.719883
  0
LINE
  8
0
  6
CONTINUOUS
 62
3
 10
3319.736039
 20
3776.719883
 11
3319.703371
 21
3776.767767
  0
LINE
  8
0
  6
CONTINUOUS
 62
3
 10
3319.703371
 20
3776.767767
 11
3319.670647
 21
3776.815612
  0
LINE
  8
0
  6
CONTINUOUS
 62
3
 10
3319.670647
 20
3776.815612
 11
3319.605037
 21
3776.911187
  0
LINE
  8
0
  6
CONTINUOUS
 62
3
 10
3319.605037
 20
3776.911187
 11
3319.473158
 21
3777.101871
  0
LINE
  8
0
  6
CONTINUOUS
 62
3
 10
3319.473158
 20
3777.101871
 11
3319.206790
 21
3777.481354
  0
LINE
  8
0
  6
CONTINUOUS
 62
3
 10
3319.206790
 20
3777.481354
 11
3318.663721
 21
3778.232598
  0
LINE
  8
0
  6
CONTINUOUS
 62
3
 10
3318.663721
 20
3778.232598
 11
3317.537177
 21
3779.702788
  0
LINE
  8
0
  6
CONTINUOUS
 62
3
 10
3317.537177
 20
3779.702788
 11
3317.501121
 21
3779.748011
  0
LINE
  8
0
  6
CONTINUOUS
 62
3
 10
3317.501121
 20
3779.748011
 11
3317.465015
 21
3779.793189
  0
LINE
  8
0
  6
CONTINUOUS
 62
3
 10
3317.465015
 20
3779.793189
 11
3317.392650
 21
3779.883410
  0
LINE
  8
0
  6
CONTINUOUS
 62
3
 10
3317.392650
 20
3779.883410
 11
3317.247314
 21
3780.063312
  0
LINE
  8
0
  6
CONTINUOUS
 62
3
 10
3317.247314
 20
3780.063312
 11
3316.954226
 21
3780.420925
  0
LINE
  8
0
  6
CONTINUOUS
 62
3
 10
3316.954226
 20
3780.420925
 11
3316.358508
 21
3781.127220
  0
LINE
  8
0
  6
CONTINUOUS
 62
3
 10
3316.358508
 20
3781.127220
 11
3315.129523
 21
3782.502996
  0
LINE
  8
0
  6
CONTINUOUS
 62
3
 10
3315.129523
 20
3782.502996
 11
3315.090276
 21
3782.545230
  0
LINE
  8
0
  6
CONTINUOUS
 62
3
 10
3315.090276
 20
3782.545230
 11
3315.050976
 21
3782.587422
  0
LINE
  8
0
  6
CONTINUOUS
 62
3
 10
3315.050976
 20
3782.587422
 11
3314.972216
 21
3782.671675
  0
LINE
  8
0
  6
CONTINUOUS
 62
3
 10
3314.972216
 20
3782.671675
 11
3314.814057
 21
3782.839662
  0
LINE
  8
0
  6
CONTINUOUS
 62
3
 10
3314.814057
 20
3782.839662
 11
3314.495209
 21
3783.173538
  0
LINE
  8
0
  6
CONTINUOUS
 62
3
 10
3314.495209
 20
3783.173538
 11
3313.847558
 21
3783.832767
  0
LINE
  8
0
  6
CONTINUOUS
 62
3
 10
3313.847558
 20
3783.832767
 11
3312.513752
 21
3785.116082
  0
LINE
  8
0
  6
CONTINUOUS
 62
3
 10
3312.513752
 20
3785.116082
 11
3312.471268
 21
3785.155411
  0
LINE
  8
0
  6
CONTINUOUS
 62
3
 10
3312.471268
 20
3785.155411
 11
3312.428737
 21
3785.194692
  0
LINE
  8
0
  6
CONTINUOUS
 62
3
 10
3312.428737
 20
3785.194692
 11
3312.343531
 21
3785.273110
  0
LINE
  8
0
  6
CONTINUOUS
 62
3
 10
3312.343531
 20
3785.273110
 11
3312.172554
 21
3785.429370
  0
LINE
  8
0
  6
CONTINUOUS
 62
3
 10
3312.172554
 20
3785.429370
 11
3311.828351
 21
3785.739567
  0
LINE
  8
0
  6
CONTINUOUS
 62
3
 10
3311.828351
 20
3785.739567
 11
3311.131121
 21
3786.350536
  0
LINE
  8
0
  6
CONTINUOUS
 62
3
 10
3311.131121
 20
3786.350536
 11
3309.702679
 21
3787.533721
  0
LINE
  8
0
  6
CONTINUOUS
 62
3
 10
3309.702679
 20
3787.533721
 11
3309.657335
 21
3787.569844
  0
LINE
  8
0
  6
CONTINUOUS
 62
3
 10
3309.657335
 20
3787.569844
 11
3309.611949
 21
3787.605913
  0
LINE
  8
0
  6
CONTINUOUS
 62
3
 10
3309.611949
 20
3787.605913
 11
3309.521053
 21
3787.677895
  0
LINE
  8
0
  6
CONTINUOUS
 62
3
 10
3309.521053
 20
3787.677895
 11
3309.338764
 21
3787.821225
  0
LINE
  8
0
  6
CONTINUOUS
 62
3
 10
3309.338764
 20
3787.821225
 11
3308.972221
 21
3788.105337
  0
LINE
  8
0
  6
CONTINUOUS
 62
3
 10
3308.972221
 20
3788.105337
 11
3308.231442
 21
3788.663233
  0
LINE
  8
0
  6
CONTINUOUS
 62
3
 10
3308.231442
 20
3788.663233
 11
3306.720424
 21
3789.736665
  0
LINE
  8
0
  6
CONTINUOUS
 62
3
 10
3306.720424
 20
3789.736665
 11
3306.672597
 21
3789.769280
  0
LINE
  8
0
  6
CONTINUOUS
 62
3
 10
3306.672597
 20
3789.769280
 11
3306.624734
 21
3789.801838
  0
LINE
  8
0
  6
CONTINUOUS
 62
3
 10
3306.624734
 20
3789.801838
 11
3306.528900
 21
3789.866781
  0
LINE
  8
0
  6
CONTINUOUS
 62
3
 10
3306.528900
 20
3789.866781
 11
3306.336807
 21
3789.995979
  0
LINE
  8
0
  6
CONTINUOUS
 62
3
 10
3306.336807
 20
3789.995979
 11
3305.950940
 21
3790.251599
  0
LINE
  8
0
  6
CONTINUOUS
 62
3
 10
3305.950940
 20
3790.251599
 11
3305.172641
 21
3790.751611
  0
LINE
  8
0
  6
CONTINUOUS
 62
3
 10
3305.172641
 20
3790.751611
 11
3303.591107
 21
3791.705665
  0
LINE
  8
0
  6
CONTINUOUS
 62
3
 10
3303.591107
 20
3791.705665
 11
3303.541173
 21
3791.734472
  0
LINE
  8
0
  6
CONTINUOUS
 62
3
 10
3303.541173
 20
3791.734472
 11
3303.491209
 21
3791.763217
  0
LINE
  8
0
  6
CONTINUOUS
 62
3
 10
3303.491209
 20
3791.763217
 11
3303.391192
 21
3791.820520
  0
LINE
  8
0
  6
CONTINUOUS
 62
3
 10
3303.391192
 20
3791.820520
 11
3303.190803
 21
3791.934382
  0
LINE
  8
0
  6
CONTINUOUS
 62
3
 10
3303.190803
 20
3791.934382
 11
3302.788387
 21
3792.159243
  0
LINE
  8
0
  6
CONTINUOUS
 62
3
 10
3302.788387
 20
3792.159243
 11
3301.976412
 21
3792.597879
  0
LINE
  8
0
  6
CONTINUOUS
 62
3
 10
3301.976412
 20
3792.597879
 11
3300.325450
 21
3793.430237
  0
LINE
  8
0
  6
CONTINUOUS
 62
3
 10
3300.325450
 20
3793.430237
 11
3300.273307
 21
3793.455272
  0
LINE
  8
0
  6
CONTINUOUS
 62
3
 10
3300.273307
 20
3793.455272
 11
3300.221132
 21
3793.480248
  0
LINE
  8
0
  6
CONTINUOUS
 62
3
 10
3300.221132
 20
3793.480248
 11
3300.116686
 21
3793.530021
  0
LINE
  8
0
  6
CONTINUOUS
 62
3
 10
3300.116686
 20
3793.530021
 11
3299.907413
 21
3793.628848
  0
LINE
  8
0
  6
CONTINUOUS
 62
3
 10
3299.907413
 20
3793.628848
 11
3299.487369
 21
3793.823626
  0
LINE
  8
0
  6
CONTINUOUS
 62
3
 10
3299.487369
 20
3793.823626
 11
3298.641491
 21
3794.201599
  0
LINE
  8
0
  6
CONTINUOUS
 62
3
 10
3298.641491
 20
3794.201599
 11
3296.928153
 21
3794.910630
  0
LINE
  8
0
  6
CONTINUOUS
 62
3
 10
3296.928153
 20
3794.910630
 11
3296.874177
 21
3794.931768
  0
LINE
  8
0
  6
CONTINUOUS
 62
3
 10
3296.874177
 20
3794.931768
 11
3296.820177
 21
3794.952844
  0
LINE
  8
0
  6
CONTINUOUS
 62
3
 10
3296.820177
 20
3794.952844
 11
3296.712100
 21
3794.994810
  0
LINE
  8
0
  6
CONTINUOUS
 62
3
 10
3296.712100
 20
3794.994810
 11
3296.495652
 21
3795.077992
  0
LINE
  8
0
  6
CONTINUOUS
 62
3
 10
3296.495652
 20
3795.077992
 11
3296.061598
 21
3795.241354
  0
LINE
  8
0
  6
CONTINUOUS
 62
3
 10
3296.061598
 20
3795.241354
 11
3295.189055
 21
3795.555995
  0
LINE
  8
0
  6
CONTINUOUS
 62
3
 10
3295.189055
 20
3795.555995
 11
3293.427816
 21
3796.136359
  0
LINE
  8
0
  6
CONTINUOUS
 62
3
 10
3293.427816
 20
3796.136359
 11
3293.372460
 21
3796.153434
  0
LINE
  8
0
  6
CONTINUOUS
 62
3
 10
3293.372460
 20
3796.153434
 11
3293.317086
 21
3796.170443
  0
LINE
  8
0
  6
CONTINUOUS
 62
3
 10
3293.317086
 20
3796.170443
 11
3293.206285
 21
3796.204268
  0
LINE
  8
0
  6
CONTINUOUS
 62
3
 10
3293.206285
 20
3796.204268
 11
3292.984471
 21
3796.271137
  0
LINE
  8
0
  6
CONTINUOUS
 62
3
 10
3292.984471
 20
3796.271137
 11
3292.540025
 21
3796.401749
  0
LINE
  8
0
  6
CONTINUOUS
 62
3
 10
3292.540025
 20
3796.401749
 11
3291.648055
 21
3796.650388
  0
LINE
  8
0
  6
CONTINUOUS
 62
3
 10
3291.648055
 20
3796.650388
 11
3289.853391
 21
3797.096748
  0
LINE
  8
0
  6
CONTINUOUS
 62
3
 10
3289.853391
 20
3797.096748
 11
3289.797108
 21
3797.109591
  0
LINE
  8
0
  6
CONTINUOUS
 62
3
 10
3289.797108
 20
3797.109591
 11
3289.740813
 21
3797.122368
  0
LINE
  8
0
  6
CONTINUOUS
 62
3
 10
3289.740813
 20
3797.122368
 11
3289.628191
 21
3797.147718
  0
LINE
  8
0
  6
CONTINUOUS
 62
3
 10
3289.628191
 20
3797.147718
 11
3289.402821
 21
3797.197608
  0
LINE
  8
0
  6
CONTINUOUS
 62
3
 10
3289.402821
 20
3797.197608
 11
3288.951602
 21
3797.294134
  0
LINE
  8
0
  6
CONTINUOUS
 62
3
 10
3288.951602
 20
3797.294134
 11
3288.047303
 21
3797.474135
  0
LINE
  8
0
  6
CONTINUOUS
 62
3
 10
3288.047303
 20
3797.474135
 11
3286.226769
 21
3797.782981
  0
LINE
  8
0
  6
CONTINUOUS
 62
3
 10
3286.226769
 20
3797.782981
 11
3286.169627
 21
3797.791536
  0
LINE
  8
0
  6
CONTINUOUS
 62
3
 10
3286.169627
 20
3797.791536
 11
3286.112472
 21
3797.800025
  0
LINE
  8
0
  6
CONTINUOUS
 62
3
 10
3286.112472
 20
3797.800025
 11
3285.998119
 21
3797.816803
  0
LINE
  8
0
  6
CONTINUOUS
 62
3
 10
3285.998119
 20
3797.816803
 11
3285.769253
 21
3797.849561
  0
LINE
  8
0
  6
CONTINUOUS
 62
3
 10
3285.769253
 20
3797.849561
 11
3285.310904
 21
3797.911879
  0
LINE
  8
0
  6
CONTINUOUS
 62
3
 10
3285.310904
 20
3797.911879
 11
3284.391948
 21
3798.023710
  0
LINE
  8
0
  6
CONTINUOUS
 62
3
 10
3284.391948
 20
3798.023710
 11
3282.546693
 21
3798.196026
  0
LINE
  8
0
  6
CONTINUOUS
 62
3
 10
3282.546693
 20
3798.196026
 11
3282.488913
 21
3798.200304
  0
LINE
  8
0
  6
CONTINUOUS
 62
3
 10
3282.488913
 20
3798.200304
 11
3282.431116
 21
3798.204516
  0
LINE
  8
0
  6
CONTINUOUS
 62
3
 10
3282.431116
 20
3798.204516
 11
3282.315505
 21
3798.212739
  0
LINE
  8
0
  6
CONTINUOUS
 62
3
 10
3282.315505
 20
3798.212739
 11
3282.084211
 21
3798.228380
  0
LINE
  8
0
  6
CONTINUOUS
 62
3
 10
3282.084211
 20
3798.228380
 11
3281.621368
 21
3798.256435
  0
LINE
  8
0
  6
CONTINUOUS
 62
3
 10
3281.621368
 20
3798.256435
 11
3280.694870
 21
3798.299632
  0
LINE
  8
0
  6
CONTINUOUS
 62
3
 10
3280.694870
 20
3798.299632
 11
3278.840314
 21
3798.334233
  0
LINE
  8
0
  6
CONTINUOUS
 62
3
 10
3479.840305
 20
3787.987941
 11
3507.740305
 21
3787.987941
  0
LINE
  8
0
  6
CONTINUOUS
 62
3
 10
3479.840305
 20
3787.987941
 11
3479.840305
 21
3792.987941
  0
LINE
  8
0
  6
CONTINUOUS
 62
3
 10
3507.740305
 20
3816.687941
 11
3479.840305
 21
3816.687941
  0
LINE
  8
0
  6
CONTINUOUS
 62
3
 10
3479.840305
 20
3811.687941
 11
3479.840305
 21
3816.687941
  0
LINE
  8
0
  6
CONTINUOUS
 62
3
 10
3449.840305
 20
3808.337941
 11
3449.840305
 21
3796.337941
  0
LINE
  8
0
  6
CONTINUOUS
 62
3
 10
3449.840305
 20
3808.337941
 11
3479.840305
 21
3810.637941
  0
LINE
  8
0
  6
CONTINUOUS
 62
3
 10
3449.840305
 20
3796.337941
 11
3479.840305
 21
3794.037941
  0
LINE
  8
0
  6
CONTINUOUS
 62
3
 10
3479.840305
 20
3811.687941
 11
3479.840305
 21
3792.987941
  0
LINE
  8
0
  6
CONTINUOUS
 62
3
 10
3357.740305
 20
3798.337941
 11
3278.840305
 21
3798.337941
  0
LINE
  8
0
  6
CONTINUOUS
 62
3
 10
3357.740305
 20
3806.337941
 11
3278.840305
 21
3806.337941
  0
LINE
  8
0
  6
CONTINUOUS
 62
3
 10
3449.840305
 20
3798.337941
 11
3357.740305
 21
3798.337941
  0
LINE
  8
0
  6
CONTINUOUS
 62
3
 10
3449.840305
 20
3806.337941
 11
3357.740305
 21
3806.337941
  0
LINE
  8
0
  6
CONTINUOUS
 62
3
 10
3348.840305
 20
3691.337941
 11
3278.840305
 21
3691.337941
  0
LINE
  8
0
  6
CONTINUOUS
 62
3
 10
3348.840305
 20
3699.337941
 11
3308.097783
 21
3699.337941
  0
LINE
  8
0
  6
CONTINUOUS
 62
3
 10
3357.740305
 20
3699.337941
 11
3348.840305
 21
3699.337941
  0
LINE
  8
0
  6
CONTINUOUS
 62
3
 10
3348.840305
 20
3691.337941
 11
3357.740305
 21
3691.337941
  0
LINE
  8
0
  6
CONTINUOUS
 62
3
 10
3366.340305
 20
3699.337941
 11
3357.740305
 21
3699.337941
  0
LINE
  8
0
  6
CONTINUOUS
 62
3
 10
3357.740305
 20
3691.337941
 11
3366.340305
 21
3691.337941
  0
LINE
  8
0
  6
CONTINUOUS
 62
3
 10
4046.904771
 20
2881.337941
 11
4046.904771
 21
2889.337941
  0
LINE
  8
0
  6
CONTINUOUS
 62
3
 10
3592.904771
 20
2889.337941
 11
3592.904771
 21
2881.337941
  0
LINE
  8
0
  6
CONTINUOUS
 62
3
 10
4046.904771
 20
2889.337941
 11
3594.369238
 21
2889.337941
  0
LINE
  8
0
  6
CONTINUOUS
 62
3
 10
3634.904771
 20
2922.337941
 11
3634.904771
 21
2889.337941
  0
LINE
  8
0
  6
CONTINUOUS
 62
3
 10
4136.350509
 20
2959.261052
 11
4136.313207
 21
2959.275682
  0
LINE
  8
0
  6
CONTINUOUS
 62
3
 10
4215.033402
 20
3639.000873
 11
4185.066843
 21
3621.699672
  0
LINE
  8
0
  6
CONTINUOUS
 62
3
 10
3860.240305
 20
2881.337941
 11
3643.511373
 21
2881.337941
  0
LINE
  8
0
  6
CONTINUOUS
 62
3
 10
3592.904771
 20
2881.337941
 11
3643.511373
 21
2881.337941
  0
LINE
  8
0
  6
CONTINUOUS
 62
3
 10
4046.904771
 20
2881.337941
 11
3860.240305
 21
2881.337941
  0
LINE
  8
0
  6
CONTINUOUS
 62
3
 10
3973.904771
 20
2922.337941
 11
3571.440305
 21
2922.337941
  0
DIMENSION
  8
0
 62
1
  2
*D1
 70
0
  1
<>
 10
3042.926266
 20
3379.337941
 11
3042.926266
 21
3379.337941
 13
3487.890305
 23
3877.337941
 14
3592.904771
 24
2881.337941
 50
-90.000000
  0
DIMENSION
  8
0
 62
1
  2
*D2
 70
0
  1
<>
 10
3799.240305
 20
4063.533150
 11
3799.240305
 21
4063.533150
 13
4397.040305
 23
3520.487941
 14
3201.440305
 24
3520.487941
 50
180.000000
  0
INSERT
  2
A1-SHEET
  8
BORDER
 10
100.000000
 20
100.000000
 41
10.000000
 42
10.000000
 50
0.000000
  0
ENDSEC
  0
EOF
