  0
SECTION
  2
HEADER
  9
$LIMMIN
 10
0.000000
 20
0.000000
  9
$LIMMAX
 10
16817.928305
 20
11892.071150
  9
$EXTMIN
 10
0.000000
 20
0.000000
  9
$EXTMAX
 10
16817.928305
 20
11892.071150
  9
$ANGBASE
 50
0.0
  9
$ANGDIR
 70
0
  9
$DIMRND
 40
0.100000
  9
$DIMSE1
 70
0
  9
$DIMSE2
 70
0
  9
$DIMTXT
 40
3.500000
  9
$LTSCALE
 40
1.000000
  9
$LUPREC
 70
0
  9
$AUPREC
 70
0
  9
$PDMODE
 70
2
  9
$PDSIZE
 40
84.089642
  0
ENDSEC
  0
SECTION
  2
TABLES
  0
TABLE
  2
VPORT
  70
1
  0
VPORT
  2
*ACTIVE
 70
0
  10
0.0
 20
0.0
 11
1.0
 21
1.0
 12
594.0
 22
420.0
 13
0.0
 23
0.0
 14
10.0
 24
10.0
 15
10.0
 25
10.0
 16
0.0
 26
0.0
 36
1.0
 17
594.0
 27
420.0
 37
100.0
 40
1000.0
 41
1.0
 42
50.0
 43
0.0
 44
0.0
 50
0.0
 51
0.0
 71
0
 72
2000
 73
1
 74
3
 75
0
 76
0
 77
0
 78
1
  0
ENDTAB
  0
TABLE
  2
LTYPE
 70
4
  0
LTYPE
  2
CONTINUOUS
 70
0
  3
Solid line
 72
65
 73
0
 40
0.0
  0
LTYPE
  2
DASHED
 70
0
  3
Dashed line
 72
65
 73
2
 40
120.000000
 49
60.000000
 49
-60.000000
  0
LTYPE
  2
CENTER
 70
0
  3
Chain line
 72
65
 73
4
 40
480.000000
 49
300.000000
 49
-60.000000
 49
60.000000
 49
-60.000000
  0
LTYPE
  2
RANDOM
 70
0
  3
Random line
 72
65
 73
4
 40
450.000000
 49
120.000000
 49
-60.000000
 49
90.000000
 49
-180.000000
  0
ENDTAB
  0
TABLE
  2
STYLE
 70
9
  0
STYLE
  2
STANDARD
 40
0
 41
1.0
 50
0.0
 71
0
 42
0
  3
simplex
  4

 70
0
  0
ENDTAB
  0
TABLE
  2
LAYER
 70
3
  0
LAYER
  2
0
 70
0
 62
7
  6
CONTINUOUS
  0
LAYER
  2
0
 62
1
  6
CONTINUOUS
 70
0
  0
LAYER
  2
BORDER
 62
1
  6
CONTINUOUS
 70
0
  0
ENDTAB
  0
ENDSEC
  0
SECTION
  2
BLOCKS
  0
BLOCK
  2
A1-SHEET
  8
0
 70
0
 10
0.0
 20
0.0
 30
0.0
  0
LINE
  8
0
  6
CONTINUOUS
 62
1
 10
0.000000
 20
0.293588
 11
0.000000
 21
570.293588
  0
LINE
  8
0
  6
CONTINUOUS
 62
1
 10
810.896415
 20
0.293588
 11
0.000000
 21
0.293588
  0
LINE
  8
0
  6
CONTINUOUS
 62
1
 10
0.000000
 20
570.293588
 11
810.896415
 21
570.293588
  0
LINE
  8
0
  6
CONTINUOUS
 62
1
 10
810.896415
 20
0.293588
 11
810.896415
 21
570.293588
  0
LINE
  8
0
  6
CONTINUOUS
 62
1
 10
405.448208
 20
570.293588
 11
405.448208
 21
573.293588
  0
LINE
  8
0
  6
CONTINUOUS
 62
1
 10
608.172311
 20
570.293588
 11
608.172311
 21
573.293588
  0
LINE
  8
0
  6
CONTINUOUS
 62
1
 10
202.724104
 20
570.293588
 11
202.724104
 21
573.293588
  0
LINE
  8
0
  6
CONTINUOUS
 62
1
 10
101.362052
 20
570.293588
 11
101.362052
 21
573.293588
  0
LINE
  8
0
  6
CONTINUOUS
 62
1
 10
304.086156
 20
570.293588
 11
304.086156
 21
569.894507
  0
LINE
  8
0
  6
CONTINUOUS
 62
1
 10
304.086156
 20
569.894507
 11
304.086156
 21
573.293588
  0
LINE
  8
0
  6
CONTINUOUS
 62
1
 10
506.810260
 20
570.293588
 11
506.810260
 21
573.293588
  0
LINE
  8
0
  6
CONTINUOUS
 62
1
 10
709.534363
 20
570.293588
 11
709.534363
 21
573.293588
  0
TEXT
  8
0
  6
CONTINUOUS
 62
2
 10
99.855229
 20
574.935709
 40
3.000000
  1
1
 50
0.000000
 41
1.000000
 51
0.000000
  7
STANDARD
  0
TEXT
  8
0
  6
CONTINUOUS
 62
2
 10
201.603454
 20
574.761780
 40
3.000000
  1
2
 50
0.000000
 41
1.000000
 51
0.000000
  7
STANDARD
  0
TEXT
  8
0
  6
CONTINUOUS
 62
2
 10
303.425760
 20
574.928387
 40
3.000000
  1
3
 50
0.000000
 41
1.000000
 51
0.000000
  7
STANDARD
  0
TEXT
  8
0
  6
CONTINUOUS
 62
2
 10
403.692370
 20
574.751238
 40
3.000000
  1
4
 50
0.000000
 41
1.000000
 51
0.000000
  7
STANDARD
  0
TEXT
  8
0
  6
CONTINUOUS
 62
2
 10
505.761611
 20
574.628257
 40
3.000000
  1
5
 50
0.000000
 41
1.000000
 51
0.000000
  7
STANDARD
  0
TEXT
  8
0
  6
CONTINUOUS
 62
2
 10
607.243575
 20
575.166148
 40
3.000000
  1
6
 50
0.000000
 41
1.000000
 51
0.000000
  7
STANDARD
  0
TEXT
  8
0
  6
CONTINUOUS
 62
2
 10
708.456940
 20
573.963183
 40
3.000000
  1
7
 50
0.000000
 41
1.000000
 51
0.000000
  7
STANDARD
  0
LINE
  8
0
  6
CONTINUOUS
 62
3
 10
405.448208
 20
570.293588
 11
405.448208
 21
565.293588
  0
LINE
  8
0
  6
CONTINUOUS
 62
1
 10
810.896415
 20
285.293588
 11
813.896415
 21
285.293588
  0
LINE
  8
0
  6
CONTINUOUS
 62
1
 10
810.896415
 20
427.793588
 11
813.896415
 21
427.793588
  0
LINE
  8
0
  6
CONTINUOUS
 62
1
 10
810.896415
 20
142.793588
 11
813.896415
 21
142.793588
  0
LINE
  8
0
  6
CONTINUOUS
 62
1
 10
810.896415
 20
499.043588
 11
813.896415
 21
499.043588
  0
LINE
  8
0
  6
CONTINUOUS
 62
1
 10
810.896415
 20
356.543588
 11
813.896415
 21
356.543588
  0
LINE
  8
0
  6
CONTINUOUS
 62
1
 10
810.896415
 20
214.043588
 11
813.896415
 21
214.043588
  0
LINE
  8
0
  6
CONTINUOUS
 62
1
 10
810.896415
 20
71.543588
 11
813.896415
 21
71.543588
  0
TEXT
  8
0
  6
CONTINUOUS
 62
2
 10
814.731259
 20
497.682453
 40
3.000000
  1
A
 50
0.000000
 41
1.000000
 51
0.000000
  7
STANDARD
  0
TEXT
  8
0
  6
CONTINUOUS
 62
2
 10
814.617524
 20
426.633648
 40
3.000000
  1
B
 50
0.000000
 41
1.000000
 51
0.000000
  7
STANDARD
  0
TEXT
  8
0
  6
CONTINUOUS
 62
2
 10
815.378220
 20
355.128239
 40
3.000000
  1
C
 50
0.000000
 41
1.000000
 51
0.000000
  7
STANDARD
  0
TEXT
  8
0
  6
CONTINUOUS
 62
2
 10
815.265962
 20
284.354684
 40
3.000000
  1
D
 50
0.000000
 41
1.000000
 51
0.000000
  7
STANDARD
  0
TEXT
  8
0
  6
CONTINUOUS
 62
2
 10
815.477184
 20
212.961533
 40
3.000000
  1
E
 50
0.000000
 41
1.000000
 51
0.000000
  7
STANDARD
  0
TEXT
  8
0
  6
CONTINUOUS
 62
2
 10
814.828747
 20
141.734274
 40
3.000000
  1
F
 50
0.000000
 41
1.000000
 51
0.000000
  7
STANDARD
  0
TEXT
  8
0
  6
CONTINUOUS
 62
2
 10
815.320614
 20
69.921633
 40
3.000000
  1
G
 50
0.000000
 41
1.000000
 51
0.000000
  7
STANDARD
  0
LINE
  8
0
  6
CONTINUOUS
 62
3
 10
810.896415
 20
285.293588
 11
807.896415
 21
285.293588
  0
LINE
  8
0
  6
CONTINUOUS
 62
1
 10
578.313470
 20
19.293588
 11
578.313470
 21
0.000000
  0
LINE
  8
0
  6
CONTINUOUS
 62
1
 10
284.611031
 20
19.293588
 11
284.611031
 21
0.293588
  0
LINE
  8
0
  6
CONTINUOUS
 62
1
 10
810.896415
 20
563.293588
 11
653.667813
 21
563.293588
  0
LINE
  8
0
  6
CONTINUOUS
 62
1
 10
107.451868
 20
563.293588
 11
0.000000
 21
563.293588
  0
LINE
  8
0
  6
CONTINUOUS
 62
1
 10
0.000000
 20
19.293588
 11
623.352368
 21
19.293588
  0
TEXT
  8
0
  6
CONTINUOUS
 62
2
 10
46.453288
 20
10.796613
 40
3.105000
  1
1998 - THIS DESIGN/DRAWING IS THE PROPERTY OF MONO EQUIPMENT AND MUST NOT BE
 50
0.000000
 41
1.000000
 51
0.000000
  7
STANDARD
  0
TEXT
  8
0
  6
CONTINUOUS
 62
2
 10
41.107749
 20
4.310541
 40
3.105000
  1
REPRODUCED, COPIED, OR ITS CONTENTS DIVULGED WITHOUT PRIOR WRITTEN PERMISSION.
 50
0.000000
 41
1.000000
 51
0.000000
  7
STANDARD
  0
CIRCLE
  8
0
  6
CONTINUOUS
 62
3
 10
42.276047
 20
14.388236
 40
2.173500
  0
TEXT
  8
0
  6
CONTINUOUS
 62
2
 10
16.991737
 20
10.697820
 40
3.105000
  1
COPYRIGHT
 50
0.000000
 41
1.000000
 51
0.000000
  7
STANDARD
  0
TEXT
  8
0
  6
CONTINUOUS
 62
2
 10
41.713660
 20
13.712616
 40
1.630125
  1
C
 50
0.000000
 41
1.000000
 51
0.000000
  7
STANDARD
  0
TEXT
  8
0
  6
CONTINUOUS
 62
3
 10
286.872128
 20
14.527338
 40
3.003000
  1
REMOVE ALL BURRS & SHARP EDGES - ON SHEET METAL PARTS
 50
0.000000
 41
1.000000
 51
0.000000
  7
STANDARD
  0
LINE
  8
0
  6
CONTINUOUS
 62
1
 10
578.313470
 20
13.293588
 11
284.611031
 21
13.293588
  0
LINE
  8
0
  6
CONTINUOUS
 62
1
 10
284.611031
 20
6.293588
 11
578.313470
 21
6.293588
  0
TEXT
  8
0
  6
CONTINUOUS
 62
3
 10
292.717676
 20
1.450699
 40
3.003000
  1
OPEN TOL,150 & BELOW -.5,OVER 150 -1.0
 50
0.000000
 41
1.000000
 51
0.000000
  7
STANDARD
  0
TEXT
  8
0
  6
CONTINUOUS
 62
3
 10
343.153184
 20
2.995429
 40
3.003000
  1
+
 50
0.000000
 41
1.000000
 51
0.000000
  7
STANDARD
  0
TEXT
  8
0
  6
CONTINUOUS
 62
3
 10
374.360063
 20
3.082114
 40
3.003000
  1
+
 50
0.000000
 41
1.000000
 51
0.000000
  7
STANDARD
  0
TEXT
  8
0
  6
CONTINUOUS
 62
3
 10
396.025848
 20
1.552562
 40
3.003000
  1
DECIMAL DIMs,75 & BELOW -.25, 75 TO 300-.4, 300 TO 600-.5, OVER 600-1.0
 50
0.000000
 41
1.000000
 51
0.000000
  7
STANDARD
  0
TEXT
  8
0
  6
CONTINUOUS
 62
3
 10
453.503115
 20
3.046556
 40
3.003000
  1
+
 50
0.000000
 41
1.000000
 51
0.000000
  7
STANDARD
  0
TEXT
  8
0
  6
CONTINUOUS
 62
3
 10
489.694740
 20
3.046556
 40
3.003000
  1
+
 50
0.000000
 41
1.000000
 51
0.000000
  7
STANDARD
  0
TEXT
  8
0
  6
CONTINUOUS
 62
3
 10
525.686413
 20
3.046556
 40
3.003000
  1
+
 50
0.000000
 41
1.000000
 51
0.000000
  7
STANDARD
  0
TEXT
  8
0
  6
CONTINUOUS
 62
3
 10
557.079149
 20
3.046556
 40
3.003000
  1
+
 50
0.000000
 41
1.000000
 51
0.000000
  7
STANDARD
  0
TEXT
  8
0
  6
CONTINUOUS
 62
3
 10
298.372755
 20
8.027002
 40
3.003000
  1
SURFACE MACHINING,         COARSE FINISH,          MEDIUM FINISH
 50
0.000000
 41
1.000000
 51
0.000000
  7
STANDARD
  0
LINE
  8
0
  6
CONTINUOUS
 62
3
 10
358.454200
 20
7.938625
 11
357.376430
 21
9.477839
  0
LINE
  8
0
  6
CONTINUOUS
 62
3
 10
355.061002
 20
7.938625
 11
361.601409
 21
7.938625
  0
LINE
  8
0
  6
CONTINUOUS
 62
3
 10
355.461530
 20
7.938625
 11
356.552531
 21
6.847623
  0
LINE
  8
0
  6
CONTINUOUS
 62
3
 10
358.675973
 20
6.847623
 11
357.584972
 21
7.938625
  0
LINE
  8
0
  6
CONTINUOUS
 62
3
 10
359.708413
 20
7.938625
 11
360.799415
 21
6.847623
  0
LINE
  8
0
  6
CONTINUOUS
 62
3
 10
357.376430
 20
9.477839
 11
359.531969
 21
9.477839
  0
TEXT
  8
0
  6
CONTINUOUS
 62
3
 10
355.059729
 20
10.350713
 40
1.911000
  1
3.2
 50
0.000000
 41
1.000000
 51
0.000000
  7
STANDARD
  0
LINE
  8
0
  6
CONTINUOUS
 62
3
 10
361.472631
 20
12.249391
 11
358.454200
 21
7.938625
  0
LINE
  8
0
  6
CONTINUOUS
 62
3
 10
415.064989
 20
7.939383
 11
413.987220
 21
9.478597
  0
LINE
  8
0
  6
CONTINUOUS
 62
3
 10
411.671791
 20
7.939383
 11
418.212199
 21
7.939383
  0
LINE
  8
0
  6
CONTINUOUS
 62
3
 10
412.072320
 20
7.939383
 11
413.163321
 21
6.848381
  0
LINE
  8
0
  6
CONTINUOUS
 62
3
 10
415.286763
 20
6.848381
 11
414.195761
 21
7.939383
  0
LINE
  8
0
  6
CONTINUOUS
 62
3
 10
416.319203
 20
7.939383
 11
417.410204
 21
6.848381
  0
LINE
  8
0
  6
CONTINUOUS
 62
3
 10
413.987220
 20
9.478597
 11
416.142758
 21
9.478597
  0
TEXT
  8
0
  6
CONTINUOUS
 62
3
 10
411.670519
 20
10.351471
 40
1.911000
  1
1.6
 50
0.000000
 41
1.000000
 51
0.000000
  7
STANDARD
  0
LINE
  8
0
  6
CONTINUOUS
 62
3
 10
418.083420
 20
12.250149
 11
415.064989
 21
7.939383
  0
TEXT
  8
0
  6
CONTINUOUS
 62
3
 10
471.656054
 20
7.835044
 40
3.003000
  1
FINE FINISH,          GROUND FINISH
 50
0.000000
 41
1.000000
 51
0.000000
  7
STANDARD
  0
LINE
  8
0
  6
CONTINUOUS
 62
3
 10
520.028258
 20
7.857540
 11
518.950489
 21
9.396754
  0
LINE
  8
0
  6
CONTINUOUS
 62
3
 10
516.635060
 20
7.857540
 11
523.175468
 21
7.857540
  0
LINE
  8
0
  6
CONTINUOUS
 62
3
 10
517.035588
 20
7.857540
 11
518.126590
 21
6.766538
  0
LINE
  8
0
  6
CONTINUOUS
 62
3
 10
520.250032
 20
6.766538
 11
519.159030
 21
7.857540
  0
LINE
  8
0
  6
CONTINUOUS
 62
3
 10
521.282472
 20
7.857540
 11
522.373473
 21
6.766538
  0
LINE
  8
0
  6
CONTINUOUS
 62
3
 10
518.950489
 20
9.396754
 11
521.106027
 21
9.396754
  0
TEXT
  8
0
  6
CONTINUOUS
 62
3
 10
516.633788
 20
10.269628
 40
1.911000
  1
0.4
 50
0.000000
 41
1.000000
 51
0.000000
  7
STANDARD
  0
LINE
  8
0
  6
CONTINUOUS
 62
3
 10
523.046689
 20
12.168306
 11
520.028258
 21
7.857540
  0
LINE
  8
0
  6
CONTINUOUS
 62
3
 10
466.978169
 20
7.991505
 11
465.900400
 21
9.530719
  0
LINE
  8
0
  6
CONTINUOUS
 62
3
 10
463.584971
 20
7.991505
 11
470.125378
 21
7.991505
  0
LINE
  8
0
  6
CONTINUOUS
 62
3
 10
463.985499
 20
7.991505
 11
465.076501
 21
6.900503
  0
LINE
  8
0
  6
CONTINUOUS
 62
3
 10
467.199942
 20
6.900503
 11
466.108941
 21
7.991505
  0
LINE
  8
0
  6
CONTINUOUS
 62
3
 10
468.232382
 20
7.991505
 11
469.323384
 21
6.900503
  0
LINE
  8
0
  6
CONTINUOUS
 62
3
 10
465.900400
 20
9.530719
 11
468.055938
 21
9.530719
  0
TEXT
  8
0
  6
CONTINUOUS
 62
3
 10
463.583698
 20
10.403593
 40
1.911000
  1
0.8
 50
0.000000
 41
1.000000
 51
0.000000
  7
STANDARD
  0
LINE
  8
0
  6
CONTINUOUS
 62
3
 10
469.996600
 20
12.302271
 11
466.978169
 21
7.991505
  0
TEXT
  8
0
  6
CONTINUOUS
 62
3
 10
417.615816
 20
14.532113
 40
3.003000
  1
EXTERNAL CORNERS TO BE SAFETY RADIUSED 2mm UNLESS STATED OTHERWISE
 50
0.000000
 41
1.000000
 51
0.000000
  7
STANDARD
  0
TEXT
  8
0
  6
CONTINUOUS
 62
3
 10
656.297578
 20
564.567124
 40
4.000000
  1
ALL DIMENSIONS IN mm UNLESS OTHERWISE STATED
 50
0.000000
 41
1.000000
 51
0.000000
  7
STANDARD
  0
LINE
  8
0
  6
CONTINUOUS
 62
1
 10
653.667813
 20
570.293588
 11
653.667813
 21
563.293588
  0
LINE
  8
0
  6
CONTINUOUS
 62
1
 10
107.451868
 20
570.293588
 11
107.451868
 21
563.293588
  0
TEXT
  8
0
  6
CONTINUOUS
 62
3
 10
3.972877
 20
564.871493
 40
4.000000
  1
DO NOT SCALE - IF IN DOUBT ASK !
 50
0.000000
 41
1.000000
 51
0.000000
  7
STANDARD
  0
LINE
  8
0
  6
CONTINUOUS
 62
1
 10
587.525727
 20
13.926050
 11
596.525727
 21
16.337592
  0
LINE
  8
0
  6
CONTINUOUS
 62
1
 10
587.525727
 20
10.249192
 11
596.525727
 21
7.837650
  0
LINE
  8
0
  6
CONTINUOUS
 62
1
 10
587.525727
 20
10.249192
 11
587.525727
 21
13.926050
  0
LINE
  8
0
  6
CONTINUOUS
 62
1
 10
596.525727
 20
16.337592
 11
596.525727
 21
7.837650
  0
CIRCLE
  8
0
  6
CONTINUOUS
 62
1
 10
607.775727
 20
12.087621
 40
4.500000
  0
CIRCLE
  8
0
  6
CONTINUOUS
 62
1
 10
607.775727
 20
12.087621
 40
1.838429
  0
LINE
  8
0
  6
CENTER
 62
3
 10
585.650727
 20
12.087621
 11
598.400727
 21
12.087621
  0
LINE
  8
0
  6
CENTER
 62
3
 10
602.150727
 20
12.087621
 11
613.400727
 21
12.087621
  0
LINE
  8
0
  6
CENTER
 62
3
 10
607.775727
 20
6.462621
 11
607.775727
 21
17.712621
  0
TEXT
  8
0
  6
CONTINUOUS
 62
3
 10
592.291645
 20
1.750190
 40
2.500000
  1
1st ANGLE
 50
0.000000
 41
1.000000
 51
0.000000
  7
STANDARD
  0
LINE
  8
0
  6
CONTINUOUS
 62
1
 10
623.352368
 20
0.293588
 11
623.352368
 21
62.274256
  0
LINE
  8
0
  6
CONTINUOUS
 62
1
 10
623.352368
 20
0.293588
 11
810.896415
 21
0.293588
  0
LINE
  8
0
  6
CONTINUOUS
 62
1
 10
727.208958
 20
33.293588
 11
727.208958
 21
0.293588
  0
TEXT
  8
0
  6
CONTINUOUS
 62
3
 10
727.766174
 20
10.487504
 40
2.500000
  1
DRAWING NO.
 50
0.000000
 41
1.000000
 51
0.000000
  7
STANDARD
  0
TEXT
  8
0
  6
CONTINUOUS
 62
3
 10
800.510911
 20
10.225253
 40
2.500000
  1
REV:
 50
0.000000
 41
1.000000
 51
0.000000
  7
STANDARD
  0
LINE
  8
0
  6
CONTINUOUS
 62
1
 10
798.482467
 20
14.293588
 11
798.482467
 21
0.293588
  0
LINE
  8
0
  6
CONTINUOUS
 62
1
 10
633.753828
 20
71.698567
 11
633.753828
 21
62.274256
  0
LINE
  8
0
  6
CONTINUOUS
 62
1
 10
791.352368
 20
62.274256
 11
727.208958
 21
62.274256
  0
LINE
  8
0
  6
CONTINUOUS
 62
1
 10
810.896415
 20
62.274256
 11
623.352368
 21
62.274256
  0
LINE
  8
0
  6
CONTINUOUS
 62
1
 10
633.753828
 20
77.604799
 11
633.753828
 21
62.274256
  0
LINE
  8
0
  6
CONTINUOUS
 62
1
 10
623.352368
 20
69.274256
 11
810.896415
 21
69.274256
  0
LINE
  8
0
  6
CONTINUOUS
 62
1
 10
793.896415
 20
69.274256
 11
793.896415
 21
62.274256
  0
LINE
  8
0
  6
CONTINUOUS
 62
1
 10
623.352368
 20
62.274256
 11
623.352368
 21
77.604799
  0
TEXT
  8
0
  6
CONTINUOUS
 62
3
 10
718.950436
 20
64.569995
 40
2.500000
  1
REVISION
 50
0.000000
 41
1.000000
 51
0.000000
  7
STANDARD
  0
TEXT
  8
0
  6
CONTINUOUS
 62
3
 10
795.462895
 20
64.646654
 40
2.500000
  1
ECN NO.
 50
0.000000
 41
1.000000
 51
0.000000
  7
STANDARD
  0
LINE
  8
0
  6
CONTINUOUS
 62
1
 10
764.317856
 20
14.293588
 11
764.317856
 21
33.293588
  0
LINE
  8
0
  6
CONTINUOUS
 62
1
 10
623.352368
 20
14.293588
 11
623.352368
 21
0.293588
  0
LINE
  8
0
  6
CONTINUOUS
 62
1
 10
623.352368
 20
16.727379
 11
623.352368
 21
2.727379
  0
LINE
  8
0
  6
CONTINUOUS
 62
1
 10
646.753828
 20
77.604799
 11
646.753828
 21
62.274256
  0
LINE
  8
0
  6
CONTINUOUS
 62
1
 10
670.486609
 20
77.604799
 11
670.486609
 21
62.274256
  0
TEXT
  8
0
  6
CONTINUOUS
 62
3
 10
636.962453
 20
64.332177
 40
2.500000
  1
SIG
 50
0.000000
 41
1.000000
 51
0.000000
  7
STANDARD
  0
TEXT
  8
0
  6
CONTINUOUS
 62
3
 10
624.865220
 20
64.110210
 40
2.500000
  1
REV
 50
0.000000
 41
1.000000
 51
0.000000
  7
STANDARD
  0
TEXT
  8
0
  6
CONTINUOUS
 62
3
 10
653.166086
 20
64.110210
 40
2.500000
  1
DATE
 50
0.000000
 41
1.000000
 51
0.000000
  7
STANDARD
  0
LINE
  8
0
  6
CONTINUOUS
 62
1
 10
810.896415
 20
14.293588
 11
727.208958
 21
14.293588
  0
LINE
  8
0
  6
CONTINUOUS
 62
1
 10
810.896415
 20
0.293588
 11
810.896415
 21
570.293588
  0
LINE
  8
0
  6
CONTINUOUS
 62
1
 10
700.168430
 20
0.293588
 11
700.168430
 21
62.274256
  0
LINE
  8
0
  6
CONTINUOUS
 62
1
 10
810.896415
 20
33.293588
 11
700.168430
 21
33.293588
  0
LINE
  8
0
  6
CONTINUOUS
 62
1
 10
700.168430
 20
22.293588
 11
727.208958
 21
22.293588
  0
LINE
  8
0
  6
CONTINUOUS
 62
1
 10
727.208958
 20
11.293588
 11
700.168430
 21
11.293588
  0
TEXT
  8
0
  6
CONTINUOUS
 62
3
 10
701.350188
 20
29.612613
 40
2.500000
  1
DRAWN:
 50
0.000000
 41
1.000000
 51
0.000000
  7
STANDARD
  0
TEXT
  8
0
  6
CONTINUOUS
 62
3
 10
701.350188
 20
18.637009
 40
2.500000
  1
DATE:
 50
0.000000
 41
1.000000
 51
0.000000
  7
STANDARD
  0
TEXT
  8
0
  6
CONTINUOUS
 62
3
 10
701.111588
 20
7.661404
 40
2.500000
  1
SCALE:
 50
0.000000
 41
1.000000
 51
0.000000
  7
STANDARD
  0
TEXT
  8
0
  6
CONTINUOUS
 62
2
 10
772.768519
 20
28.719478
 40
2.500000
  1
WORKS ORDER NO.
 50
0.000000
 41
1.000000
 51
0.000000
  7
STANDARD
  0
TEXT
  8
0
  6
CONTINUOUS
 62
2
 10
728.589229
 20
28.541629
 40
2.500000
  1
PURCHASE ORDER NO.
 50
0.000000
 41
1.000000
 51
0.000000
  7
STANDARD
  0
LINE
  8
0
  6
CONTINUOUS
 62
1
 10
700.168430
 20
33.293588
 11
623.352368
 21
33.293588
  0
LINE
  8
0
  6
CONTINUOUS
 62
1
 10
700.168430
 20
22.293588
 11
623.352368
 21
22.293588
  0
LINE
  8
0
  6
CONTINUOUS
 62
1
 10
700.168430
 20
11.293588
 11
623.352368
 21
11.293588
  0
TEXT
  8
0
  6
CONTINUOUS
 62
3
 10
624.026517
 20
29.753879
 40
2.500000
  1
MAT'L:
 50
0.000000
 41
1.000000
 51
0.000000
  7
STANDARD
  0
LINE
  8
0
  6
CONTINUOUS
 62
1
 10
661.760399
 20
11.293588
 11
661.760399
 21
22.293588
  0
TEXT
  8
0
  6
CONTINUOUS
 62
3
 10
623.981266
 20
19.055406
 40
2.500000
  1
MAT'L
 50
0.000000
 41
1.000000
 51
0.000000
  7
STANDARD
  0
TEXT
  8
0
  6
CONTINUOUS
 62
3
 10
624.092805
 20
15.374627
 40
2.500000
  1
QTY:
 50
0.000000
 41
1.000000
 51
0.000000
  7
STANDARD
  0
TEXT
  8
0
  6
CONTINUOUS
 62
3
 10
662.350599
 20
15.263088
 40
2.500000
  1
REQ:
 50
0.000000
 41
1.000000
 51
0.000000
  7
STANDARD
  0
TEXT
  8
0
  6
CONTINUOUS
 62
3
 10
662.573677
 20
18.832329
 40
2.500000
  1
NO.
 50
0.000000
 41
1.000000
 51
0.000000
  7
STANDARD
  0
TEXT
  8
0
  6
CONTINUOUS
 62
3
 10
623.981266
 20
7.678453
 40
2.500000
  1
FINISH:
 50
0.000000
 41
1.000000
 51
0.000000
  7
STANDARD
  0
TEXT
  8
0
  6
CONTINUOUS
 62
4
 10
651.498402
 20
48.650078
 40
2.475000
  1
SWANSEA WEST IND PARK
 50
0.000000
 41
1.000000
 51
0.000000
  7
STANDARD
  0
TEXT
  8
0
  6
CONTINUOUS
 62
4
 10
651.517078
 20
44.988659
 40
2.475000
  1
SWANSEA.
 50
0.000000
 41
1.000000
 51
0.000000
  7
STANDARD
  0
TEXT
  8
0
  6
CONTINUOUS
 62
4
 10
651.481443
 20
38.080873
 40
2.300000
  1
TEL: (01792) 561234
 50
0.000000
 41
1.000000
 51
0.000000
  7
STANDARD
  0
TEXT
  8
0
  6
CONTINUOUS
 62
4
 10
651.498402
 20
34.324330
 40
2.300000
  1
FAX: (01792) 561016
 50
0.000000
 41
1.000000
 51
0.000000
  7
STANDARD
  0
TEXT
  8
0
  6
CONTINUOUS
 62
5
 10
651.490386
 20
56.703235
 40
3.000000
  1
MONO EQUIPMENT
 50
0.000000
 41
1.000000
 51
0.000000
  7
STANDARD
  0
TEXT
  8
0
  6
CONTINUOUS
 62
4
 10
651.517078
 20
52.286738
 40
2.475000
  1
QUEENSWAY
 50
0.000000
 41
1.000000
 51
0.000000
  7
STANDARD
  0
TEXT
  8
0
  6
CONTINUOUS
 62
3
 10
701.350188
 20
58.593282
 40
2.500000
  1
TITLE:
 50
0.000000
 41
1.000000
 51
0.000000
  7
STANDARD
  0
TEXT
  8
0
  6
CONTINUOUS
 62
3
 10
681.570971
 20
7.556337
 40
2.500000
  1
DRAWING
 50
0.000000
 41
1.000000
 51
0.000000
  7
STANDARD
  0
TEXT
  8
0
  6
CONTINUOUS
 62
3
 10
681.570971
 20
2.802509
 40
2.500000
  1
SIZE
 50
0.000000
 41
1.000000
 51
0.000000
  7
STANDARD
  0
TEXT
  8
0
  6
CONTINUOUS
 62
3
 10
691.816292
 20
2.802509
 40
3.250000
  1
A1
 50
0.000000
 41
1.000000
 51
0.000000
  7
STANDARD
  0
LINE
  8
0
  6
CONTINUOUS
 62
1
 10
680.669383
 20
0.293588
 11
680.669383
 21
11.293588
  0
TEXT
  8
0
  6
CONTINUOUS
 62
4
 10
651.498402
 20
41.547751
 40
2.475000
  1
SA5 4EB.
 50
0.000000
 41
1.000000
 51
0.000000
  7
STANDARD
  0
INSERT
  2
MONO-LOGO
  8
0
 10
637.541247
 20
48.776781
 41
0.500000
 42
0.500000
 50
0.000000
  0
ENDBLK
  0
BLOCK
  2
MONO-LOGO
  8
0
 70
0
 10
0.0
 20
0.0
 30
0.0
  0
LINE
  8
0
  6
CONTINUOUS
 62
2
 10
-19.875000
 20
-11.812500
 11
19.875000
 21
-11.812500
  0
LINE
  8
0
  6
CONTINUOUS
 62
2
 10
19.875000
 20
-11.812500
 11
19.875000
 21
-9.562500
  0
LINE
  8
0
  6
CONTINUOUS
 62
2
 10
-19.875000
 20
-9.562500
 11
-19.875000
 21
-11.812500
  0
LINE
  8
0
  6
CONTINUOUS
 62
2
 10
-19.875000
 20
-9.562500
 11
-19.875000
 21
-0.562500
  0
LINE
  8
0
  6
CONTINUOUS
 62
2
 10
19.875000
 20
-4.312500
 11
19.875000
 21
-5.812500
  0
LINE
  8
0
  6
CONTINUOUS
 62
2
 10
-19.875000
 20
1.687500
 11
19.875000
 21
1.687500
  0
LINE
  8
0
  6
CONTINUOUS
 62
2
 10
19.875000
 20
1.687500
 11
19.875000
 21
3.562500
  0
LINE
  8
0
  6
CONTINUOUS
 62
2
 10
19.875000
 20
3.562500
 11
-19.875000
 21
3.562500
  0
LINE
  8
0
  6
CONTINUOUS
 62
2
 10
-19.875000
 20
3.562500
 11
-19.875000
 21
1.687500
  0
LINE
  8
0
  6
CONTINUOUS
 62
2
 10
-19.875000
 20
5.812500
 11
19.875000
 21
5.812500
  0
LINE
  8
0
  6
CONTINUOUS
 62
2
 10
19.875000
 20
5.812500
 11
19.875000
 21
7.312500
  0
LINE
  8
0
  6
CONTINUOUS
 62
2
 10
19.875000
 20
7.312500
 11
-19.875000
 21
7.312500
  0
LINE
  8
0
  6
CONTINUOUS
 62
2
 10
-19.875000
 20
7.312500
 11
-19.875000
 21
5.812500
  0
LINE
  8
0
  6
CONTINUOUS
 62
2
 10
-19.875000
 20
9.562500
 11
19.875000
 21
9.562500
  0
LINE
  8
0
  6
CONTINUOUS
 62
2
 10
19.875000
 20
9.562500
 11
19.875000
 21
10.687500
  0
LINE
  8
0
  6
CONTINUOUS
 62
2
 10
19.875000
 20
10.687500
 11
-19.875000
 21
10.687500
  0
LINE
  8
0
  6
CONTINUOUS
 62
2
 10
-19.875000
 20
10.687500
 11
-19.875000
 21
9.562500
  0
LINE
  8
0
  6
CONTINUOUS
 62
2
 10
-19.875000
 20
12.937500
 11
19.875000
 21
12.937500
  0
LINE
  8
0
  6
CONTINUOUS
 62
2
 10
19.875000
 20
12.937500
 11
19.875000
 21
13.687500
  0
LINE
  8
0
  6
CONTINUOUS
 62
2
 10
19.875000
 20
13.687500
 11
-19.875000
 21
13.687500
  0
LINE
  8
0
  6
CONTINUOUS
 62
2
 10
-19.875000
 20
13.687500
 11
-19.875000
 21
12.937500
  0
LINE
  8
0
  6
CONTINUOUS
 62
2
 10
-19.875000
 20
15.937500
 11
19.875000
 21
15.937500
  0
LINE
  8
0
  6
CONTINUOUS
 62
2
 10
19.875000
 20
15.937500
 11
19.875000
 21
16.312500
  0
LINE
  8
0
  6
CONTINUOUS
 62
2
 10
19.875000
 20
16.312500
 11
-19.875000
 21
16.312500
  0
LINE
  8
0
  6
CONTINUOUS
 62
2
 10
-19.875000
 20
16.312500
 11
-19.875000
 21
15.937500
  0
LINE
  8
0
  6
CONTINUOUS
 62
2
 10
-10.125000
 20
-0.562500
 11
-10.125000
 21
-9.562500
  0
LINE
  8
0
  6
CONTINUOUS
 62
2
 10
10.125000
 20
-5.812500
 11
10.125000
 21
-4.312500
  0
LINE
  8
0
  6
CONTINUOUS
 62
2
 10
17.250000
 20
-5.437500
 11
17.250000
 21
-4.687500
  0
LINE
  8
0
  6
CONTINUOUS
 62
2
 10
12.750000
 20
-4.687500
 11
12.750000
 21
-5.437500
  0
ARC
  8
0
  6
CONTINUOUS
 62
2
 10
15.000000
 20
-4.687500
 40
2.250000
 50
0.000000
 51
90.000000
  0
ARC
  8
0
  6
CONTINUOUS
 62
2
 10
15.000000
 20
-4.687500
 40
2.250000
 50
90.000000
 51
180.000000
  0
ARC
  8
0
  6
CONTINUOUS
 62
2
 10
15.000000
 20
-5.437500
 40
2.250000
 50
180.000000
 51
270.000000
  0
ARC
  8
0
  6
CONTINUOUS
 62
2
 10
15.000000
 20
-5.437500
 40
2.250000
 50
270.000000
 51
0.000000
  0
LINE
  8
0
  6
CONTINUOUS
 62
2
 10
13.875000
 20
-0.562500
 11
16.125000
 21
-0.562500
  0
ARC
  8
0
  6
CONTINUOUS
 62
2
 10
16.125000
 20
-4.312500
 40
3.750000
 50
0.000000
 51
90.000000
  0
ARC
  8
0
  6
CONTINUOUS
 62
2
 10
16.125000
 20
-5.812500
 40
3.750000
 50
270.000000
 51
0.000000
  0
ARC
  8
0
  6
CONTINUOUS
 62
2
 10
13.875000
 20
-5.812500
 40
3.750000
 50
180.000000
 51
270.000000
  0
ARC
  8
0
  6
CONTINUOUS
 62
2
 10
13.875000
 20
-4.312500
 40
3.750000
 50
90.000000
 51
180.000000
  0
LINE
  8
0
  6
CONTINUOUS
 62
2
 10
0.208130
 20
-4.293740
 11
0.208130
 21
-5.793740
  0
LINE
  8
0
  6
CONTINUOUS
 62
2
 10
-9.541870
 20
-5.793740
 11
-9.541870
 21
-4.293740
  0
LINE
  8
0
  6
CONTINUOUS
 62
2
 10
-2.416870
 20
-5.418740
 11
-2.416870
 21
-4.668740
  0
LINE
  8
0
  6
CONTINUOUS
 62
2
 10
-6.916870
 20
-4.668740
 11
-6.916870
 21
-5.418740
  0
ARC
  8
0
  6
CONTINUOUS
 62
2
 10
-4.666870
 20
-4.668740
 40
2.250000
 50
0.000000
 51
90.000000
  0
ARC
  8
0
  6
CONTINUOUS
 62
2
 10
-4.666870
 20
-4.668740
 40
2.250000
 50
90.000000
 51
180.000000
  0
ARC
  8
0
  6
CONTINUOUS
 62
2
 10
-4.666870
 20
-5.418740
 40
2.250000
 50
180.000000
 51
270.000000
  0
ARC
  8
0
  6
CONTINUOUS
 62
2
 10
-4.666870
 20
-5.418740
 40
2.250000
 50
270.000000
 51
0.000000
  0
LINE
  8
0
  6
CONTINUOUS
 62
2
 10
-5.791870
 20
-0.543740
 11
-3.541870
 21
-0.543740
  0
ARC
  8
0
  6
CONTINUOUS
 62
2
 10
-3.541870
 20
-4.293740
 40
3.750000
 50
0.000000
 51
90.000000
  0
ARC
  8
0
  6
CONTINUOUS
 62
2
 10
-3.541870
 20
-5.793740
 40
3.750000
 50
270.000000
 51
0.000000
  0
ARC
  8
0
  6
CONTINUOUS
 62
2
 10
-5.791870
 20
-5.793740
 40
3.750000
 50
180.000000
 51
270.000000
  0
LINE
  8
0
  6
CONTINUOUS
 62
2
 10
0.900000
 20
-0.562500
 11
0.900000
 21
-9.562500
  0
LINE
  8
0
  6
CONTINUOUS
 62
2
 10
9.525000
 20
-9.562500
 11
9.525000
 21
-0.562500
  0
LINE
  8
0
  6
CONTINUOUS
 62
2
 10
-17.625000
 20
-3.937500
 11
-17.625000
 21
-9.562500
  0
LINE
  8
0
  6
CONTINUOUS
 62
2
 10
-17.625000
 20
-3.937500
 11
-15.750000
 21
-9.562500
  0
LINE
  8
0
  6
CONTINUOUS
 62
2
 10
-12.375000
 20
-9.562500
 11
-12.375000
 21
-3.937500
  0
LINE
  8
0
  6
CONTINUOUS
 62
2
 10
-14.250000
 20
-9.562500
 11
-12.375000
 21
-3.937500
  0
LINE
  8
0
  6
CONTINUOUS
 62
2
 10
-13.875000
 20
-0.562500
 11
-15.000000
 21
-3.937500
  0
LINE
  8
0
  6
CONTINUOUS
 62
2
 10
-15.000000
 20
-3.937500
 11
-16.125000
 21
-0.562500
  0
LINE
  8
0
  6
CONTINUOUS
 62
2
 10
-10.125000
 20
-0.562500
 11
-13.875000
 21
-0.562500
  0
LINE
  8
0
  6
CONTINUOUS
 62
2
 10
-16.125000
 20
-0.562500
 11
-19.875000
 21
-0.562500
  0
LINE
  8
0
  6
CONTINUOUS
 62
2
 10
-15.750000
 20
-9.562500
 11
-17.625000
 21
-9.562500
  0
LINE
  8
0
  6
CONTINUOUS
 62
2
 10
19.875000
 20
-9.562500
 11
16.125000
 21
-9.562500
  0
LINE
  8
0
  6
CONTINUOUS
 62
2
 10
3.525000
 20
-9.562500
 11
3.525000
 21
-4.687500
  0
LINE
  8
0
  6
CONTINUOUS
 62
2
 10
6.900000
 20
-0.562500
 11
6.900000
 21
-5.437500
  0
LINE
  8
0
  6
CONTINUOUS
 62
2
 10
3.525000
 20
-0.562500
 11
6.900000
 21
-5.437500
  0
LINE
  8
0
  6
CONTINUOUS
 62
2
 10
6.900000
 20
-9.562500
 11
3.525000
 21
-4.687500
  0
LINE
  8
0
  6
CONTINUOUS
 62
2
 10
0.900000
 20
-0.562500
 11
3.525000
 21
-0.562500
  0
LINE
  8
0
  6
CONTINUOUS
 62
2
 10
6.900000
 20
-0.562500
 11
9.525000
 21
-0.562500
  0
LINE
  8
0
  6
CONTINUOUS
 62
2
 10
-3.541870
 20
-9.543740
 11
0.900000
 21
-9.562500
  0
LINE
  8
0
  6
CONTINUOUS
 62
2
 10
3.525000
 20
-9.562500
 11
6.900000
 21
-9.562500
  0
LINE
  8
0
  6
CONTINUOUS
 62
2
 10
9.525000
 20
-9.562500
 11
13.875000
 21
-9.562500
  0
LINE
  8
0
  6
CONTINUOUS
 62
2
 10
-5.791870
 20
-9.562500
 11
-10.125000
 21
-9.562500
  0
LINE
  8
0
  6
CONTINUOUS
 62
2
 10
-12.375000
 20
-9.562500
 11
-14.250000
 21
-9.562500
  0
ARC
  8
0
  6
CONTINUOUS
 62
2
 10
-5.791870
 20
-4.293740
 40
3.750000
 50
90.000000
 51
180.000000
  0
LINE
  8
0
  6
CONTINUOUS
 62
2
 10
-5.791870
 20
-9.543740
 11
-5.791870
 21
-9.562500
  0
LINE
  8
0
  6
CONTINUOUS
 62
2
 10
-19.875000
 20
-11.756886
 11
19.875000
 21
-11.756886
  0
LINE
  8
0
  6
CONTINUOUS
 62
2
 10
-19.875000
 20
-11.456886
 11
19.875000
 21
-11.456886
  0
LINE
  8
0
  6
CONTINUOUS
 62
2
 10
-19.875000
 20
-11.156886
 11
19.875000
 21
-11.156886
  0
LINE
  8
0
  6
CONTINUOUS
 62
2
 10
-19.875000
 20
-10.856886
 11
19.875000
 21
-10.856886
  0
LINE
  8
0
  6
CONTINUOUS
 62
2
 10
-19.875000
 20
-10.556886
 11
19.875000
 21
-10.556886
  0
LINE
  8
0
  6
CONTINUOUS
 62
2
 10
-19.875000
 20
-10.256886
 11
19.875000
 21
-10.256886
  0
LINE
  8
0
  6
CONTINUOUS
 62
2
 10
-19.875000
 20
-9.956886
 11
19.875000
 21
-9.956886
  0
LINE
  8
0
  6
CONTINUOUS
 62
2
 10
-19.875000
 20
-9.656886
 11
19.875000
 21
-9.656886
  0
LINE
  8
0
  6
CONTINUOUS
 62
2
 10
-19.875000
 20
-9.356886
 11
-17.625000
 21
-9.356886
  0
LINE
  8
0
  6
CONTINUOUS
 62
2
 10
-15.818538
 20
-9.356886
 11
-14.181462
 21
-9.356886
  0
LINE
  8
0
  6
CONTINUOUS
 62
2
 10
-12.375000
 20
-9.356886
 11
-10.125000
 21
-9.356886
  0
LINE
  8
0
  6
CONTINUOUS
 62
2
 10
-6.960842
 20
-9.356886
 11
-2.372899
 21
-9.356886
  0
LINE
  8
0
  6
CONTINUOUS
 62
2
 10
0.900000
 20
-9.356886
 11
3.525000
 21
-9.356886
  0
LINE
  8
0
  6
CONTINUOUS
 62
2
 10
6.757652
 20
-9.356886
 11
9.525000
 21
-9.356886
  0
LINE
  8
0
  6
CONTINUOUS
 62
2
 10
12.650325
 20
-9.356886
 11
17.349675
 21
-9.356886
  0
LINE
  8
0
  6
CONTINUOUS
 62
2
 10
-19.875000
 20
-9.056886
 11
-17.625000
 21
-9.056886
  0
LINE
  8
0
  6
CONTINUOUS
 62
2
 10
-15.918538
 20
-9.056886
 11
-14.081462
 21
-9.056886
  0
LINE
  8
0
  6
CONTINUOUS
 62
2
 10
-12.375000
 20
-9.056886
 11
-10.125000
 21
-9.056886
  0
LINE
  8
0
  6
CONTINUOUS
 62
2
 10
-7.639675
 20
-9.056886
 11
-1.694066
 21
-9.056886
  0
LINE
  8
0
  6
CONTINUOUS
 62
2
 10
0.900000
 20
-9.056886
 11
3.525000
 21
-9.056886
  0
LINE
  8
0
  6
CONTINUOUS
 62
2
 10
6.549959
 20
-9.056886
 11
9.525000
 21
-9.056886
  0
LINE
  8
0
  6
CONTINUOUS
 62
2
 10
11.994452
 20
-9.056886
 11
18.005548
 21
-9.056886
  0
LINE
  8
0
  6
CONTINUOUS
 62
2
 10
-19.875000
 20
-8.756886
 11
-17.625000
 21
-8.756886
  0
LINE
  8
0
  6
CONTINUOUS
 62
2
 10
-16.018538
 20
-8.756886
 11
-13.981462
 21
-8.756886
  0
LINE
  8
0
  6
CONTINUOUS
 62
2
 10
-12.375000
 20
-8.756886
 11
-10.125000
 21
-8.756886
  0
LINE
  8
0
  6
CONTINUOUS
 62
2
 10
-8.090189
 20
-8.756886
 11
-1.243552
 21
-8.756886
  0
LINE
  8
0
  6
CONTINUOUS
 62
2
 10
0.900000
 20
-8.756886
 11
3.525000
 21
-8.756886
  0
LINE
  8
0
  6
CONTINUOUS
 62
2
 10
6.342267
 20
-8.756886
 11
9.525000
 21
-8.756886
  0
LINE
  8
0
  6
CONTINUOUS
 62
2
 10
11.552697
 20
-8.756886
 11
18.447303
 21
-8.756886
  0
LINE
  8
0
  6
CONTINUOUS
 62
2
 10
-19.875000
 20
-8.456886
 11
-17.625000
 21
-8.456886
  0
LINE
  8
0
  6
CONTINUOUS
 62
2
 10
-16.118538
 20
-8.456886
 11
-13.881462
 21
-8.456886
  0
LINE
  8
0
  6
CONTINUOUS
 62
2
 10
-12.375000
 20
-8.456886
 11
-10.125000
 21
-8.456886
  0
LINE
  8
0
  6
CONTINUOUS
 62
2
 10
-8.431976
 20
-8.456886
 11
-0.901765
 21
-8.456886
  0
LINE
  8
0
  6
CONTINUOUS
 62
2
 10
0.900000
 20
-8.456886
 11
3.525000
 21
-8.456886
  0
LINE
  8
0
  6
CONTINUOUS
 62
2
 10
6.134575
 20
-8.456886
 11
9.525000
 21
-8.456886
  0
LINE
  8
0
  6
CONTINUOUS
 62
2
 10
11.216105
 20
-8.456886
 11
18.783895
 21
-8.456886
  0
LINE
  8
0
  6
CONTINUOUS
 62
2
 10
-19.875000
 20
-8.156886
 11
-17.625000
 21
-8.156886
  0
LINE
  8
0
  6
CONTINUOUS
 62
2
 10
-16.218538
 20
-8.156886
 11
-13.781462
 21
-8.156886
  0
LINE
  8
0
  6
CONTINUOUS
 62
2
 10
-12.375000
 20
-8.156886
 11
-10.125000
 21
-8.156886
  0
LINE
  8
0
  6
CONTINUOUS
 62
2
 10
-8.703578
 20
-8.156886
 11
-0.630162
 21
-8.156886
  0
LINE
  8
0
  6
CONTINUOUS
 62
2
 10
0.900000
 20
-8.156886
 11
3.525000
 21
-8.156886
  0
LINE
  8
0
  6
CONTINUOUS
 62
2
 10
5.926882
 20
-8.156886
 11
9.525000
 21
-8.156886
  0
LINE
  8
0
  6
CONTINUOUS
 62
2
 10
10.948166
 20
-8.156886
 11
19.051834
 21
-8.156886
  0
LINE
  8
0
  6
CONTINUOUS
 62
2
 10
-19.875000
 20
-7.856886
 11
-17.625000
 21
-7.856886
  0
LINE
  8
0
  6
CONTINUOUS
 62
2
 10
-16.318538
 20
-7.856886
 11
-13.681462
 21
-7.856886
  0
LINE
  8
0
  6
CONTINUOUS
 62
2
 10
-12.375000
 20
-7.856886
 11
-10.125000
 21
-7.856886
  0
LINE
  8
0
  6
CONTINUOUS
 62
2
 10
-8.923313
 20
-7.856886
 11
-0.410428
 21
-7.856886
  0
LINE
  8
0
  6
CONTINUOUS
 62
2
 10
0.900000
 20
-7.856886
 11
3.525000
 21
-7.856886
  0
LINE
  8
0
  6
CONTINUOUS
 62
2
 10
5.719190
 20
-7.856886
 11
9.525000
 21
-7.856886
  0
LINE
  8
0
  6
CONTINUOUS
 62
2
 10
10.731278
 20
-7.856886
 11
19.268722
 21
-7.856886
  0
LINE
  8
0
  6
CONTINUOUS
 62
2
 10
-19.875000
 20
-7.556886
 11
-17.625000
 21
-7.556886
  0
LINE
  8
0
  6
CONTINUOUS
 62
2
 10
-16.418538
 20
-7.556886
 11
-13.581462
 21
-7.556886
  0
LINE
  8
0
  6
CONTINUOUS
 62
2
 10
-12.375000
 20
-7.556886
 11
-10.125000
 21
-7.556886
  0
LINE
  8
0
  6
CONTINUOUS
 62
2
 10
-9.101526
 20
-7.556886
 11
-5.367466
 21
-7.556886
  0
LINE
  8
0
  6
CONTINUOUS
 62
2
 10
-3.966275
 20
-7.556886
 11
-0.232215
 21
-7.556886
  0
LINE
  8
0
  6
CONTINUOUS
 62
2
 10
0.900000
 20
-7.556886
 11
3.525000
 21
-7.556886
  0
LINE
  8
0
  6
CONTINUOUS
 62
2
 10
5.511498
 20
-7.556886
 11
9.525000
 21
-7.556886
  0
LINE
  8
0
  6
CONTINUOUS
 62
2
 10
10.555419
 20
-7.556886
 11
14.244551
 21
-7.556886
  0
LINE
  8
0
  6
CONTINUOUS
 62
2
 10
15.755449
 20
-7.556886
 11
19.444581
 21
-7.556886
  0
LINE
  8
0
  6
CONTINUOUS
 62
2
 10
-19.875000
 20
-7.256886
 11
-17.625000
 21
-7.256886
  0
LINE
  8
0
  6
CONTINUOUS
 62
2
 10
-16.518538
 20
-7.256886
 11
-13.481462
 21
-7.256886
  0
LINE
  8
0
  6
CONTINUOUS
 62
2
 10
-12.375000
 20
-7.256886
 11
-10.125000
 21
-7.256886
  0
LINE
  8
0
  6
CONTINUOUS
 62
2
 10
-9.244653
 20
-7.256886
 11
-5.964453
 21
-7.256886
  0
LINE
  8
0
  6
CONTINUOUS
 62
2
 10
-3.369288
 20
-7.256886
 11
-0.089088
 21
-7.256886
  0
LINE
  8
0
  6
CONTINUOUS
 62
2
 10
0.900000
 20
-7.256886
 11
3.525000
 21
-7.256886
  0
LINE
  8
0
  6
CONTINUOUS
 62
2
 10
5.303806
 20
-7.256886
 11
9.525000
 21
-7.256886
  0
LINE
  8
0
  6
CONTINUOUS
 62
2
 10
10.414328
 20
-7.256886
 11
13.676242
 21
-7.256886
  0
LINE
  8
0
  6
CONTINUOUS
 62
2
 10
16.323758
 20
-7.256886
 11
19.585672
 21
-7.256886
  0
LINE
  8
0
  6
CONTINUOUS
 62
2
 10
-19.875000
 20
-6.956886
 11
-17.625000
 21
-6.956886
  0
LINE
  8
0
  6
CONTINUOUS
 62
2
 10
-16.618538
 20
-6.956886
 11
-13.381462
 21
-6.956886
  0
LINE
  8
0
  6
CONTINUOUS
 62
2
 10
-12.375000
 20
-6.956886
 11
-10.125000
 21
-6.956886
  0
LINE
  8
0
  6
CONTINUOUS
 62
2
 10
-9.356922
 20
-6.956886
 11
-6.309006
 21
-6.956886
  0
LINE
  8
0
  6
CONTINUOUS
 62
2
 10
-3.024735
 20
-6.956886
 11
0.023181
 21
-6.956886
  0
LINE
  8
0
  6
CONTINUOUS
 62
2
 10
0.900000
 20
-6.956886
 11
3.525000
 21
-6.956886
  0
LINE
  8
0
  6
CONTINUOUS
 62
2
 10
5.096113
 20
-6.956886
 11
9.525000
 21
-6.956886
  0
LINE
  8
0
  6
CONTINUOUS
 62
2
 10
10.303882
 20
-6.956886
 11
13.340492
 21
-6.956886
  0
LINE
  8
0
  6
CONTINUOUS
 62
2
 10
16.659508
 20
-6.956886
 11
19.696118
 21
-6.956886
  0
LINE
  8
0
  6
CONTINUOUS
 62
2
 10
-19.875000
 20
-6.656886
 11
-17.625000
 21
-6.656886
  0
LINE
  8
0
  6
CONTINUOUS
 62
2
 10
-16.718538
 20
-6.656886
 11
-13.281462
 21
-6.656886
  0
LINE
  8
0
  6
CONTINUOUS
 62
2
 10
-12.375000
 20
-6.656886
 11
-10.125000
 21
-6.656886
  0
LINE
  8
0
  6
CONTINUOUS
 62
2
 10
-9.441183
 20
-6.656886
 11
-6.545566
 21
-6.656886
  0
LINE
  8
0
  6
CONTINUOUS
 62
2
 10
-2.788175
 20
-6.656886
 11
0.107442
 21
-6.656886
  0
LINE
  8
0
  6
CONTINUOUS
 62
2
 10
0.900000
 20
-6.656886
 11
3.525000
 21
-6.656886
  0
LINE
  8
0
  6
CONTINUOUS
 62
2
 10
4.888421
 20
-6.656886
 11
9.525000
 21
-6.656886
  0
LINE
  8
0
  6
CONTINUOUS
 62
2
 10
10.221302
 20
-6.656886
 11
13.109075
 21
-6.656886
  0
LINE
  8
0
  6
CONTINUOUS
 62
2
 10
16.890925
 20
-6.656886
 11
19.778698
 21
-6.656886
  0
LINE
  8
0
  6
CONTINUOUS
 62
2
 10
-19.875000
 20
-6.356886
 11
-17.625000
 21
-6.356886
  0
LINE
  8
0
  6
CONTINUOUS
 62
2
 10
-16.818538
 20
-6.356886
 11
-13.181462
 21
-6.356886
  0
LINE
  8
0
  6
CONTINUOUS
 62
2
 10
-12.375000
 20
-6.356886
 11
-10.125000
 21
-6.356886
  0
LINE
  8
0
  6
CONTINUOUS
 62
2
 10
-9.499345
 20
-6.356886
 11
-6.711958
 21
-6.356886
  0
LINE
  8
0
  6
CONTINUOUS
 62
2
 10
-2.621783
 20
-6.356886
 11
0.165604
 21
-6.356886
  0
LINE
  8
0
  6
CONTINUOUS
 62
2
 10
0.900000
 20
-6.356886
 11
3.525000
 21
-6.356886
  0
LINE
  8
0
  6
CONTINUOUS
 62
2
 10
4.680729
 20
-6.356886
 11
9.525000
 21
-6.356886
  0
LINE
  8
0
  6
CONTINUOUS
 62
2
 10
10.164725
 20
-6.356886
 11
12.946411
 21
-6.356886
  0
LINE
  8
0
  6
CONTINUOUS
 62
2
 10
17.053589
 20
-6.356886
 11
19.835275
 21
-6.356886
  0
LINE
  8
0
  6
CONTINUOUS
 62
2
 10
-19.875000
 20
-6.056886
 11
-17.625000
 21
-6.056886
  0
LINE
  8
0
  6
CONTINUOUS
 62
2
 10
-16.918538
 20
-6.056886
 11
-13.081462
 21
-6.056886
  0
LINE
  8
0
  6
CONTINUOUS
 62
2
 10
-12.375000
 20
-6.056886
 11
-10.125000
 21
-6.056886
  0
LINE
  8
0
  6
CONTINUOUS
 62
2
 10
-9.532626
 20
-6.056886
 11
-6.824478
 21
-6.056886
  0
LINE
  8
0
  6
CONTINUOUS
 62
2
 10
-2.509263
 20
-6.056886
 11
0.198885
 21
-6.056886
  0
LINE
  8
0
  6
CONTINUOUS
 62
2
 10
0.900000
 20
-6.056886
 11
3.525000
 21
-6.056886
  0
LINE
  8
0
  6
CONTINUOUS
 62
2
 10
4.473036
 20
-6.056886
 11
9.525000
 21
-6.056886
  0
LINE
  8
0
  6
CONTINUOUS
 62
2
 10
10.132972
 20
-6.056886
 11
12.836932
 21
-6.056886
  0
LINE
  8
0
  6
CONTINUOUS
 62
2
 10
17.163068
 20
-6.056886
 11
19.867028
 21
-6.056886
  0
LINE
  8
0
  6
CONTINUOUS
 62
2
 10
-19.875000
 20
-5.756886
 11
-17.625000
 21
-5.756886
  0
LINE
  8
0
  6
CONTINUOUS
 62
2
 10
-17.018538
 20
-5.756886
 11
-12.981462
 21
-5.756886
  0
LINE
  8
0
  6
CONTINUOUS
 62
2
 10
-12.375000
 20
-5.756886
 11
-10.125000
 21
-5.756886
  0
LINE
  8
0
  6
CONTINUOUS
 62
2
 10
-9.541870
 20
-5.756886
 11
-6.891316
 21
-5.756886
  0
LINE
  8
0
  6
CONTINUOUS
 62
2
 10
-2.442425
 20
-5.756886
 11
0.208130
 21
-5.756886
  0
LINE
  8
0
  6
CONTINUOUS
 62
2
 10
0.900000
 20
-5.756886
 11
3.525000
 21
-5.756886
  0
LINE
  8
0
  6
CONTINUOUS
 62
2
 10
4.265344
 20
-5.756886
 11
9.525000
 21
-5.756886
  0
LINE
  8
0
  6
CONTINUOUS
 62
2
 10
10.125000
 20
-5.756886
 11
12.772784
 21
-5.756886
  0
LINE
  8
0
  6
CONTINUOUS
 62
2
 10
17.227216
 20
-5.756886
 11
19.875000
 21
-5.756886
  0
LINE
  8
0
  6
CONTINUOUS
 62
2
 10
-19.875000
 20
-5.456886
 11
-17.625000
 21
-5.456886
  0
LINE
  8
0
  6
CONTINUOUS
 62
2
 10
-17.118538
 20
-5.456886
 11
-12.881462
 21
-5.456886
  0
LINE
  8
0
  6
CONTINUOUS
 62
2
 10
-12.375000
 20
-5.456886
 11
-10.125000
 21
-5.456886
  0
LINE
  8
0
  6
CONTINUOUS
 62
2
 10
-9.541870
 20
-5.456886
 11
-6.916547
 21
-5.456886
  0
LINE
  8
0
  6
CONTINUOUS
 62
2
 10
-2.417194
 20
-5.456886
 11
0.208130
 21
-5.456886
  0
LINE
  8
0
  6
CONTINUOUS
 62
2
 10
0.900000
 20
-5.456886
 11
3.525000
 21
-5.456886
  0
LINE
  8
0
  6
CONTINUOUS
 62
2
 10
4.057652
 20
-5.456886
 11
9.525000
 21
-5.456886
  0
LINE
  8
0
  6
CONTINUOUS
 62
2
 10
10.125000
 20
-5.456886
 11
12.750084
 21
-5.456886
  0
LINE
  8
0
  6
CONTINUOUS
 62
2
 10
17.249916
 20
-5.456886
 11
19.875000
 21
-5.456886
  0
LINE
  8
0
  6
CONTINUOUS
 62
2
 10
-19.875000
 20
-5.156886
 11
-17.625000
 21
-5.156886
  0
LINE
  8
0
  6
CONTINUOUS
 62
2
 10
-17.218538
 20
-5.156886
 11
-12.781462
 21
-5.156886
  0
LINE
  8
0
  6
CONTINUOUS
 62
2
 10
-12.375000
 20
-5.156886
 11
-10.125000
 21
-5.156886
  0
LINE
  8
0
  6
CONTINUOUS
 62
2
 10
-9.541870
 20
-5.156886
 11
-6.916870
 21
-5.156886
  0
LINE
  8
0
  6
CONTINUOUS
 62
2
 10
-2.416870
 20
-5.156886
 11
0.208130
 21
-5.156886
  0
LINE
  8
0
  6
CONTINUOUS
 62
2
 10
0.900000
 20
-5.156886
 11
3.525000
 21
-5.156886
  0
LINE
  8
0
  6
CONTINUOUS
 62
2
 10
3.849959
 20
-5.156886
 11
6.705729
 21
-5.156886
  0
LINE
  8
0
  6
CONTINUOUS
 62
2
 10
6.900000
 20
-5.156886
 11
9.525000
 21
-5.156886
  0
LINE
  8
0
  6
CONTINUOUS
 62
2
 10
10.125000
 20
-5.156886
 11
12.750000
 21
-5.156886
  0
LINE
  8
0
  6
CONTINUOUS
 62
2
 10
17.250000
 20
-5.156886
 11
19.875000
 21
-5.156886
  0
LINE
  8
0
  6
CONTINUOUS
 62
2
 10
-19.875000
 20
-4.856886
 11
-17.625000
 21
-4.856886
  0
LINE
  8
0
  6
CONTINUOUS
 62
2
 10
-17.318538
 20
-4.856886
 11
-12.681462
 21
-4.856886
  0
LINE
  8
0
  6
CONTINUOUS
 62
2
 10
-12.375000
 20
-4.856886
 11
-10.125000
 21
-4.856886
  0
LINE
  8
0
  6
CONTINUOUS
 62
2
 10
-9.541870
 20
-4.856886
 11
-6.916870
 21
-4.856886
  0
LINE
  8
0
  6
CONTINUOUS
 62
2
 10
-2.416870
 20
-4.856886
 11
0.208130
 21
-4.856886
  0
LINE
  8
0
  6
CONTINUOUS
 62
2
 10
0.900000
 20
-4.856886
 11
3.525000
 21
-4.856886
  0
LINE
  8
0
  6
CONTINUOUS
 62
2
 10
3.642267
 20
-4.856886
 11
6.498036
 21
-4.856886
  0
LINE
  8
0
  6
CONTINUOUS
 62
2
 10
6.900000
 20
-4.856886
 11
9.525000
 21
-4.856886
  0
LINE
  8
0
  6
CONTINUOUS
 62
2
 10
10.125000
 20
-4.856886
 11
12.750000
 21
-4.856886
  0
LINE
  8
0
  6
CONTINUOUS
 62
2
 10
17.250000
 20
-4.856886
 11
19.875000
 21
-4.856886
  0
LINE
  8
0
  6
CONTINUOUS
 62
2
 10
-19.875000
 20
-4.556886
 11
-17.625000
 21
-4.556886
  0
LINE
  8
0
  6
CONTINUOUS
 62
2
 10
-17.418538
 20
-4.556886
 11
-12.581462
 21
-4.556886
  0
LINE
  8
0
  6
CONTINUOUS
 62
2
 10
-12.375000
 20
-4.556886
 11
-10.125000
 21
-4.556886
  0
LINE
  8
0
  6
CONTINUOUS
 62
2
 10
-9.541870
 20
-4.556886
 11
-6.914088
 21
-4.556886
  0
LINE
  8
0
  6
CONTINUOUS
 62
2
 10
-2.419652
 20
-4.556886
 11
0.208130
 21
-4.556886
  0
LINE
  8
0
  6
CONTINUOUS
 62
2
 10
0.900000
 20
-4.556886
 11
6.290344
 21
-4.556886
  0
LINE
  8
0
  6
CONTINUOUS
 62
2
 10
6.900000
 20
-4.556886
 11
9.525000
 21
-4.556886
  0
LINE
  8
0
  6
CONTINUOUS
 62
2
 10
10.125000
 20
-4.556886
 11
12.753794
 21
-4.556886
  0
LINE
  8
0
  6
CONTINUOUS
 62
2
 10
17.246206
 20
-4.556886
 11
19.875000
 21
-4.556886
  0
LINE
  8
0
  6
CONTINUOUS
 62
2
 10
-19.875000
 20
-4.256886
 11
-17.625000
 21
-4.256886
  0
LINE
  8
0
  6
CONTINUOUS
 62
2
 10
-17.518538
 20
-4.256886
 11
-12.481462
 21
-4.256886
  0
LINE
  8
0
  6
CONTINUOUS
 62
2
 10
-12.375000
 20
-4.256886
 11
-10.125000
 21
-4.256886
  0
LINE
  8
0
  6
CONTINUOUS
 62
2
 10
-9.541689
 20
-4.256886
 11
-6.878855
 21
-4.256886
  0
LINE
  8
0
  6
CONTINUOUS
 62
2
 10
-2.454886
 20
-4.256886
 11
0.207948
 21
-4.256886
  0
LINE
  8
0
  6
CONTINUOUS
 62
2
 10
0.900000
 20
-4.256886
 11
6.082652
 21
-4.256886
  0
LINE
  8
0
  6
CONTINUOUS
 62
2
 10
6.900000
 20
-4.256886
 11
9.525000
 21
-4.256886
  0
LINE
  8
0
  6
CONTINUOUS
 62
2
 10
10.125412
 20
-4.256886
 11
12.791591
 21
-4.256886
  0
LINE
  8
0
  6
CONTINUOUS
 62
2
 10
17.208409
 20
-4.256886
 11
19.874588
 21
-4.256886
  0
LINE
  8
0
  6
CONTINUOUS
 62
2
 10
-19.875000
 20
-3.956886
 11
-17.625000
 21
-3.956886
  0
LINE
  8
0
  6
CONTINUOUS
 62
2
 10
-17.618538
 20
-3.956886
 11
-12.381462
 21
-3.956886
  0
LINE
  8
0
  6
CONTINUOUS
 62
2
 10
-12.375000
 20
-3.956886
 11
-10.125000
 21
-3.956886
  0
LINE
  8
0
  6
CONTINUOUS
 62
2
 10
-9.526710
 20
-3.956886
 11
-6.801294
 21
-3.956886
  0
LINE
  8
0
  6
CONTINUOUS
 62
2
 10
-2.532447
 20
-3.956886
 11
0.192969
 21
-3.956886
  0
LINE
  8
0
  6
CONTINUOUS
 62
2
 10
0.900000
 20
-3.956886
 11
5.874959
 21
-3.956886
  0
LINE
  8
0
  6
CONTINUOUS
 62
2
 10
6.900000
 20
-3.956886
 11
9.525000
 21
-3.956886
  0
LINE
  8
0
  6
CONTINUOUS
 62
2
 10
10.141900
 20
-3.956886
 11
12.871925
 21
-3.956886
  0
LINE
  8
0
  6
CONTINUOUS
 62
2
 10
17.128075
 20
-3.956886
 11
19.858100
 21
-3.956886
  0
LINE
  8
0
  6
CONTINUOUS
 62
2
 10
-19.875000
 20
-3.656886
 11
-15.093538
 21
-3.656886
  0
LINE
  8
0
  6
CONTINUOUS
 62
2
 10
-14.906462
 20
-3.656886
 11
-10.125000
 21
-3.656886
  0
LINE
  8
0
  6
CONTINUOUS
 62
2
 10
-9.487397
 20
-3.656886
 11
-6.676510
 21
-3.656886
  0
LINE
  8
0
  6
CONTINUOUS
 62
2
 10
-2.657231
 20
-3.656886
 11
0.153656
 21
-3.656886
  0
LINE
  8
0
  6
CONTINUOUS
 62
2
 10
0.900000
 20
-3.656886
 11
5.667267
 21
-3.656886
  0
LINE
  8
0
  6
CONTINUOUS
 62
2
 10
6.900000
 20
-3.656886
 11
9.525000
 21
-3.656886
  0
LINE
  8
0
  6
CONTINUOUS
 62
2
 10
10.182755
 20
-3.656886
 11
12.999916
 21
-3.656886
  0
LINE
  8
0
  6
CONTINUOUS
 62
2
 10
17.000084
 20
-3.656886
 11
19.817245
 21
-3.656886
  0
LINE
  8
0
  6
CONTINUOUS
 62
2
 10
-19.875000
 20
-3.356886
 11
-15.193538
 21
-3.356886
  0
LINE
  8
0
  6
CONTINUOUS
 62
2
 10
-14.806462
 20
-3.356886
 11
-10.125000
 21
-3.356886
  0
LINE
  8
0
  6
CONTINUOUS
 62
2
 10
-9.422959
 20
-3.356886
 11
-6.494858
 21
-3.356886
  0
LINE
  8
0
  6
CONTINUOUS
 62
2
 10
-2.838883
 20
-3.356886
 11
0.089218
 21
-3.356886
  0
LINE
  8
0
  6
CONTINUOUS
 62
2
 10
0.900000
 20
-3.356886
 11
5.459575
 21
-3.356886
  0
LINE
  8
0
  6
CONTINUOUS
 62
2
 10
6.900000
 20
-3.356886
 11
9.525000
 21
-3.356886
  0
LINE
  8
0
  6
CONTINUOUS
 62
2
 10
10.248803
 20
-3.356886
 11
13.185622
 21
-3.356886
  0
LINE
  8
0
  6
CONTINUOUS
 62
2
 10
16.814378
 20
-3.356886
 11
19.751197
 21
-3.356886
  0
LINE
  8
0
  6
CONTINUOUS
 62
2
 10
-19.875000
 20
-3.056886
 11
-15.293538
 21
-3.056886
  0
LINE
  8
0
  6
CONTINUOUS
 62
2
 10
-14.706462
 20
-3.056886
 11
-10.125000
 21
-3.056886
  0
LINE
  8
0
  6
CONTINUOUS
 62
2
 10
-9.332025
 20
-3.056886
 11
-6.236719
 21
-3.056886
  0
LINE
  8
0
  6
CONTINUOUS
 62
2
 10
-3.097022
 20
-3.056886
 11
-0.001716
 21
-3.056886
  0
LINE
  8
0
  6
CONTINUOUS
 62
2
 10
0.900000
 20
-3.056886
 11
5.251882
 21
-3.056886
  0
LINE
  8
0
  6
CONTINUOUS
 62
2
 10
6.900000
 20
-3.056886
 11
9.525000
 21
-3.056886
  0
LINE
  8
0
  6
CONTINUOUS
 62
2
 10
10.341456
 20
-3.056886
 11
13.449646
 21
-3.056886
  0
LINE
  8
0
  6
CONTINUOUS
 62
2
 10
16.550354
 20
-3.056886
 11
19.658544
 21
-3.056886
  0
LINE
  8
0
  6
CONTINUOUS
 62
2
 10
-19.875000
 20
-2.756886
 11
-15.393538
 21
-2.756886
  0
LINE
  8
0
  6
CONTINUOUS
 62
2
 10
-14.606462
 20
-2.756886
 11
-10.125000
 21
-2.756886
  0
LINE
  8
0
  6
CONTINUOUS
 62
2
 10
-9.212481
 20
-2.756886
 11
-5.853172
 21
-2.756886
  0
LINE
  8
0
  6
CONTINUOUS
 62
2
 10
-3.480568
 20
-2.756886
 11
-0.121260
 21
-2.756886
  0
LINE
  8
0
  6
CONTINUOUS
 62
2
 10
0.900000
 20
-2.756886
 11
5.044190
 21
-2.756886
  0
LINE
  8
0
  6
CONTINUOUS
 62
2
 10
6.900000
 20
-2.756886
 11
9.525000
 21
-2.756886
  0
LINE
  8
0
  6
CONTINUOUS
 62
2
 10
10.462880
 20
-2.756886
 11
13.844479
 21
-2.756886
  0
LINE
  8
0
  6
CONTINUOUS
 62
2
 10
16.155521
 20
-2.756886
 11
19.537120
 21
-2.756886
  0
LINE
  8
0
  6
CONTINUOUS
 62
2
 10
-19.875000
 20
-2.456886
 11
-15.493538
 21
-2.456886
  0
LINE
  8
0
  6
CONTINUOUS
 62
2
 10
-14.506462
 20
-2.456886
 11
-10.125000
 21
-2.456886
  0
LINE
  8
0
  6
CONTINUOUS
 62
2
 10
-9.061192
 20
-2.456886
 11
-5.079423
 21
-2.456886
  0
LINE
  8
0
  6
CONTINUOUS
 62
2
 10
-4.254318
 20
-2.456886
 11
-0.272549
 21
-2.456886
  0
LINE
  8
0
  6
CONTINUOUS
 62
2
 10
0.900000
 20
-2.456886
 11
4.836498
 21
-2.456886
  0
LINE
  8
0
  6
CONTINUOUS
 62
2
 10
6.900000
 20
-2.456886
 11
9.525000
 21
-2.456886
  0
LINE
  8
0
  6
CONTINUOUS
 62
2
 10
10.616289
 20
-2.456886
 11
14.705279
 21
-2.456886
  0
LINE
  8
0
  6
CONTINUOUS
 62
2
 10
15.294721
 20
-2.456886
 11
19.383711
 21
-2.456886
  0
LINE
  8
0
  6
CONTINUOUS
 62
2
 10
-19.875000
 20
-2.156886
 11
-15.593538
 21
-2.156886
  0
LINE
  8
0
  6
CONTINUOUS
 62
2
 10
-14.406462
 20
-2.156886
 11
-10.125000
 21
-2.156886
  0
LINE
  8
0
  6
CONTINUOUS
 62
2
 10
-8.873486
 20
-2.156886
 11
-0.460255
 21
-2.156886
  0
LINE
  8
0
  6
CONTINUOUS
 62
2
 10
0.900000
 20
-2.156886
 11
4.628806
 21
-2.156886
  0
LINE
  8
0
  6
CONTINUOUS
 62
2
 10
6.900000
 20
-2.156886
 11
9.525000
 21
-2.156886
  0
LINE
  8
0
  6
CONTINUOUS
 62
2
 10
10.806478
 20
-2.156886
 11
19.193522
 21
-2.156886
  0
LINE
  8
0
  6
CONTINUOUS
 62
2
 10
-19.875000
 20
-1.856886
 11
-15.693538
 21
-1.856886
  0
LINE
  8
0
  6
CONTINUOUS
 62
2
 10
-14.306462
 20
-1.856886
 11
-10.125000
 21
-1.856886
  0
LINE
  8
0
  6
CONTINUOUS
 62
2
 10
-8.642176
 20
-1.856886
 11
-0.691565
 21
-1.856886
  0
LINE
  8
0
  6
CONTINUOUS
 62
2
 10
0.900000
 20
-1.856886
 11
4.421113
 21
-1.856886
  0
LINE
  8
0
  6
CONTINUOUS
 62
2
 10
6.900000
 20
-1.856886
 11
9.525000
 21
-1.856886
  0
LINE
  8
0
  6
CONTINUOUS
 62
2
 10
11.040841
 20
-1.856886
 11
18.959159
 21
-1.856886
  0
LINE
  8
0
  6
CONTINUOUS
 62
2
 10
-19.875000
 20
-1.556886
 11
-15.793538
 21
-1.556886
  0
LINE
  8
0
  6
CONTINUOUS
 62
2
 10
-14.206462
 20
-1.556886
 11
-10.125000
 21
-1.556886
  0
LINE
  8
0
  6
CONTINUOUS
 62
2
 10
-8.355487
 20
-1.556886
 11
-0.978254
 21
-1.556886
  0
LINE
  8
0
  6
CONTINUOUS
 62
2
 10
0.900000
 20
-1.556886
 11
4.213421
 21
-1.556886
  0
LINE
  8
0
  6
CONTINUOUS
 62
2
 10
6.900000
 20
-1.556886
 11
9.525000
 21
-1.556886
  0
LINE
  8
0
  6
CONTINUOUS
 62
2
 10
11.331559
 20
-1.556886
 11
18.668441
 21
-1.556886
  0
LINE
  8
0
  6
CONTINUOUS
 62
2
 10
-19.875000
 20
-1.256886
 11
-15.893538
 21
-1.256886
  0
LINE
  8
0
  6
CONTINUOUS
 62
2
 10
-14.106462
 20
-1.256886
 11
-10.125000
 21
-1.256886
  0
LINE
  8
0
  6
CONTINUOUS
 62
2
 10
-7.991874
 20
-1.256886
 11
-1.341867
 21
-1.256886
  0
LINE
  8
0
  6
CONTINUOUS
 62
2
 10
0.900000
 20
-1.256886
 11
4.005729
 21
-1.256886
  0
LINE
  8
0
  6
CONTINUOUS
 62
2
 10
6.900000
 20
-1.256886
 11
9.525000
 21
-1.256886
  0
LINE
  8
0
  6
CONTINUOUS
 62
2
 10
11.701127
 20
-1.256886
 11
18.298873
 21
-1.256886
  0
LINE
  8
0
  6
CONTINUOUS
 62
2
 10
-19.875000
 20
-0.956886
 11
-15.993538
 21
-0.956886
  0
LINE
  8
0
  6
CONTINUOUS
 62
2
 10
-14.006462
 20
-0.956886
 11
-10.125000
 21
-0.956886
  0
LINE
  8
0
  6
CONTINUOUS
 62
2
 10
-7.502982
 20
-0.956886
 11
-1.830759
 21
-0.956886
  0
LINE
  8
0
  6
CONTINUOUS
 62
2
 10
0.900000
 20
-0.956886
 11
3.798036
 21
-0.956886
  0
LINE
  8
0
  6
CONTINUOUS
 62
2
 10
6.900000
 20
-0.956886
 11
9.525000
 21
-0.956886
  0
LINE
  8
0
  6
CONTINUOUS
 62
2
 10
12.200977
 20
-0.956886
 11
17.799023
 21
-0.956886
  0
LINE
  8
0
  6
CONTINUOUS
 62
2
 10
-19.875000
 20
-0.656886
 11
-16.093538
 21
-0.656886
  0
LINE
  8
0
  6
CONTINUOUS
 62
2
 10
-13.906462
 20
-0.656886
 11
-10.125000
 21
-0.656886
  0
LINE
  8
0
  6
CONTINUOUS
 62
2
 10
-6.706086
 20
-0.656886
 11
-2.627655
 21
-0.656886
  0
LINE
  8
0
  6
CONTINUOUS
 62
2
 10
0.900000
 20
-0.656886
 11
3.590344
 21
-0.656886
  0
LINE
  8
0
  6
CONTINUOUS
 62
2
 10
6.900000
 20
-0.656886
 11
9.525000
 21
-0.656886
  0
LINE
  8
0
  6
CONTINUOUS
 62
2
 10
13.038947
 20
-0.656886
 11
16.961053
 21
-0.656886
  0
LINE
  8
0
  6
CONTINUOUS
 62
2
 10
-19.875000
 20
1.743114
 11
19.875000
 21
1.743114
  0
LINE
  8
0
  6
CONTINUOUS
 62
2
 10
-19.875000
 20
2.043114
 11
19.875000
 21
2.043114
  0
LINE
  8
0
  6
CONTINUOUS
 62
2
 10
-19.875000
 20
2.343114
 11
19.875000
 21
2.343114
  0
LINE
  8
0
  6
CONTINUOUS
 62
2
 10
-19.875000
 20
2.643114
 11
19.875000
 21
2.643114
  0
LINE
  8
0
  6
CONTINUOUS
 62
2
 10
-19.875000
 20
2.943114
 11
19.875000
 21
2.943114
  0
LINE
  8
0
  6
CONTINUOUS
 62
2
 10
-19.875000
 20
3.243114
 11
19.875000
 21
3.243114
  0
LINE
  8
0
  6
CONTINUOUS
 62
2
 10
-19.875000
 20
3.543114
 11
19.875000
 21
3.543114
  0
LINE
  8
0
  6
CONTINUOUS
 62
2
 10
-19.875000
 20
5.943114
 11
19.875000
 21
5.943114
  0
LINE
  8
0
  6
CONTINUOUS
 62
2
 10
-19.875000
 20
6.243114
 11
19.875000
 21
6.243114
  0
LINE
  8
0
  6
CONTINUOUS
 62
2
 10
-19.875000
 20
6.543114
 11
19.875000
 21
6.543114
  0
LINE
  8
0
  6
CONTINUOUS
 62
2
 10
-19.875000
 20
6.843114
 11
19.875000
 21
6.843114
  0
LINE
  8
0
  6
CONTINUOUS
 62
2
 10
-19.875000
 20
7.143114
 11
19.875000
 21
7.143114
  0
LINE
  8
0
  6
CONTINUOUS
 62
2
 10
-19.875000
 20
9.843114
 11
19.875000
 21
9.843114
  0
LINE
  8
0
  6
CONTINUOUS
 62
2
 10
-19.875000
 20
10.143114
 11
19.875000
 21
10.143114
  0
LINE
  8
0
  6
CONTINUOUS
 62
2
 10
-19.875000
 20
10.443114
 11
19.875000
 21
10.443114
  0
LINE
  8
0
  6
CONTINUOUS
 62
2
 10
-19.875000
 20
13.143114
 11
19.875000
 21
13.143114
  0
LINE
  8
0
  6
CONTINUOUS
 62
2
 10
-19.875000
 20
13.443114
 11
19.875000
 21
13.443114
  0
LINE
  8
0
  6
CONTINUOUS
 62
2
 10
-19.875000
 20
16.143114
 11
19.875000
 21
16.143114
  0
ENDBLK
  0
BLOCK
  2
*D1
  8
0
 70
1
 10
0.0
 20
0.0
  0
LINE
  8
0
  6
CONTINUOUS
 62
1
 10
7289.175192
 20
7762.147331
 11
7289.175192
 21
8189.710415
  0
LINE
  8
0
  6
CONTINUOUS
 62
1
 10
7289.175192
 20
8129.710415
 11
8769.175192
 21
8129.710415
  0
LINE
  8
0
  6
CONTINUOUS
 62
1
 10
7289.175192
 20
8129.710415
 11
7359.175192
 21
8119.710415
  0
LINE
  8
0
  6
CONTINUOUS
 62
1
 10
7359.175192
 20
8119.710415
 11
7359.175192
 21
8134.710415
  0
LINE
  8
0
  6
CONTINUOUS
 62
1
 10
7359.175192
 20
8134.710415
 11
7319.175192
 21
8129.710415
  0
LINE
  8
0
  6
CONTINUOUS
 62
1
 10
7319.175192
 20
8129.710415
 11
7359.175192
 21
8124.710415
  0
LINE
  8
0
  6
CONTINUOUS
 62
1
 10
7359.175192
 20
8124.710415
 11
7359.175192
 21
8139.710415
  0
LINE
  8
0
  6
CONTINUOUS
 62
1
 10
7359.175192
 20
8139.710415
 11
7289.175192
 21
8129.710415
  0
LINE
  8
0
  6
CONTINUOUS
 62
1
 10
8769.175192
 20
8129.710415
 11
8699.175192
 21
8139.710415
  0
LINE
  8
0
  6
CONTINUOUS
 62
1
 10
8699.175192
 20
8139.710415
 11
8699.175192
 21
8124.710415
  0
LINE
  8
0
  6
CONTINUOUS
 62
1
 10
8699.175192
 20
8124.710415
 11
8739.175192
 21
8129.710415
  0
LINE
  8
0
  6
CONTINUOUS
 62
1
 10
8739.175192
 20
8129.710415
 11
8699.175192
 21
8134.710415
  0
LINE
  8
0
  6
CONTINUOUS
 62
1
 10
8699.175192
 20
8134.710415
 11
8699.175192
 21
8119.710415
  0
LINE
  8
0
  6
CONTINUOUS
 62
1
 10
8699.175192
 20
8119.710415
 11
8769.175192
 21
8129.710415
  0
LINE
  8
0
  6
CONTINUOUS
 62
1
 10
8769.175192
 20
8189.710415
 11
8769.175192
 21
7762.147331
  0
TEXT
  8
0
  6
CONTINUOUS
 62
1
 10
7871.675192
 20
8164.710415
 40
70.000000
  1
1480.0
 50
0.000000
 41
1.000000
 51
0.000000
  7
STANDARD
  0
ENDBLK
  0
BLOCK
  2
*D2
  8
0
 70
1
 10
0.0
 20
0.0
  0
LINE
  8
0
  6
CONTINUOUS
 62
1
 10
7229.175192
 20
7702.147331
 11
6849.937458
 21
7702.147331
  0
LINE
  8
0
  6
CONTINUOUS
 62
1
 10
6909.937458
 20
7702.147331
 11
6909.937458
 21
5292.147331
  0
LINE
  8
0
  6
CONTINUOUS
 62
1
 10
6909.937458
 20
7702.147331
 11
6899.937458
 21
7632.147331
  0
LINE
  8
0
  6
CONTINUOUS
 62
1
 10
6899.937458
 20
7632.147331
 11
6914.937458
 21
7632.147331
  0
LINE
  8
0
  6
CONTINUOUS
 62
1
 10
6914.937458
 20
7632.147331
 11
6909.937458
 21
7672.147331
  0
LINE
  8
0
  6
CONTINUOUS
 62
1
 10
6909.937458
 20
7672.147331
 11
6904.937458
 21
7632.147331
  0
LINE
  8
0
  6
CONTINUOUS
 62
1
 10
6904.937458
 20
7632.147331
 11
6919.937458
 21
7632.147331
  0
LINE
  8
0
  6
CONTINUOUS
 62
1
 10
6919.937458
 20
7632.147331
 11
6909.937458
 21
7702.147331
  0
LINE
  8
0
  6
CONTINUOUS
 62
1
 10
6909.937458
 20
5292.147331
 11
6919.937458
 21
5362.147331
  0
LINE
  8
0
  6
CONTINUOUS
 62
1
 10
6919.937458
 20
5362.147331
 11
6904.937458
 21
5362.147331
  0
LINE
  8
0
  6
CONTINUOUS
 62
1
 10
6904.937458
 20
5362.147331
 11
6909.937458
 21
5322.147331
  0
LINE
  8
0
  6
CONTINUOUS
 62
1
 10
6909.937458
 20
5322.147331
 11
6914.937458
 21
5362.147331
  0
LINE
  8
0
  6
CONTINUOUS
 62
1
 10
6914.937458
 20
5362.147331
 11
6899.937458
 21
5362.147331
  0
LINE
  8
0
  6
CONTINUOUS
 62
1
 10
6899.937458
 20
5362.147331
 11
6909.937458
 21
5292.147331
  0
LINE
  8
0
  6
CONTINUOUS
 62
1
 10
6849.937458
 20
5292.147331
 11
7229.175192
 21
5292.147331
  0
TEXT
  8
0
  6
CONTINUOUS
 62
1
 10
6874.937458
 20
6339.647331
 40
70.000000
  1
2410.0
 50
90.000000
 41
1.000000
 51
0.000000
  7
STANDARD
  0
ENDBLK
  0
ENDSEC
  0
SECTION
  2
ENTITIES
  0
LINE
  8
0
  6
CONTINUOUS
 62
4
 10
7289.175192
 20
5292.147331
 11
8769.175192
 21
5292.147331
  0
LINE
  8
0
  6
CONTINUOUS
 62
4
 10
8769.175192
 20
5292.147331
 11
8769.175192
 21
7702.147331
  0
LINE
  8
0
  6
CONTINUOUS
 62
4
 10
8769.175192
 20
7702.147331
 11
7289.175192
 21
7702.147331
  0
LINE
  8
0
  6
CONTINUOUS
 62
4
 10
7289.175192
 20
7702.147331
 11
7289.175192
 21
5292.147331
  0
LINE
  8
0
  6
CONTINUOUS
 62
4
 10
7719.175192
 20
5292.147331
 11
7719.175192
 21
7292.147331
  0
LINE
  8
0
  6
CONTINUOUS
 62
4
 10
8769.175192
 20
7292.147331
 11
7289.175192
 21
7292.147331
  0
LINE
  8
0
  6
CONTINUOUS
 62
4
 10
7289.175192
 20
7378.039713
 11
8769.175192
 21
7378.039713
  0
LINE
  8
0
  6
CONTINUOUS
 62
4
 10
8759.035192
 20
5292.147331
 11
8769.175192
 21
5292.147331
  0
LINE
  8
0
  6
CONTINUOUS
 62
4
 10
8769.175192
 20
5292.147331
 11
8769.175192
 21
6521.777334
  0
LINE
  8
0
  6
CONTINUOUS
 62
4
 10
8769.175192
 20
6521.777334
 11
8769.175192
 21
6531.917334
  0
LINE
  8
0
  6
CONTINUOUS
 62
4
 10
8628.593133
 20
6627.385023
 11
8752.571548
 21
6627.385023
  0
LINE
  8
0
  6
CONTINUOUS
 62
4
 10
8752.571548
 20
6627.385023
 11
8752.571548
 21
6824.040440
  0
LINE
  8
0
  6
CONTINUOUS
 62
4
 10
8752.571548
 20
6824.040440
 11
8628.593134
 21
6824.040440
  0
LINE
  8
0
  6
CONTINUOUS
 62
4
 10
8628.593134
 20
6824.040440
 11
8628.593133
 21
6627.385023
  0
CIRCLE
  8
0
  6
CONTINUOUS
 62
4
 10
8690.582341
 20
6725.712732
 40
10.140000
  0
CIRCLE
  8
0
  6
CONTINUOUS
 62
4
 10
8690.582341
 20
6725.712732
 40
16.224000
  0
CIRCLE
  8
0
  6
CONTINUOUS
 62
4
 10
8637.143369
 20
6812.640126
 40
4.056000
  0
CIRCLE
  8
0
  6
CONTINUOUS
 62
4
 10
8742.596274
 20
6814.065165
 40
4.056000
  0
CIRCLE
  8
0
  6
CONTINUOUS
 62
4
 10
8635.718330
 20
6634.510220
 40
4.056000
  0
CIRCLE
  8
0
  6
CONTINUOUS
 62
4
 10
8742.596274
 20
6635.935259
 40
4.056000
  0
LINE
  8
0
  6
CONTINUOUS
 62
4
 10
8569.449703
 20
7292.147331
 11
8569.449703
 21
5292.147331
  0
LINE
  8
0
  6
CONTINUOUS
 62
4
 10
8567.421703
 20
5342.847331
 11
8569.449703
 21
5342.847331
  0
LINE
  8
0
  6
CONTINUOUS
 62
4
 10
8646.549416
 20
6816.457228
 11
8733.700577
 21
6816.457228
  0
LINE
  8
0
  6
CONTINUOUS
 62
4
 10
8744.300042
 20
6802.324607
 11
8744.300042
 21
6645.688061
  0
LINE
  8
0
  6
CONTINUOUS
 62
4
 10
8634.772232
 20
6802.324607
 11
8634.772232
 21
6643.332625
  0
LINE
  8
0
  6
CONTINUOUS
 62
4
 10
8646.549416
 20
6632.733159
 11
8732.522858
 21
6632.733159
  0
LINE
  8
0
  6
CONTINUOUS
 62
4
 10
7607.832596
 20
5805.676134
 11
7360.155192
 21
5805.676134
  0
LINE
  8
0
  6
CONTINUOUS
 62
4
 10
7360.155192
 20
5876.656134
 11
7607.832596
 21
5876.656134
  0
CIRCLE
  8
0
  6
CONTINUOUS
 62
4
 10
7321.757348
 20
5638.409261
 40
10.140000
  0
CIRCLE
  8
0
  6
CONTINUOUS
 62
4
 10
7321.757348
 20
5638.409261
 40
6.084000
  0
LINE
  8
0
  6
CONTINUOUS
 62
4
 10
7322.456582
 20
5535.507331
 11
7377.573802
 21
5535.507331
  0
LINE
  8
0
  6
CONTINUOUS
 62
4
 10
7367.433802
 20
5545.647331
 11
7332.596582
 21
5545.647331
  0
ARC
  8
0
  6
CONTINUOUS
 62
4
 10
7367.433802
 20
5535.507331
 40
10.140000
 50
360.000000
 51
90.000000
  0
ARC
  8
0
  6
CONTINUOUS
 62
4
 10
7332.596582
 20
5535.507331
 40
10.140000
 50
90.000000
 51
180.000000
  0
LINE
  8
0
  6
CONTINUOUS
 62
4
 10
7322.456582
 20
5494.947331
 11
7377.573802
 21
5494.947331
  0
LINE
  8
0
  6
CONTINUOUS
 62
4
 10
7367.433802
 20
5505.087331
 11
7332.596582
 21
5505.087331
  0
ARC
  8
0
  6
CONTINUOUS
 62
4
 10
7367.433802
 20
5494.947331
 40
10.140000
 50
360.000000
 51
90.000000
  0
ARC
  8
0
  6
CONTINUOUS
 62
4
 10
7332.596582
 20
5494.947331
 40
10.140000
 50
90.000000
 51
180.000000
  0
LINE
  8
0
  6
CONTINUOUS
 62
4
 10
7322.456582
 20
5454.387331
 11
7377.573802
 21
5454.387331
  0
LINE
  8
0
  6
CONTINUOUS
 62
4
 10
7367.433802
 20
5464.527331
 11
7332.596582
 21
5464.527331
  0
ARC
  8
0
  6
CONTINUOUS
 62
4
 10
7367.433802
 20
5454.387331
 40
10.140000
 50
360.000000
 51
90.000000
  0
ARC
  8
0
  6
CONTINUOUS
 62
4
 10
7332.596582
 20
5454.387331
 40
10.140000
 50
90.000000
 51
180.000000
  0
LINE
  8
0
  6
CONTINUOUS
 62
4
 10
7322.456582
 20
5413.827331
 11
7377.573802
 21
5413.827331
  0
LINE
  8
0
  6
CONTINUOUS
 62
4
 10
7367.433802
 20
5423.967331
 11
7332.596582
 21
5423.967331
  0
ARC
  8
0
  6
CONTINUOUS
 62
4
 10
7367.433802
 20
5413.827331
 40
10.140000
 50
360.000000
 51
90.000000
  0
ARC
  8
0
  6
CONTINUOUS
 62
4
 10
7332.596582
 20
5413.827331
 40
10.140000
 50
90.000000
 51
180.000000
  0
LINE
  8
0
  6
CONTINUOUS
 62
4
 10
7322.456582
 20
5373.267331
 11
7377.573802
 21
5373.267331
  0
LINE
  8
0
  6
CONTINUOUS
 62
4
 10
7367.433802
 20
5383.407331
 11
7332.596582
 21
5383.407331
  0
ARC
  8
0
  6
CONTINUOUS
 62
4
 10
7367.433802
 20
5373.267331
 40
10.140000
 50
360.000000
 51
90.000000
  0
ARC
  8
0
  6
CONTINUOUS
 62
4
 10
7332.596582
 20
5373.267331
 40
10.140000
 50
90.000000
 51
180.000000
  0
LINE
  8
0
  6
CONTINUOUS
 62
4
 10
7322.456582
 20
5332.707331
 11
7377.573802
 21
5332.707331
  0
LINE
  8
0
  6
CONTINUOUS
 62
4
 10
7367.433802
 20
5342.847331
 11
7332.596582
 21
5342.847331
  0
ARC
  8
0
  6
CONTINUOUS
 62
4
 10
7367.433802
 20
5332.707331
 40
10.140000
 50
360.000000
 51
90.000000
  0
ARC
  8
0
  6
CONTINUOUS
 62
4
 10
7332.596582
 20
5332.707331
 40
10.140000
 50
90.000000
 51
180.000000
  0
LINE
  8
0
  6
CONTINUOUS
 62
4
 10
7606.376582
 20
5535.507331
 11
7661.493802
 21
5535.507331
  0
LINE
  8
0
  6
CONTINUOUS
 62
4
 10
7651.353802
 20
5545.647331
 11
7616.516582
 21
5545.647331
  0
ARC
  8
0
  6
CONTINUOUS
 62
4
 10
7651.353802
 20
5535.507331
 40
10.140000
 50
360.000000
 51
90.000000
  0
ARC
  8
0
  6
CONTINUOUS
 62
4
 10
7616.516582
 20
5535.507331
 40
10.140000
 50
90.000000
 51
180.000000
  0
LINE
  8
0
  6
CONTINUOUS
 62
4
 10
7606.376582
 20
5494.947331
 11
7661.493802
 21
5494.947331
  0
LINE
  8
0
  6
CONTINUOUS
 62
4
 10
7651.353802
 20
5505.087331
 11
7616.516582
 21
5505.087331
  0
ARC
  8
0
  6
CONTINUOUS
 62
4
 10
7651.353802
 20
5494.947331
 40
10.140000
 50
360.000000
 51
90.000000
  0
ARC
  8
0
  6
CONTINUOUS
 62
4
 10
7616.516582
 20
5494.947331
 40
10.140000
 50
90.000000
 51
180.000000
  0
LINE
  8
0
  6
CONTINUOUS
 62
4
 10
7606.376582
 20
5454.387331
 11
7661.493802
 21
5454.387331
  0
LINE
  8
0
  6
CONTINUOUS
 62
4
 10
7651.353802
 20
5464.527331
 11
7616.516582
 21
5464.527331
  0
ARC
  8
0
  6
CONTINUOUS
 62
4
 10
7651.353802
 20
5454.387331
 40
10.140000
 50
360.000000
 51
90.000000
  0
ARC
  8
0
  6
CONTINUOUS
 62
4
 10
7616.516582
 20
5454.387331
 40
10.140000
 50
90.000000
 51
180.000000
  0
LINE
  8
0
  6
CONTINUOUS
 62
4
 10
7606.376582
 20
5413.827331
 11
7661.493802
 21
5413.827331
  0
LINE
  8
0
  6
CONTINUOUS
 62
4
 10
7651.353802
 20
5423.967331
 11
7616.516582
 21
5423.967331
  0
ARC
  8
0
  6
CONTINUOUS
 62
4
 10
7651.353802
 20
5413.827331
 40
10.140000
 50
360.000000
 51
90.000000
  0
ARC
  8
0
  6
CONTINUOUS
 62
4
 10
7616.516582
 20
5413.827331
 40
10.140000
 50
90.000000
 51
180.000000
  0
LINE
  8
0
  6
CONTINUOUS
 62
4
 10
7606.376582
 20
5373.267331
 11
7661.493802
 21
5373.267331
  0
LINE
  8
0
  6
CONTINUOUS
 62
4
 10
7651.353802
 20
5383.407331
 11
7616.516582
 21
5383.407331
  0
ARC
  8
0
  6
CONTINUOUS
 62
4
 10
7651.353802
 20
5373.267331
 40
10.140000
 50
360.000000
 51
90.000000
  0
ARC
  8
0
  6
CONTINUOUS
 62
4
 10
7616.516582
 20
5373.267331
 40
10.140000
 50
90.000000
 51
180.000000
  0
LINE
  8
0
  6
CONTINUOUS
 62
4
 10
7606.376582
 20
5332.707331
 11
7661.493802
 21
5332.707331
  0
LINE
  8
0
  6
CONTINUOUS
 62
4
 10
7651.353802
 20
5342.847331
 11
7616.516582
 21
5342.847331
  0
ARC
  8
0
  6
CONTINUOUS
 62
4
 10
7651.353802
 20
5332.707331
 40
10.140000
 50
360.000000
 51
90.000000
  0
ARC
  8
0
  6
CONTINUOUS
 62
4
 10
7616.516582
 20
5332.707331
 40
10.140000
 50
90.000000
 51
180.000000
  0
LINE
  8
0
  6
CONTINUOUS
 62
4
 10
7413.716582
 20
5535.507331
 11
7468.833802
 21
5535.507331
  0
LINE
  8
0
  6
CONTINUOUS
 62
4
 10
7458.693802
 20
5545.647331
 11
7423.856582
 21
5545.647331
  0
ARC
  8
0
  6
CONTINUOUS
 62
4
 10
7458.693802
 20
5535.507331
 40
10.140000
 50
360.000000
 51
90.000000
  0
ARC
  8
0
  6
CONTINUOUS
 62
4
 10
7423.856582
 20
5535.507331
 40
10.140000
 50
90.000000
 51
180.000000
  0
LINE
  8
0
  6
CONTINUOUS
 62
4
 10
7515.116582
 20
5535.507331
 11
7570.233802
 21
5535.507331
  0
LINE
  8
0
  6
CONTINUOUS
 62
4
 10
7560.093802
 20
5545.647331
 11
7525.256582
 21
5545.647331
  0
ARC
  8
0
  6
CONTINUOUS
 62
4
 10
7560.093802
 20
5535.507331
 40
10.140000
 50
360.000000
 51
90.000000
  0
ARC
  8
0
  6
CONTINUOUS
 62
4
 10
7525.256582
 20
5535.507331
 40
10.140000
 50
90.000000
 51
180.000000
  0
LINE
  8
0
  6
CONTINUOUS
 62
4
 10
7413.716582
 20
5494.947331
 11
7468.833802
 21
5494.947331
  0
LINE
  8
0
  6
CONTINUOUS
 62
4
 10
7458.693802
 20
5505.087331
 11
7423.856582
 21
5505.087331
  0
ARC
  8
0
  6
CONTINUOUS
 62
4
 10
7458.693802
 20
5494.947331
 40
10.140000
 50
360.000000
 51
90.000000
  0
ARC
  8
0
  6
CONTINUOUS
 62
4
 10
7423.856582
 20
5494.947331
 40
10.140000
 50
90.000000
 51
180.000000
  0
LINE
  8
0
  6
CONTINUOUS
 62
4
 10
7413.716582
 20
5454.387331
 11
7468.833802
 21
5454.387331
  0
LINE
  8
0
  6
CONTINUOUS
 62
4
 10
7458.693802
 20
5464.527331
 11
7423.856582
 21
5464.527331
  0
ARC
  8
0
  6
CONTINUOUS
 62
4
 10
7458.693802
 20
5454.387331
 40
10.140000
 50
360.000000
 51
90.000000
  0
ARC
  8
0
  6
CONTINUOUS
 62
4
 10
7423.856582
 20
5454.387331
 40
10.140000
 50
90.000000
 51
180.000000
  0
LINE
  8
0
  6
CONTINUOUS
 62
4
 10
7413.716582
 20
5413.827331
 11
7468.833802
 21
5413.827331
  0
LINE
  8
0
  6
CONTINUOUS
 62
4
 10
7458.693802
 20
5423.967331
 11
7423.856582
 21
5423.967331
  0
ARC
  8
0
  6
CONTINUOUS
 62
4
 10
7458.693802
 20
5413.827331
 40
10.140000
 50
360.000000
 51
90.000000
  0
ARC
  8
0
  6
CONTINUOUS
 62
4
 10
7423.856582
 20
5413.827331
 40
10.140000
 50
90.000000
 51
180.000000
  0
LINE
  8
0
  6
CONTINUOUS
 62
4
 10
7413.716582
 20
5373.267331
 11
7468.833802
 21
5373.267331
  0
LINE
  8
0
  6
CONTINUOUS
 62
4
 10
7458.693802
 20
5383.407331
 11
7423.856582
 21
5383.407331
  0
ARC
  8
0
  6
CONTINUOUS
 62
4
 10
7458.693802
 20
5373.267331
 40
10.140000
 50
360.000000
 51
90.000000
  0
ARC
  8
0
  6
CONTINUOUS
 62
4
 10
7423.856582
 20
5373.267331
 40
10.140000
 50
90.000000
 51
180.000000
  0
LINE
  8
0
  6
CONTINUOUS
 62
4
 10
7413.716582
 20
5332.707331
 11
7468.833802
 21
5332.707331
  0
LINE
  8
0
  6
CONTINUOUS
 62
4
 10
7458.693802
 20
5342.847331
 11
7423.856582
 21
5342.847331
  0
ARC
  8
0
  6
CONTINUOUS
 62
4
 10
7458.693802
 20
5332.707331
 40
10.140000
 50
360.000000
 51
90.000000
  0
ARC
  8
0
  6
CONTINUOUS
 62
4
 10
7423.856582
 20
5332.707331
 40
10.140000
 50
90.000000
 51
180.000000
  0
LINE
  8
0
  6
CONTINUOUS
 62
4
 10
7515.116582
 20
5494.947331
 11
7570.233802
 21
5494.947331
  0
LINE
  8
0
  6
CONTINUOUS
 62
4
 10
7560.093802
 20
5505.087331
 11
7525.256582
 21
5505.087331
  0
ARC
  8
0
  6
CONTINUOUS
 62
4
 10
7560.093802
 20
5494.947331
 40
10.140000
 50
360.000000
 51
90.000000
  0
ARC
  8
0
  6
CONTINUOUS
 62
4
 10
7525.256582
 20
5494.947331
 40
10.140000
 50
90.000000
 51
180.000000
  0
LINE
  8
0
  6
CONTINUOUS
 62
4
 10
7515.116582
 20
5454.387331
 11
7570.233802
 21
5454.387331
  0
LINE
  8
0
  6
CONTINUOUS
 62
4
 10
7560.093802
 20
5464.527331
 11
7525.256582
 21
5464.527331
  0
ARC
  8
0
  6
CONTINUOUS
 62
4
 10
7560.093802
 20
5454.387331
 40
10.140000
 50
360.000000
 51
90.000000
  0
ARC
  8
0
  6
CONTINUOUS
 62
4
 10
7525.256582
 20
5454.387331
 40
10.140000
 50
90.000000
 51
180.000000
  0
LINE
  8
0
  6
CONTINUOUS
 62
4
 10
7515.116582
 20
5413.827331
 11
7570.233802
 21
5413.827331
  0
LINE
  8
0
  6
CONTINUOUS
 62
4
 10
7560.093802
 20
5423.967331
 11
7525.256582
 21
5423.967331
  0
ARC
  8
0
  6
CONTINUOUS
 62
4
 10
7560.093802
 20
5413.827331
 40
10.140000
 50
360.000000
 51
90.000000
  0
ARC
  8
0
  6
CONTINUOUS
 62
4
 10
7525.256582
 20
5413.827331
 40
10.140000
 50
90.000000
 51
180.000000
  0
LINE
  8
0
  6
CONTINUOUS
 62
4
 10
7515.116582
 20
5373.267331
 11
7570.233802
 21
5373.267331
  0
LINE
  8
0
  6
CONTINUOUS
 62
4
 10
7560.093802
 20
5383.407331
 11
7525.256582
 21
5383.407331
  0
ARC
  8
0
  6
CONTINUOUS
 62
4
 10
7560.093802
 20
5373.267331
 40
10.140000
 50
360.000000
 51
90.000000
  0
ARC
  8
0
  6
CONTINUOUS
 62
4
 10
7525.256582
 20
5373.267331
 40
10.140000
 50
90.000000
 51
180.000000
  0
LINE
  8
0
  6
CONTINUOUS
 62
4
 10
7515.116582
 20
5332.707331
 11
7570.233802
 21
5332.707331
  0
LINE
  8
0
  6
CONTINUOUS
 62
4
 10
7560.093802
 20
5342.847331
 11
7525.256582
 21
5342.847331
  0
ARC
  8
0
  6
CONTINUOUS
 62
4
 10
7560.093802
 20
5332.707331
 40
10.140000
 50
360.000000
 51
90.000000
  0
ARC
  8
0
  6
CONTINUOUS
 62
4
 10
7525.256582
 20
5332.707331
 40
10.140000
 50
90.000000
 51
180.000000
  0
LINE
  8
0
  6
CONTINUOUS
 62
4
 10
7406.145222
 20
5892.302475
 11
7567.371222
 21
5892.302475
  0
LINE
  8
0
  6
CONTINUOUS
 62
4
 10
7567.371222
 20
5892.302475
 11
7567.371222
 21
5901.428475
  0
LINE
  8
0
  6
CONTINUOUS
 62
4
 10
7406.145222
 20
5901.428475
 11
7406.145222
 21
5892.302475
  0
LINE
  8
0
  6
CONTINUOUS
 62
4
 10
7406.145222
 20
5901.428475
 11
7406.145222
 21
5937.932475
  0
LINE
  8
0
  6
CONTINUOUS
 62
4
 10
7567.371222
 20
5922.722475
 11
7567.371222
 21
5916.638475
  0
LINE
  8
0
  6
CONTINUOUS
 62
4
 10
7406.145222
 20
5947.058475
 11
7567.371222
 21
5947.058475
  0
LINE
  8
0
  6
CONTINUOUS
 62
4
 10
7567.371222
 20
5947.058475
 11
7567.371222
 21
5954.663475
  0
LINE
  8
0
  6
CONTINUOUS
 62
4
 10
7567.371222
 20
5954.663475
 11
7406.145222
 21
5954.663475
  0
LINE
  8
0
  6
CONTINUOUS
 62
4
 10
7406.145222
 20
5954.663475
 11
7406.145222
 21
5947.058475
  0
LINE
  8
0
  6
CONTINUOUS
 62
4
 10
7406.145222
 20
5963.789475
 11
7567.371222
 21
5963.789475
  0
LINE
  8
0
  6
CONTINUOUS
 62
4
 10
7567.371222
 20
5963.789475
 11
7567.371222
 21
5969.873475
  0
LINE
  8
0
  6
CONTINUOUS
 62
4
 10
7567.371222
 20
5969.873475
 11
7406.145222
 21
5969.873475
  0
LINE
  8
0
  6
CONTINUOUS
 62
4
 10
7406.145222
 20
5969.873475
 11
7406.145222
 21
5963.789475
  0
LINE
  8
0
  6
CONTINUOUS
 62
4
 10
7406.145222
 20
5978.999475
 11
7567.371222
 21
5978.999475
  0
LINE
  8
0
  6
CONTINUOUS
 62
4
 10
7567.371222
 20
5978.999475
 11
7567.371222
 21
5983.562475
  0
LINE
  8
0
  6
CONTINUOUS
 62
4
 10
7567.371222
 20
5983.562475
 11
7406.145222
 21
5983.562475
  0
LINE
  8
0
  6
CONTINUOUS
 62
4
 10
7406.145222
 20
5983.562475
 11
7406.145222
 21
5978.999475
  0
LINE
  8
0
  6
CONTINUOUS
 62
4
 10
7406.145222
 20
5992.688475
 11
7567.371222
 21
5992.688475
  0
LINE
  8
0
  6
CONTINUOUS
 62
4
 10
7567.371222
 20
5992.688475
 11
7567.371222
 21
5995.730475
  0
LINE
  8
0
  6
CONTINUOUS
 62
4
 10
7567.371222
 20
5995.730475
 11
7406.145222
 21
5995.730475
  0
LINE
  8
0
  6
CONTINUOUS
 62
4
 10
7406.145222
 20
5995.730475
 11
7406.145222
 21
5992.688475
  0
LINE
  8
0
  6
CONTINUOUS
 62
4
 10
7406.145222
 20
6004.856475
 11
7567.371222
 21
6004.856475
  0
LINE
  8
0
  6
CONTINUOUS
 62
4
 10
7567.371222
 20
6004.856475
 11
7567.371222
 21
6006.377475
  0
LINE
  8
0
  6
CONTINUOUS
 62
4
 10
7567.371222
 20
6006.377475
 11
7406.145222
 21
6006.377475
  0
LINE
  8
0
  6
CONTINUOUS
 62
4
 10
7406.145222
 20
6006.377475
 11
7406.145222
 21
6004.856475
  0
LINE
  8
0
  6
CONTINUOUS
 62
4
 10
7445.691222
 20
5937.932475
 11
7445.691222
 21
5901.428475
  0
LINE
  8
0
  6
CONTINUOUS
 62
4
 10
7527.825222
 20
5916.638475
 11
7527.825222
 21
5922.722475
  0
LINE
  8
0
  6
CONTINUOUS
 62
4
 10
7556.724222
 20
5918.159475
 11
7556.724222
 21
5921.201475
  0
LINE
  8
0
  6
CONTINUOUS
 62
4
 10
7538.472222
 20
5921.201475
 11
7538.472222
 21
5918.159475
  0
ARC
  8
0
  6
CONTINUOUS
 62
4
 10
7547.598222
 20
5921.201475
 40
9.126000
 50
360.000000
 51
90.000000
  0
ARC
  8
0
  6
CONTINUOUS
 62
4
 10
7547.598222
 20
5921.201475
 40
9.126000
 50
90.000000
 51
180.000000
  0
ARC
  8
0
  6
CONTINUOUS
 62
4
 10
7547.598222
 20
5918.159475
 40
9.126000
 50
180.000000
 51
270.000000
  0
ARC
  8
0
  6
CONTINUOUS
 62
4
 10
7547.598222
 20
5918.159475
 40
9.126000
 50
270.000000
 51
360.000000
  0
LINE
  8
0
  6
CONTINUOUS
 62
4
 10
7543.035222
 20
5937.932475
 11
7552.161222
 21
5937.932475
  0
ARC
  8
0
  6
CONTINUOUS
 62
4
 10
7552.161222
 20
5922.722475
 40
15.210000
 50
360.000000
 51
90.000000
  0
ARC
  8
0
  6
CONTINUOUS
 62
4
 10
7552.161222
 20
5916.638475
 40
15.210000
 50
270.000000
 51
360.000000
  0
ARC
  8
0
  6
CONTINUOUS
 62
4
 10
7543.035222
 20
5916.638475
 40
15.210000
 50
180.000000
 51
270.000000
  0
ARC
  8
0
  6
CONTINUOUS
 62
4
 10
7543.035222
 20
5922.722475
 40
15.210000
 50
90.000000
 51
180.000000
  0
LINE
  8
0
  6
CONTINUOUS
 62
4
 10
7462.422222
 20
5937.932475
 11
7471.548222
 21
5937.932475
  0
LINE
  8
0
  6
CONTINUOUS
 62
4
 10
7487.602395
 20
5922.798564
 11
7487.602395
 21
5916.714564
  0
LINE
  8
0
  6
CONTINUOUS
 62
4
 10
7448.056395
 20
5916.714564
 11
7448.056395
 21
5922.798564
  0
LINE
  8
0
  6
CONTINUOUS
 62
4
 10
7476.955395
 20
5918.235564
 11
7476.955395
 21
5921.277564
  0
LINE
  8
0
  6
CONTINUOUS
 62
4
 10
7458.703395
 20
5921.277564
 11
7458.703395
 21
5918.235564
  0
ARC
  8
0
  6
CONTINUOUS
 62
4
 10
7467.829395
 20
5921.277564
 40
9.126000
 50
360.000000
 51
90.000000
  0
ARC
  8
0
  6
CONTINUOUS
 62
4
 10
7467.829395
 20
5921.277564
 40
9.126000
 50
90.000000
 51
180.000000
  0
ARC
  8
0
  6
CONTINUOUS
 62
4
 10
7467.829395
 20
5918.235564
 40
9.126000
 50
180.000000
 51
270.000000
  0
ARC
  8
0
  6
CONTINUOUS
 62
4
 10
7467.829395
 20
5918.235564
 40
9.126000
 50
270.000000
 51
360.000000
  0
LINE
  8
0
  6
CONTINUOUS
 62
4
 10
7463.266395
 20
5938.008564
 11
7472.392395
 21
5938.008564
  0
ARC
  8
0
  6
CONTINUOUS
 62
4
 10
7472.392395
 20
5922.798564
 40
15.210000
 50
360.000000
 51
90.000000
  0
ARC
  8
0
  6
CONTINUOUS
 62
4
 10
7472.392395
 20
5916.714564
 40
15.210000
 50
270.000000
 51
360.000000
  0
ARC
  8
0
  6
CONTINUOUS
 62
4
 10
7463.266395
 20
5916.714564
 40
15.210000
 50
180.000000
 51
270.000000
  0
ARC
  8
0
  6
CONTINUOUS
 62
4
 10
7463.266395
 20
5922.798564
 40
15.210000
 50
90.000000
 51
180.000000
  0
LINE
  8
0
  6
CONTINUOUS
 62
4
 10
7490.408622
 20
5937.932475
 11
7490.408622
 21
5901.428475
  0
LINE
  8
0
  6
CONTINUOUS
 62
4
 10
7525.391622
 20
5901.428475
 11
7525.391622
 21
5937.932475
  0
LINE
  8
0
  6
CONTINUOUS
 62
4
 10
7415.271222
 20
5924.243475
 11
7415.271222
 21
5901.428475
  0
LINE
  8
0
  6
CONTINUOUS
 62
4
 10
7415.271222
 20
5924.243475
 11
7422.876222
 21
5901.428475
  0
LINE
  8
0
  6
CONTINUOUS
 62
4
 10
7436.565222
 20
5901.428475
 11
7436.565222
 21
5924.243475
  0
LINE
  8
0
  6
CONTINUOUS
 62
4
 10
7428.960222
 20
5901.428475
 11
7436.565222
 21
5924.243475
  0
LINE
  8
0
  6
CONTINUOUS
 62
4
 10
7430.481222
 20
5937.932475
 11
7425.918222
 21
5924.243475
  0
LINE
  8
0
  6
CONTINUOUS
 62
4
 10
7425.918222
 20
5924.243475
 11
7421.355222
 21
5937.932475
  0
LINE
  8
0
  6
CONTINUOUS
 62
4
 10
7445.691222
 20
5937.932475
 11
7430.481222
 21
5937.932475
  0
LINE
  8
0
  6
CONTINUOUS
 62
4
 10
7421.355222
 20
5937.932475
 11
7406.145222
 21
5937.932475
  0
LINE
  8
0
  6
CONTINUOUS
 62
4
 10
7422.876222
 20
5901.428475
 11
7415.271222
 21
5901.428475
  0
LINE
  8
0
  6
CONTINUOUS
 62
4
 10
7567.371222
 20
5901.428475
 11
7552.161222
 21
5901.428475
  0
LINE
  8
0
  6
CONTINUOUS
 62
4
 10
7501.055622
 20
5901.428475
 11
7501.055622
 21
5921.201475
  0
LINE
  8
0
  6
CONTINUOUS
 62
4
 10
7514.744622
 20
5937.932475
 11
7514.744622
 21
5918.159475
  0
LINE
  8
0
  6
CONTINUOUS
 62
4
 10
7501.055622
 20
5937.932475
 11
7514.744622
 21
5918.159475
  0
LINE
  8
0
  6
CONTINUOUS
 62
4
 10
7514.744622
 20
5901.428475
 11
7501.055622
 21
5921.201475
  0
LINE
  8
0
  6
CONTINUOUS
 62
4
 10
7490.408622
 20
5937.932475
 11
7501.055622
 21
5937.932475
  0
LINE
  8
0
  6
CONTINUOUS
 62
4
 10
7514.744622
 20
5937.932475
 11
7525.391622
 21
5937.932475
  0
LINE
  8
0
  6
CONTINUOUS
 62
4
 10
7472.392395
 20
5901.504564
 11
7490.408622
 21
5901.428475
  0
LINE
  8
0
  6
CONTINUOUS
 62
4
 10
7501.055622
 20
5901.428475
 11
7514.744622
 21
5901.428475
  0
LINE
  8
0
  6
CONTINUOUS
 62
4
 10
7525.391622
 20
5901.428475
 11
7543.035222
 21
5901.428475
  0
LINE
  8
0
  6
CONTINUOUS
 62
4
 10
7463.266395
 20
5901.428475
 11
7445.691222
 21
5901.428475
  0
LINE
  8
0
  6
CONTINUOUS
 62
4
 10
7436.565222
 20
5901.428475
 11
7428.960222
 21
5901.428475
  0
LINE
  8
0
  6
CONTINUOUS
 62
4
 10
7607.832596
 20
7101.844623
 11
7360.155192
 21
7101.844623
  0
LINE
  8
0
  6
CONTINUOUS
 62
4
 10
7360.155192
 20
7030.864623
 11
7607.832596
 21
7030.864623
  0
CIRCLE
  8
0
  6
CONTINUOUS
 62
4
 10
7483.448104
 20
7156.534323
 40
30.420000
  0
LINE
  8
0
  6
CONTINUOUS
 62
4
 10
7450.379054
 20
7189.931220
 11
7450.379054
 21
7123.074511
  0
LINE
  8
0
  6
CONTINUOUS
 62
4
 10
7450.379054
 20
7123.074511
 11
7515.997677
 21
7123.074511
  0
LINE
  8
0
  6
CONTINUOUS
 62
4
 10
7450.379054
 20
7189.931220
 11
7515.997677
 21
7189.931220
  0
LINE
  8
0
  6
CONTINUOUS
 62
4
 10
7515.997677
 20
7189.931220
 11
7515.997677
 21
7123.074511
  0
LINE
  8
0
  6
CONTINUOUS
 62
4
 10
7477.788558
 20
7178.487673
 11
7477.788558
 21
7135.293019
  0
LINE
  8
0
  6
CONTINUOUS
 62
4
 10
7483.872558
 20
7129.209019
 11
7482.741733
 21
7129.209019
  0
LINE
  8
0
  6
CONTINUOUS
 62
4
 10
7488.825733
 20
7135.293019
 11
7488.825733
 21
7178.487673
  0
LINE
  8
0
  6
CONTINUOUS
 62
4
 10
7488.825733
 20
7178.487673
 11
7477.788558
 21
7178.487673
  0
ARC
  8
0
  6
CONTINUOUS
 62
4
 10
7482.741733
 20
7135.293019
 40
6.084000
 50
270.000000
 51
360.000000
  0
ARC
  8
0
  6
CONTINUOUS
 62
4
 10
7483.872558
 20
7135.293019
 40
6.084000
 50
180.000000
 51
270.000000
  0
LINE
  8
0
  6
CONTINUOUS
 62
4
 10
7674.524381
 20
7292.147331
 11
7289.175192
 21
7292.147331
  0
CIRCLE
  8
0
  6
CONTINUOUS
 62
4
 10
7340.744501
 20
7272.786653
 40
10.140000
  0
CIRCLE
  8
0
  6
CONTINUOUS
 62
4
 10
7340.744501
 20
7272.786653
 40
6.084000
  0
LINE
  8
0
  6
CONTINUOUS
 62
4
 10
7445.339248
 20
7117.527796
 11
7521.721219
 21
7117.527796
  0
LINE
  8
0
  6
CONTINUOUS
 62
4
 10
7521.721219
 20
7117.527796
 11
7521.721219
 21
7208.186770
  0
LINE
  8
0
  6
CONTINUOUS
 62
4
 10
7521.721219
 20
7208.186770
 11
7445.339248
 21
7208.186770
  0
LINE
  8
0
  6
CONTINUOUS
 62
4
 10
7445.339248
 20
7208.186770
 11
7445.339248
 21
7117.527796
  0
LINE
  8
0
  6
CONTINUOUS
 62
4
 10
7461.043953
 20
7193.195916
 11
7503.874964
 21
7193.195916
  0
LINE
  8
0
  6
CONTINUOUS
 62
4
 10
7503.874964
 20
7193.195916
 11
7503.874964
 21
7203.903669
  0
LINE
  8
0
  6
CONTINUOUS
 62
4
 10
7503.874964
 20
7203.903669
 11
7461.043953
 21
7203.903669
  0
LINE
  8
0
  6
CONTINUOUS
 62
4
 10
7461.043953
 20
7203.903669
 11
7461.043953
 21
7193.195916
  0
CIRCLE
  8
0
  6
CONTINUOUS
 62
4
 10
7483.448104
 20
7156.534323
 40
5.070000
  0
LINE
  8
0
  6
CONTINUOUS
 62
4
 10
7403.295253
 20
6766.291377
 11
7568.523007
 21
6766.291377
  0
LINE
  8
0
  6
CONTINUOUS
 62
4
 10
7568.523007
 20
6766.291377
 11
7568.523007
 21
6873.203453
  0
LINE
  8
0
  6
CONTINUOUS
 62
4
 10
7568.523007
 20
6873.203453
 11
7403.295253
 21
6873.203453
  0
LINE
  8
0
  6
CONTINUOUS
 62
4
 10
7403.295253
 20
6873.203453
 11
7403.295253
 21
6766.291377
  0
LINE
  8
0
  6
CONTINUOUS
 62
4
 10
7360.155192
 20
7292.147331
 11
7360.155192
 21
5591.533340
  0
LINE
  8
0
  6
CONTINUOUS
 62
4
 10
7607.832596
 20
5591.533340
 11
7607.832596
 21
7292.147331
  0
LINE
  8
0
  6
CONTINUOUS
 62
4
 10
7289.175192
 20
5591.533340
 11
7719.175192
 21
5591.533340
  0
LINE
  8
0
  6
CONTINUOUS
 62
4
 10
8039.469506
 20
7292.147331
 11
8039.469506
 21
5342.147331
  0
LINE
  8
0
  6
CONTINUOUS
 62
4
 10
8039.469506
 20
5754.976134
 11
8292.969506
 21
5754.976134
  0
LINE
  8
0
  6
CONTINUOUS
 62
4
 10
8039.469506
 20
5825.956134
 11
8292.969506
 21
5825.956134
  0
LINE
  8
0
  6
CONTINUOUS
 62
4
 10
8039.469506
 20
6995.667331
 11
8292.969506
 21
6995.667331
  0
LINE
  8
0
  6
CONTINUOUS
 62
4
 10
8039.469506
 20
7066.647331
 11
8292.969506
 21
7066.647331
  0
LINE
  8
0
  6
CONTINUOUS
 62
4
 10
8292.969506
 20
5342.147331
 11
8292.969506
 21
7292.147331
  0
CIRCLE
  8
0
  6
CONTINUOUS
 62
4
 10
7822.923382
 20
6324.376576
 40
20.280000
  0
LINE
  8
0
  6
CONTINUOUS
 62
4
 10
7809.121505
 20
6309.517686
 11
7809.121505
 21
6154.641224
  0
LINE
  8
0
  6
CONTINUOUS
 62
4
 10
7836.725258
 20
6309.517686
 11
7836.725258
 21
6154.641224
  0
LINE
  8
0
  6
CONTINUOUS
 62
4
 10
7830.641258
 20
6148.557224
 11
7815.205505
 21
6148.557224
  0
ARC
  8
0
  6
CONTINUOUS
 62
4
 10
7830.641258
 20
6154.641224
 40
6.084000
 50
270.000000
 51
360.000000
  0
ARC
  8
0
  6
CONTINUOUS
 62
4
 10
7815.205505
 20
6154.641224
 40
6.084000
 50
180.000000
 51
270.000000
  0
LINE
  8
0
  6
CONTINUOUS
 62
4
 10
8180.567298
 20
5989.400424
 11
8099.447298
 21
5908.280424
  0
LINE
  8
0
  6
CONTINUOUS
 62
4
 10
8200.847298
 20
5989.400424
 11
8099.447298
 21
5888.000424
  0
LINE
  8
0
  6
CONTINUOUS
 62
4
 10
8241.407298
 20
6009.680424
 11
8160.287298
 21
5928.560424
  0
LINE
  8
0
  6
CONTINUOUS
 62
4
 10
8221.127298
 20
5969.120424
 11
8140.007298
 21
5888.000424
  0
LINE
  8
0
  6
CONTINUOUS
 62
4
 10
8119.727298
 20
5847.440424
 11
8221.127298
 21
5948.840424
  0
LINE
  8
0
  6
CONTINUOUS
 62
4
 10
8261.687298
 20
5969.120424
 11
8160.287298
 21
5867.720424
  0
LINE
  8
0
  6
CONTINUOUS
 62
4
 10
8099.447298
 20
5948.840424
 11
8180.567298
 21
5867.720424
  0
LINE
  8
0
  6
CONTINUOUS
 62
4
 10
8099.447298
 20
5969.120424
 11
8160.287298
 21
5908.280424
  0
LINE
  8
0
  6
CONTINUOUS
 62
4
 10
8119.727298
 20
5969.120424
 11
8200.847298
 21
5888.000424
  0
LINE
  8
0
  6
CONTINUOUS
 62
4
 10
8119.727298
 20
5989.400424
 11
8221.127298
 21
5888.000424
  0
LINE
  8
0
  6
CONTINUOUS
 62
4
 10
8140.007298
 20
5989.400424
 11
8241.407298
 21
5888.000424
  0
LINE
  8
0
  6
CONTINUOUS
 62
4
 10
8160.287298
 20
5989.400424
 11
8241.407298
 21
5908.280424
  0
LINE
  8
0
  6
CONTINUOUS
 62
4
 10
8145.944242
 20
6947.026801
 11
8227.064242
 21
6865.906801
  0
LINE
  8
0
  6
CONTINUOUS
 62
4
 10
8125.664242
 20
6947.026801
 11
8227.064242
 21
6845.626801
  0
LINE
  8
0
  6
CONTINUOUS
 62
4
 10
8085.104242
 20
6967.306801
 11
8166.224242
 21
6886.186801
  0
LINE
  8
0
  6
CONTINUOUS
 62
4
 10
8105.384242
 20
6926.746801
 11
8186.504242
 21
6845.626801
  0
LINE
  8
0
  6
CONTINUOUS
 62
4
 10
8206.784242
 20
6805.066801
 11
8105.384242
 21
6906.466801
  0
LINE
  8
0
  6
CONTINUOUS
 62
4
 10
8064.824242
 20
6926.746801
 11
8166.224242
 21
6825.346801
  0
LINE
  8
0
  6
CONTINUOUS
 62
4
 10
8227.064242
 20
6906.466801
 11
8145.944242
 21
6825.346801
  0
LINE
  8
0
  6
CONTINUOUS
 62
4
 10
8227.064242
 20
6926.746801
 11
8166.224242
 21
6865.906801
  0
LINE
  8
0
  6
CONTINUOUS
 62
4
 10
8206.784242
 20
6926.746801
 11
8125.664242
 21
6845.626801
  0
LINE
  8
0
  6
CONTINUOUS
 62
4
 10
8206.784242
 20
6947.026801
 11
8105.384242
 21
6845.626801
  0
LINE
  8
0
  6
CONTINUOUS
 62
4
 10
8186.504242
 20
6947.026801
 11
8085.104242
 21
6845.626801
  0
LINE
  8
0
  6
CONTINUOUS
 62
4
 10
8166.224242
 20
6947.026801
 11
8085.104242
 21
6865.906801
  0
LINE
  8
0
  6
CONTINUOUS
 62
4
 10
8155.271771
 20
6458.886083
 11
8236.391771
 21
6377.766083
  0
LINE
  8
0
  6
CONTINUOUS
 62
4
 10
8134.991771
 20
6458.886083
 11
8236.391771
 21
6357.486083
  0
LINE
  8
0
  6
CONTINUOUS
 62
4
 10
8094.431771
 20
6479.166083
 11
8175.551771
 21
6398.046083
  0
LINE
  8
0
  6
CONTINUOUS
 62
4
 10
8114.711771
 20
6438.606083
 11
8195.831771
 21
6357.486083
  0
LINE
  8
0
  6
CONTINUOUS
 62
4
 10
8216.111771
 20
6316.926083
 11
8114.711771
 21
6418.326083
  0
LINE
  8
0
  6
CONTINUOUS
 62
4
 10
8074.151771
 20
6438.606083
 11
8175.551771
 21
6337.206083
  0
LINE
  8
0
  6
CONTINUOUS
 62
4
 10
8236.391771
 20
6418.326083
 11
8155.271771
 21
6337.206083
  0
LINE
  8
0
  6
CONTINUOUS
 62
4
 10
8236.391771
 20
6438.606083
 11
8175.551771
 21
6377.766083
  0
LINE
  8
0
  6
CONTINUOUS
 62
4
 10
8216.111771
 20
6438.606083
 11
8134.991771
 21
6357.486083
  0
LINE
  8
0
  6
CONTINUOUS
 62
4
 10
8216.111771
 20
6458.886083
 11
8114.711771
 21
6357.486083
  0
LINE
  8
0
  6
CONTINUOUS
 62
4
 10
8195.831771
 20
6458.886083
 11
8094.431771
 21
6357.486083
  0
LINE
  8
0
  6
CONTINUOUS
 62
4
 10
8175.551771
 20
6458.886083
 11
8094.431771
 21
6377.766083
  0
LINE
  8
0
  6
CONTINUOUS
 62
4
 10
7737.297506
 20
7292.147331
 11
7737.297506
 21
5292.147331
  0
LINE
  8
0
  6
CONTINUOUS
 62
4
 10
8052.519403
 20
7077.856242
 11
8275.437940
 21
7077.856242
  0
LINE
  8
0
  6
CONTINUOUS
 62
4
 10
8275.437940
 20
7077.856242
 11
8275.437940
 21
7245.045145
  0
LINE
  8
0
  6
CONTINUOUS
 62
4
 10
8275.437940
 20
7245.045145
 11
8052.519403
 21
7245.045145
  0
LINE
  8
0
  6
CONTINUOUS
 62
4
 10
8052.519403
 20
7245.045145
 11
8052.519403
 21
7077.856242
  0
TEXT
  8
0
  6
CONTINUOUS
 62
4
 10
8073.656236
 20
7206.228057
 40
30.420000
  1
CAUTION
 50
0.000000
 41
1.000000
 51
0.000000
  7
STANDARD
  0
TEXT
  8
0
  6
CONTINUOUS
 62
4
 10
8073.656236
 20
7145.388057
 40
30.420000
  1
  HOT
 50
0.000000
 41
1.000000
 51
0.000000
  7
STANDARD
  0
TEXT
  8
0
  6
CONTINUOUS
 62
4
 10
8073.656236
 20
7084.548057
 40
30.420000
  1
SURFACES
 50
0.000000
 41
1.000000
 51
0.000000
  7
STANDARD
  0
LINE
  8
0
  6
CONTINUOUS
 62
4
 10
7749.063146
 20
5355.054246
 11
8018.751349
 21
5355.054246
  0
LINE
  8
0
  6
CONTINUOUS
 62
4
 10
8018.751349
 20
5355.054246
 11
8018.751349
 21
5547.134333
  0
LINE
  8
0
  6
CONTINUOUS
 62
4
 10
8018.751349
 20
5547.134333
 11
7749.063146
 21
5547.134333
  0
LINE
  8
0
  6
CONTINUOUS
 62
4
 10
7749.063146
 20
5547.134333
 11
7749.063146
 21
5355.054246
  0
CIRCLE
  8
0
  6
CONTINUOUS
 62
4
 10
7768.727288
 20
5528.426467
 40
5.070000
  0
CIRCLE
  8
0
  6
CONTINUOUS
 62
4
 10
8003.981207
 20
5528.426467
 40
5.070000
  0
CIRCLE
  8
0
  6
CONTINUOUS
 62
4
 10
7764.767895
 20
5370.050757
 40
5.070000
  0
CIRCLE
  8
0
  6
CONTINUOUS
 62
4
 10
8002.661410
 20
5369.390858
 40
5.070000
  0
LINE
  8
0
  6
CONTINUOUS
 62
4
 10
8569.449703
 20
5342.147331
 11
7737.297506
 21
5342.147331
  0
LINE
  8
0
  6
CONTINUOUS
 62
4
 10
7453.281488
 20
7793.779713
 11
7453.281488
 21
7872.147331
  0
LINE
  8
0
  6
CONTINUOUS
 62
4
 10
7453.281488
 20
7872.147331
 11
7603.712260
 21
7872.147331
  0
LINE
  8
0
  6
CONTINUOUS
 62
4
 10
7603.712260
 20
7872.147331
 11
7603.712260
 21
7793.779713
  0
LINE
  8
0
  6
CONTINUOUS
 62
4
 10
7453.281488
 20
7842.165803
 11
7603.712260
 21
7842.165803
  0
LINE
  8
0
  6
CONTINUOUS
 62
4
 10
7509.341074
 20
7842.165803
 11
7509.341074
 21
7793.779713
  0
LINE
  8
0
  6
CONTINUOUS
 62
4
 10
7495.607755
 20
7842.165803
 11
7495.607755
 21
7793.779713
  0
LINE
  8
0
  6
CONTINUOUS
 62
4
 10
7481.492955
 20
7842.165803
 11
7481.492955
 21
7793.779713
  0
LINE
  8
0
  6
CONTINUOUS
 62
4
 10
7472.718890
 20
7842.165803
 11
7472.718890
 21
7793.779713
  0
LINE
  8
0
  6
CONTINUOUS
 62
4
 10
7465.089269
 20
7842.165803
 11
7465.089269
 21
7793.779713
  0
LINE
  8
0
  6
CONTINUOUS
 62
4
 10
7460.511496
 20
7842.165803
 11
7460.511496
 21
7793.779713
  0
LINE
  8
0
  6
CONTINUOUS
 62
4
 10
7457.459647
 20
7842.165803
 11
7457.459647
 21
7793.779713
  0
LINE
  8
0
  6
CONTINUOUS
 62
4
 10
7455.552242
 20
7842.165803
 11
7455.552242
 21
7793.779713
  0
LINE
  8
0
  6
CONTINUOUS
 62
4
 10
7528.496874
 20
7842.165803
 11
7528.496874
 21
7793.779713
  0
LINE
  8
0
  6
CONTINUOUS
 62
4
 10
7547.652674
 20
7842.165803
 11
7547.652674
 21
7793.779713
  0
LINE
  8
0
  6
CONTINUOUS
 62
4
 10
7561.385993
 20
7842.165803
 11
7561.385993
 21
7793.779713
  0
LINE
  8
0
  6
CONTINUOUS
 62
4
 10
7575.500793
 20
7842.165803
 11
7575.500793
 21
7793.779713
  0
LINE
  8
0
  6
CONTINUOUS
 62
4
 10
7584.274858
 20
7842.165803
 11
7584.274858
 21
7793.779713
  0
LINE
  8
0
  6
CONTINUOUS
 62
4
 10
7591.904479
 20
7842.165803
 11
7591.904479
 21
7793.779713
  0
LINE
  8
0
  6
CONTINUOUS
 62
4
 10
7596.482252
 20
7842.165803
 11
7596.482252
 21
7793.779713
  0
LINE
  8
0
  6
CONTINUOUS
 62
4
 10
7599.534101
 20
7842.165803
 11
7599.534101
 21
7793.779713
  0
LINE
  8
0
  6
CONTINUOUS
 62
4
 10
7601.441507
 20
7842.165803
 11
7601.441507
 21
7793.779713
  0
LINE
  8
0
  6
DASHED
 62
4
 10
8540.853346
 20
7702.519713
 11
8642.253346
 21
7702.519713
  0
LINE
  8
0
  6
DASHED
 62
4
 10
8752.129860
 20
7812.466295
 11
8440.129860
 21
7812.466295
  0
LINE
  8
0
  6
DASHED
 62
4
 10
8518.129860
 20
7892.147331
 11
8674.129860
 21
7892.147331
  0
LINE
  8
0
  6
DASHED
 62
4
 10
8518.129860
 20
7892.147331
 11
8518.129860
 21
7812.466295
  0
LINE
  8
0
  6
DASHED
 62
4
 10
8674.129860
 20
7892.147331
 11
8674.129860
 21
7812.466295
  0
LINE
  8
0
  6
CONTINUOUS
 62
4
 10
8440.129860
 20
7705.339941
 11
8440.129860
 21
7812.466295
  0
LINE
  8
0
  6
CONTINUOUS
 62
4
 10
8440.129860
 20
7812.466295
 11
8752.129860
 21
7812.466295
  0
LINE
  8
0
  6
CONTINUOUS
 62
4
 10
8752.129860
 20
7812.466295
 11
8752.129860
 21
7702.147331
  0
LINE
  8
0
  6
CONTINUOUS
 62
4
 10
8674.129860
 20
7812.466295
 11
8674.129860
 21
7892.147331
  0
LINE
  8
0
  6
CONTINUOUS
 62
4
 10
8674.129860
 20
7892.147331
 11
8518.129860
 21
7892.147331
  0
LINE
  8
0
  6
CONTINUOUS
 62
4
 10
8518.129860
 20
7892.147331
 11
8518.129860
 21
7812.466295
  0
LINE
  8
0
  6
CONTINUOUS
 62
4
 10
7453.281488
 20
7793.779713
 11
7453.281488
 21
7702.147331
  0
LINE
  8
0
  6
CONTINUOUS
 62
4
 10
7603.712260
 20
7793.779713
 11
7603.712260
 21
7702.147331
  0
LINE
  8
0
  6
CONTINUOUS
 62
4
 10
7723.457273
 20
7717.485415
 11
7750.395606
 21
7702.147331
  0
TEXT
  8
0
  6
CONTINUOUS
 62
4
 10
8573.268439
 20
7455.484318
 40
60.000000
  1
MXc
 50
0.000000
 41
1.000000
 51
0.000000
  7
STANDARD
  0
DIMENSION
  8
0
 62
1
  2
*D1
 70
0
  1
<>
 10
8029.175192
 20
8129.710415
 11
8029.175192
 21
8129.710415
 13
7289.175192
 23
7702.147331
 14
8769.175192
 24
7702.147331
 50
0.000000
  0
DIMENSION
  8
0
 62
1
  2
*D2
 70
0
  1
<>
 10
6909.937458
 20
6497.147331
 11
6909.937458
 21
6497.147331
 13
7289.175192
 23
7702.147331
 14
7289.175192
 24
5292.147331
 50
-90.000000
  0
INSERT
  2
A1-SHEET
  8
BORDER
 10
200.000000
 20
200.000000
 41
20.000000
 42
20.000000
 50
0.000000
  0
ENDSEC
  0
EOF
