  0
SECTION
  2
HEADER
  9
$LIMMIN
 10
0.000000
 20
0.000000
  9
$LIMMAX
 10
8408.964153
 20
5946.035575
  9
$EXTMIN
 10
0.000000
 20
0.000000
  9
$EXTMAX
 10
8408.964153
 20
5946.035575
  9
$ANGBASE
 50
0.0
  9
$ANGDIR
 70
0
  9
$DIMRND
 40
0.100000
  9
$DIMSE1
 70
0
  9
$DIMSE2
 70
0
  9
$DIMTXT
 40
3.500000
  9
$LTSCALE
 40
1.000000
  9
$LUPREC
 70
0
  9
$AUPREC
 70
0
  9
$PDMODE
 70
2
  9
$PDSIZE
 40
42.044821
  0
ENDSEC
  0
SECTION
  2
TABLES
  0
TABLE
  2
VPORT
  70
1
  0
VPORT
  2
*ACTIVE
 70
0
  10
0.0
 20
0.0
 11
1.0
 21
1.0
 12
594.0
 22
420.0
 13
0.0
 23
0.0
 14
10.0
 24
10.0
 15
10.0
 25
10.0
 16
0.0
 26
0.0
 36
1.0
 17
594.0
 27
420.0
 37
100.0
 40
1000.0
 41
1.0
 42
50.0
 43
0.0
 44
0.0
 50
0.0
 51
0.0
 71
0
 72
2000
 73
1
 74
3
 75
0
 76
0
 77
0
 78
1
  0
ENDTAB
  0
TABLE
  2
LTYPE
 70
4
  0
LTYPE
  2
CONTINUOUS
 70
0
  3
Solid line
 72
65
 73
0
 40
0.0
  0
LTYPE
  2
DASHED
 70
0
  3
Dashed line
 72
65
 73
2
 40
60.000000
 49
30.000000
 49
-30.000000
  0
LTYPE
  2
CENTER
 70
0
  3
Chain line
 72
65
 73
4
 40
240.000000
 49
150.000000
 49
-30.000000
 49
30.000000
 49
-30.000000
  0
LTYPE
  2
RANDOM
 70
0
  3
Random line
 72
65
 73
4
 40
225.000000
 49
60.000000
 49
-30.000000
 49
45.000000
 49
-90.000000
  0
ENDTAB
  0
TABLE
  2
STYLE
 70
9
  0
STYLE
  2
STANDARD
 40
0
 41
1.0
 50
0.0
 71
0
 42
0
  3
simplex
  4

 70
0
  0
ENDTAB
  0
TABLE
  2
LAYER
 70
3
  0
LAYER
  2
0
 70
0
 62
7
  6
CONTINUOUS
  0
LAYER
  2
0
 62
1
  6
CONTINUOUS
 70
0
  0
LAYER
  2
BORDER
 62
1
  6
CONTINUOUS
 70
0
  0
ENDTAB
  0
ENDSEC
  0
SECTION
  2
BLOCKS
  0
BLOCK
  2
A1-SHEET
  8
0
 70
0
 10
0.0
 20
0.0
 30
0.0
  0
LINE
  8
0
  6
CONTINUOUS
 62
1
 10
0.000000
 20
0.293588
 11
0.000000
 21
570.293588
  0
LINE
  8
0
  6
CONTINUOUS
 62
1
 10
810.896415
 20
0.293588
 11
0.000000
 21
0.293588
  0
LINE
  8
0
  6
CONTINUOUS
 62
1
 10
0.000000
 20
570.293588
 11
810.896415
 21
570.293588
  0
LINE
  8
0
  6
CONTINUOUS
 62
1
 10
810.896415
 20
0.293588
 11
810.896415
 21
570.293588
  0
LINE
  8
0
  6
CONTINUOUS
 62
1
 10
405.448208
 20
570.293588
 11
405.448208
 21
573.293588
  0
LINE
  8
0
  6
CONTINUOUS
 62
1
 10
608.172311
 20
570.293588
 11
608.172311
 21
573.293588
  0
LINE
  8
0
  6
CONTINUOUS
 62
1
 10
202.724104
 20
570.293588
 11
202.724104
 21
573.293588
  0
LINE
  8
0
  6
CONTINUOUS
 62
1
 10
101.362052
 20
570.293588
 11
101.362052
 21
573.293588
  0
LINE
  8
0
  6
CONTINUOUS
 62
1
 10
304.086156
 20
570.293588
 11
304.086156
 21
569.894507
  0
LINE
  8
0
  6
CONTINUOUS
 62
1
 10
304.086156
 20
569.894507
 11
304.086156
 21
573.293588
  0
LINE
  8
0
  6
CONTINUOUS
 62
1
 10
506.810260
 20
570.293588
 11
506.810260
 21
573.293588
  0
LINE
  8
0
  6
CONTINUOUS
 62
1
 10
709.534363
 20
570.293588
 11
709.534363
 21
573.293588
  0
TEXT
  8
0
  6
CONTINUOUS
 62
2
 10
99.855229
 20
574.935709
 40
3.000000
  1
1
 50
0.000000
 41
1.000000
 51
0.000000
  7
STANDARD
  0
TEXT
  8
0
  6
CONTINUOUS
 62
2
 10
201.603454
 20
574.761780
 40
3.000000
  1
2
 50
0.000000
 41
1.000000
 51
0.000000
  7
STANDARD
  0
TEXT
  8
0
  6
CONTINUOUS
 62
2
 10
303.425760
 20
574.928387
 40
3.000000
  1
3
 50
0.000000
 41
1.000000
 51
0.000000
  7
STANDARD
  0
TEXT
  8
0
  6
CONTINUOUS
 62
2
 10
403.692370
 20
574.751238
 40
3.000000
  1
4
 50
0.000000
 41
1.000000
 51
0.000000
  7
STANDARD
  0
TEXT
  8
0
  6
CONTINUOUS
 62
2
 10
505.761611
 20
574.628257
 40
3.000000
  1
5
 50
0.000000
 41
1.000000
 51
0.000000
  7
STANDARD
  0
TEXT
  8
0
  6
CONTINUOUS
 62
2
 10
607.243575
 20
575.166148
 40
3.000000
  1
6
 50
0.000000
 41
1.000000
 51
0.000000
  7
STANDARD
  0
TEXT
  8
0
  6
CONTINUOUS
 62
2
 10
708.456940
 20
573.963183
 40
3.000000
  1
7
 50
0.000000
 41
1.000000
 51
0.000000
  7
STANDARD
  0
LINE
  8
0
  6
CONTINUOUS
 62
3
 10
405.448208
 20
570.293588
 11
405.448208
 21
565.293588
  0
LINE
  8
0
  6
CONTINUOUS
 62
1
 10
810.896415
 20
285.293588
 11
813.896415
 21
285.293588
  0
LINE
  8
0
  6
CONTINUOUS
 62
1
 10
810.896415
 20
427.793588
 11
813.896415
 21
427.793588
  0
LINE
  8
0
  6
CONTINUOUS
 62
1
 10
810.896415
 20
142.793588
 11
813.896415
 21
142.793588
  0
LINE
  8
0
  6
CONTINUOUS
 62
1
 10
810.896415
 20
499.043588
 11
813.896415
 21
499.043588
  0
LINE
  8
0
  6
CONTINUOUS
 62
1
 10
810.896415
 20
356.543588
 11
813.896415
 21
356.543588
  0
LINE
  8
0
  6
CONTINUOUS
 62
1
 10
810.896415
 20
214.043588
 11
813.896415
 21
214.043588
  0
LINE
  8
0
  6
CONTINUOUS
 62
1
 10
810.896415
 20
71.543588
 11
813.896415
 21
71.543588
  0
TEXT
  8
0
  6
CONTINUOUS
 62
2
 10
814.731259
 20
497.682453
 40
3.000000
  1
A
 50
0.000000
 41
1.000000
 51
0.000000
  7
STANDARD
  0
TEXT
  8
0
  6
CONTINUOUS
 62
2
 10
814.617524
 20
426.633648
 40
3.000000
  1
B
 50
0.000000
 41
1.000000
 51
0.000000
  7
STANDARD
  0
TEXT
  8
0
  6
CONTINUOUS
 62
2
 10
815.378220
 20
355.128239
 40
3.000000
  1
C
 50
0.000000
 41
1.000000
 51
0.000000
  7
STANDARD
  0
TEXT
  8
0
  6
CONTINUOUS
 62
2
 10
815.265962
 20
284.354684
 40
3.000000
  1
D
 50
0.000000
 41
1.000000
 51
0.000000
  7
STANDARD
  0
TEXT
  8
0
  6
CONTINUOUS
 62
2
 10
815.477184
 20
212.961533
 40
3.000000
  1
E
 50
0.000000
 41
1.000000
 51
0.000000
  7
STANDARD
  0
TEXT
  8
0
  6
CONTINUOUS
 62
2
 10
814.828747
 20
141.734274
 40
3.000000
  1
F
 50
0.000000
 41
1.000000
 51
0.000000
  7
STANDARD
  0
TEXT
  8
0
  6
CONTINUOUS
 62
2
 10
815.320614
 20
69.921633
 40
3.000000
  1
G
 50
0.000000
 41
1.000000
 51
0.000000
  7
STANDARD
  0
LINE
  8
0
  6
CONTINUOUS
 62
3
 10
810.896415
 20
285.293588
 11
807.896415
 21
285.293588
  0
LINE
  8
0
  6
CONTINUOUS
 62
1
 10
578.313470
 20
19.293588
 11
578.313470
 21
0.000000
  0
LINE
  8
0
  6
CONTINUOUS
 62
1
 10
284.611031
 20
19.293588
 11
284.611031
 21
0.293588
  0
LINE
  8
0
  6
CONTINUOUS
 62
1
 10
810.896415
 20
563.293588
 11
653.667813
 21
563.293588
  0
LINE
  8
0
  6
CONTINUOUS
 62
1
 10
107.451868
 20
563.293588
 11
0.000000
 21
563.293588
  0
LINE
  8
0
  6
CONTINUOUS
 62
1
 10
0.000000
 20
19.293588
 11
623.352368
 21
19.293588
  0
TEXT
  8
0
  6
CONTINUOUS
 62
2
 10
46.453288
 20
10.796613
 40
3.105000
  1
1998 - THIS DESIGN/DRAWING IS THE PROPERTY OF MONO EQUIPMENT AND MUST NOT BE
 50
0.000000
 41
1.000000
 51
0.000000
  7
STANDARD
  0
TEXT
  8
0
  6
CONTINUOUS
 62
2
 10
41.107749
 20
4.310541
 40
3.105000
  1
REPRODUCED, COPIED, OR ITS CONTENTS DIVULGED WITHOUT PRIOR WRITTEN PERMISSION.
 50
0.000000
 41
1.000000
 51
0.000000
  7
STANDARD
  0
CIRCLE
  8
0
  6
CONTINUOUS
 62
3
 10
42.276047
 20
14.388236
 40
2.173500
  0
TEXT
  8
0
  6
CONTINUOUS
 62
2
 10
16.991737
 20
10.697820
 40
3.105000
  1
COPYRIGHT
 50
0.000000
 41
1.000000
 51
0.000000
  7
STANDARD
  0
TEXT
  8
0
  6
CONTINUOUS
 62
2
 10
41.713660
 20
13.712616
 40
1.630125
  1
C
 50
0.000000
 41
1.000000
 51
0.000000
  7
STANDARD
  0
TEXT
  8
0
  6
CONTINUOUS
 62
3
 10
286.872128
 20
14.527338
 40
3.003000
  1
REMOVE ALL BURRS & SHARP EDGES - ON SHEET METAL PARTS
 50
0.000000
 41
1.000000
 51
0.000000
  7
STANDARD
  0
LINE
  8
0
  6
CONTINUOUS
 62
1
 10
578.313470
 20
13.293588
 11
284.611031
 21
13.293588
  0
LINE
  8
0
  6
CONTINUOUS
 62
1
 10
284.611031
 20
6.293588
 11
578.313470
 21
6.293588
  0
TEXT
  8
0
  6
CONTINUOUS
 62
3
 10
292.717676
 20
1.450699
 40
3.003000
  1
OPEN TOL,150 & BELOW -.5,OVER 150 -1.0
 50
0.000000
 41
1.000000
 51
0.000000
  7
STANDARD
  0
TEXT
  8
0
  6
CONTINUOUS
 62
3
 10
343.153184
 20
2.995429
 40
3.003000
  1
+
 50
0.000000
 41
1.000000
 51
0.000000
  7
STANDARD
  0
TEXT
  8
0
  6
CONTINUOUS
 62
3
 10
374.360063
 20
3.082114
 40
3.003000
  1
+
 50
0.000000
 41
1.000000
 51
0.000000
  7
STANDARD
  0
TEXT
  8
0
  6
CONTINUOUS
 62
3
 10
396.025848
 20
1.552562
 40
3.003000
  1
DECIMAL DIMs,75 & BELOW -.25, 75 TO 300-.4, 300 TO 600-.5, OVER 600-1.0
 50
0.000000
 41
1.000000
 51
0.000000
  7
STANDARD
  0
TEXT
  8
0
  6
CONTINUOUS
 62
3
 10
453.503115
 20
3.046556
 40
3.003000
  1
+
 50
0.000000
 41
1.000000
 51
0.000000
  7
STANDARD
  0
TEXT
  8
0
  6
CONTINUOUS
 62
3
 10
489.694740
 20
3.046556
 40
3.003000
  1
+
 50
0.000000
 41
1.000000
 51
0.000000
  7
STANDARD
  0
TEXT
  8
0
  6
CONTINUOUS
 62
3
 10
525.686413
 20
3.046556
 40
3.003000
  1
+
 50
0.000000
 41
1.000000
 51
0.000000
  7
STANDARD
  0
TEXT
  8
0
  6
CONTINUOUS
 62
3
 10
557.079149
 20
3.046556
 40
3.003000
  1
+
 50
0.000000
 41
1.000000
 51
0.000000
  7
STANDARD
  0
TEXT
  8
0
  6
CONTINUOUS
 62
3
 10
298.372755
 20
8.027002
 40
3.003000
  1
SURFACE MACHINING,         COARSE FINISH,          MEDIUM FINISH
 50
0.000000
 41
1.000000
 51
0.000000
  7
STANDARD
  0
LINE
  8
0
  6
CONTINUOUS
 62
3
 10
358.454200
 20
7.938625
 11
357.376430
 21
9.477839
  0
LINE
  8
0
  6
CONTINUOUS
 62
3
 10
355.061002
 20
7.938625
 11
361.601409
 21
7.938625
  0
LINE
  8
0
  6
CONTINUOUS
 62
3
 10
355.461530
 20
7.938625
 11
356.552531
 21
6.847623
  0
LINE
  8
0
  6
CONTINUOUS
 62
3
 10
358.675973
 20
6.847623
 11
357.584972
 21
7.938625
  0
LINE
  8
0
  6
CONTINUOUS
 62
3
 10
359.708413
 20
7.938625
 11
360.799415
 21
6.847623
  0
LINE
  8
0
  6
CONTINUOUS
 62
3
 10
357.376430
 20
9.477839
 11
359.531969
 21
9.477839
  0
TEXT
  8
0
  6
CONTINUOUS
 62
3
 10
355.059729
 20
10.350713
 40
1.911000
  1
3.2
 50
0.000000
 41
1.000000
 51
0.000000
  7
STANDARD
  0
LINE
  8
0
  6
CONTINUOUS
 62
3
 10
361.472631
 20
12.249391
 11
358.454200
 21
7.938625
  0
LINE
  8
0
  6
CONTINUOUS
 62
3
 10
415.064989
 20
7.939383
 11
413.987220
 21
9.478597
  0
LINE
  8
0
  6
CONTINUOUS
 62
3
 10
411.671791
 20
7.939383
 11
418.212199
 21
7.939383
  0
LINE
  8
0
  6
CONTINUOUS
 62
3
 10
412.072320
 20
7.939383
 11
413.163321
 21
6.848381
  0
LINE
  8
0
  6
CONTINUOUS
 62
3
 10
415.286763
 20
6.848381
 11
414.195761
 21
7.939383
  0
LINE
  8
0
  6
CONTINUOUS
 62
3
 10
416.319203
 20
7.939383
 11
417.410204
 21
6.848381
  0
LINE
  8
0
  6
CONTINUOUS
 62
3
 10
413.987220
 20
9.478597
 11
416.142758
 21
9.478597
  0
TEXT
  8
0
  6
CONTINUOUS
 62
3
 10
411.670519
 20
10.351471
 40
1.911000
  1
1.6
 50
0.000000
 41
1.000000
 51
0.000000
  7
STANDARD
  0
LINE
  8
0
  6
CONTINUOUS
 62
3
 10
418.083420
 20
12.250149
 11
415.064989
 21
7.939383
  0
TEXT
  8
0
  6
CONTINUOUS
 62
3
 10
471.656054
 20
7.835044
 40
3.003000
  1
FINE FINISH,          GROUND FINISH
 50
0.000000
 41
1.000000
 51
0.000000
  7
STANDARD
  0
LINE
  8
0
  6
CONTINUOUS
 62
3
 10
520.028258
 20
7.857540
 11
518.950489
 21
9.396754
  0
LINE
  8
0
  6
CONTINUOUS
 62
3
 10
516.635060
 20
7.857540
 11
523.175468
 21
7.857540
  0
LINE
  8
0
  6
CONTINUOUS
 62
3
 10
517.035588
 20
7.857540
 11
518.126590
 21
6.766538
  0
LINE
  8
0
  6
CONTINUOUS
 62
3
 10
520.250032
 20
6.766538
 11
519.159030
 21
7.857540
  0
LINE
  8
0
  6
CONTINUOUS
 62
3
 10
521.282472
 20
7.857540
 11
522.373473
 21
6.766538
  0
LINE
  8
0
  6
CONTINUOUS
 62
3
 10
518.950489
 20
9.396754
 11
521.106027
 21
9.396754
  0
TEXT
  8
0
  6
CONTINUOUS
 62
3
 10
516.633788
 20
10.269628
 40
1.911000
  1
0.4
 50
0.000000
 41
1.000000
 51
0.000000
  7
STANDARD
  0
LINE
  8
0
  6
CONTINUOUS
 62
3
 10
523.046689
 20
12.168306
 11
520.028258
 21
7.857540
  0
LINE
  8
0
  6
CONTINUOUS
 62
3
 10
466.978169
 20
7.991505
 11
465.900400
 21
9.530719
  0
LINE
  8
0
  6
CONTINUOUS
 62
3
 10
463.584971
 20
7.991505
 11
470.125378
 21
7.991505
  0
LINE
  8
0
  6
CONTINUOUS
 62
3
 10
463.985499
 20
7.991505
 11
465.076501
 21
6.900503
  0
LINE
  8
0
  6
CONTINUOUS
 62
3
 10
467.199942
 20
6.900503
 11
466.108941
 21
7.991505
  0
LINE
  8
0
  6
CONTINUOUS
 62
3
 10
468.232382
 20
7.991505
 11
469.323384
 21
6.900503
  0
LINE
  8
0
  6
CONTINUOUS
 62
3
 10
465.900400
 20
9.530719
 11
468.055938
 21
9.530719
  0
TEXT
  8
0
  6
CONTINUOUS
 62
3
 10
463.583698
 20
10.403593
 40
1.911000
  1
0.8
 50
0.000000
 41
1.000000
 51
0.000000
  7
STANDARD
  0
LINE
  8
0
  6
CONTINUOUS
 62
3
 10
469.996600
 20
12.302271
 11
466.978169
 21
7.991505
  0
TEXT
  8
0
  6
CONTINUOUS
 62
3
 10
417.615816
 20
14.532113
 40
3.003000
  1
EXTERNAL CORNERS TO BE SAFETY RADIUSED 2mm UNLESS STATED OTHERWISE
 50
0.000000
 41
1.000000
 51
0.000000
  7
STANDARD
  0
TEXT
  8
0
  6
CONTINUOUS
 62
3
 10
656.297578
 20
564.567124
 40
4.000000
  1
ALL DIMENSIONS IN mm UNLESS OTHERWISE STATED
 50
0.000000
 41
1.000000
 51
0.000000
  7
STANDARD
  0
LINE
  8
0
  6
CONTINUOUS
 62
1
 10
653.667813
 20
570.293588
 11
653.667813
 21
563.293588
  0
LINE
  8
0
  6
CONTINUOUS
 62
1
 10
107.451868
 20
570.293588
 11
107.451868
 21
563.293588
  0
TEXT
  8
0
  6
CONTINUOUS
 62
3
 10
3.972877
 20
564.871493
 40
4.000000
  1
DO NOT SCALE - IF IN DOUBT ASK !
 50
0.000000
 41
1.000000
 51
0.000000
  7
STANDARD
  0
LINE
  8
0
  6
CONTINUOUS
 62
1
 10
587.525727
 20
13.926050
 11
596.525727
 21
16.337592
  0
LINE
  8
0
  6
CONTINUOUS
 62
1
 10
587.525727
 20
10.249192
 11
596.525727
 21
7.837650
  0
LINE
  8
0
  6
CONTINUOUS
 62
1
 10
587.525727
 20
10.249192
 11
587.525727
 21
13.926050
  0
LINE
  8
0
  6
CONTINUOUS
 62
1
 10
596.525727
 20
16.337592
 11
596.525727
 21
7.837650
  0
CIRCLE
  8
0
  6
CONTINUOUS
 62
1
 10
607.775727
 20
12.087621
 40
4.500000
  0
CIRCLE
  8
0
  6
CONTINUOUS
 62
1
 10
607.775727
 20
12.087621
 40
1.838429
  0
LINE
  8
0
  6
CENTER
 62
3
 10
585.650727
 20
12.087621
 11
598.400727
 21
12.087621
  0
LINE
  8
0
  6
CENTER
 62
3
 10
602.150727
 20
12.087621
 11
613.400727
 21
12.087621
  0
LINE
  8
0
  6
CENTER
 62
3
 10
607.775727
 20
6.462621
 11
607.775727
 21
17.712621
  0
TEXT
  8
0
  6
CONTINUOUS
 62
3
 10
592.291645
 20
1.750190
 40
2.500000
  1
1st ANGLE
 50
0.000000
 41
1.000000
 51
0.000000
  7
STANDARD
  0
LINE
  8
0
  6
CONTINUOUS
 62
1
 10
623.352368
 20
0.293588
 11
623.352368
 21
62.274256
  0
LINE
  8
0
  6
CONTINUOUS
 62
1
 10
623.352368
 20
0.293588
 11
810.896415
 21
0.293588
  0
LINE
  8
0
  6
CONTINUOUS
 62
1
 10
727.208958
 20
33.293588
 11
727.208958
 21
0.293588
  0
TEXT
  8
0
  6
CONTINUOUS
 62
3
 10
727.766174
 20
10.487504
 40
2.500000
  1
DRAWING NO.
 50
0.000000
 41
1.000000
 51
0.000000
  7
STANDARD
  0
TEXT
  8
0
  6
CONTINUOUS
 62
3
 10
800.510911
 20
10.225253
 40
2.500000
  1
REV:
 50
0.000000
 41
1.000000
 51
0.000000
  7
STANDARD
  0
LINE
  8
0
  6
CONTINUOUS
 62
1
 10
798.482467
 20
14.293588
 11
798.482467
 21
0.293588
  0
LINE
  8
0
  6
CONTINUOUS
 62
1
 10
633.753828
 20
71.698567
 11
633.753828
 21
62.274256
  0
LINE
  8
0
  6
CONTINUOUS
 62
1
 10
791.352368
 20
62.274256
 11
727.208958
 21
62.274256
  0
LINE
  8
0
  6
CONTINUOUS
 62
1
 10
810.896415
 20
62.274256
 11
623.352368
 21
62.274256
  0
LINE
  8
0
  6
CONTINUOUS
 62
1
 10
633.753828
 20
77.604799
 11
633.753828
 21
62.274256
  0
LINE
  8
0
  6
CONTINUOUS
 62
1
 10
623.352368
 20
69.274256
 11
810.896415
 21
69.274256
  0
LINE
  8
0
  6
CONTINUOUS
 62
1
 10
793.896415
 20
69.274256
 11
793.896415
 21
62.274256
  0
LINE
  8
0
  6
CONTINUOUS
 62
1
 10
623.352368
 20
62.274256
 11
623.352368
 21
77.604799
  0
TEXT
  8
0
  6
CONTINUOUS
 62
3
 10
718.950436
 20
64.569995
 40
2.500000
  1
REVISION
 50
0.000000
 41
1.000000
 51
0.000000
  7
STANDARD
  0
TEXT
  8
0
  6
CONTINUOUS
 62
3
 10
795.462895
 20
64.646654
 40
2.500000
  1
ECN NO.
 50
0.000000
 41
1.000000
 51
0.000000
  7
STANDARD
  0
LINE
  8
0
  6
CONTINUOUS
 62
1
 10
764.317856
 20
14.293588
 11
764.317856
 21
33.293588
  0
LINE
  8
0
  6
CONTINUOUS
 62
1
 10
623.352368
 20
14.293588
 11
623.352368
 21
0.293588
  0
LINE
  8
0
  6
CONTINUOUS
 62
1
 10
623.352368
 20
16.727379
 11
623.352368
 21
2.727379
  0
LINE
  8
0
  6
CONTINUOUS
 62
1
 10
646.753828
 20
77.604799
 11
646.753828
 21
62.274256
  0
LINE
  8
0
  6
CONTINUOUS
 62
1
 10
670.486609
 20
77.604799
 11
670.486609
 21
62.274256
  0
TEXT
  8
0
  6
CONTINUOUS
 62
3
 10
636.962453
 20
64.332177
 40
2.500000
  1
SIG
 50
0.000000
 41
1.000000
 51
0.000000
  7
STANDARD
  0
TEXT
  8
0
  6
CONTINUOUS
 62
3
 10
624.865220
 20
64.110210
 40
2.500000
  1
REV
 50
0.000000
 41
1.000000
 51
0.000000
  7
STANDARD
  0
TEXT
  8
0
  6
CONTINUOUS
 62
3
 10
653.166086
 20
64.110210
 40
2.500000
  1
DATE
 50
0.000000
 41
1.000000
 51
0.000000
  7
STANDARD
  0
LINE
  8
0
  6
CONTINUOUS
 62
1
 10
810.896415
 20
14.293588
 11
727.208958
 21
14.293588
  0
LINE
  8
0
  6
CONTINUOUS
 62
1
 10
810.896415
 20
0.293588
 11
810.896415
 21
570.293588
  0
LINE
  8
0
  6
CONTINUOUS
 62
1
 10
700.168430
 20
0.293588
 11
700.168430
 21
62.274256
  0
LINE
  8
0
  6
CONTINUOUS
 62
1
 10
810.896415
 20
33.293588
 11
700.168430
 21
33.293588
  0
LINE
  8
0
  6
CONTINUOUS
 62
1
 10
700.168430
 20
22.293588
 11
727.208958
 21
22.293588
  0
LINE
  8
0
  6
CONTINUOUS
 62
1
 10
727.208958
 20
11.293588
 11
700.168430
 21
11.293588
  0
TEXT
  8
0
  6
CONTINUOUS
 62
3
 10
701.350188
 20
29.612613
 40
2.500000
  1
DRAWN:
 50
0.000000
 41
1.000000
 51
0.000000
  7
STANDARD
  0
TEXT
  8
0
  6
CONTINUOUS
 62
3
 10
701.350188
 20
18.637009
 40
2.500000
  1
DATE:
 50
0.000000
 41
1.000000
 51
0.000000
  7
STANDARD
  0
TEXT
  8
0
  6
CONTINUOUS
 62
3
 10
701.111588
 20
7.661404
 40
2.500000
  1
SCALE:
 50
0.000000
 41
1.000000
 51
0.000000
  7
STANDARD
  0
TEXT
  8
0
  6
CONTINUOUS
 62
2
 10
772.768519
 20
28.719478
 40
2.500000
  1
WORKS ORDER NO.
 50
0.000000
 41
1.000000
 51
0.000000
  7
STANDARD
  0
TEXT
  8
0
  6
CONTINUOUS
 62
2
 10
728.589229
 20
28.541629
 40
2.500000
  1
PURCHASE ORDER NO.
 50
0.000000
 41
1.000000
 51
0.000000
  7
STANDARD
  0
LINE
  8
0
  6
CONTINUOUS
 62
1
 10
700.168430
 20
33.293588
 11
623.352368
 21
33.293588
  0
LINE
  8
0
  6
CONTINUOUS
 62
1
 10
700.168430
 20
22.293588
 11
623.352368
 21
22.293588
  0
LINE
  8
0
  6
CONTINUOUS
 62
1
 10
700.168430
 20
11.293588
 11
623.352368
 21
11.293588
  0
TEXT
  8
0
  6
CONTINUOUS
 62
3
 10
624.026517
 20
29.753879
 40
2.500000
  1
MAT'L:
 50
0.000000
 41
1.000000
 51
0.000000
  7
STANDARD
  0
LINE
  8
0
  6
CONTINUOUS
 62
1
 10
661.760399
 20
11.293588
 11
661.760399
 21
22.293588
  0
TEXT
  8
0
  6
CONTINUOUS
 62
3
 10
623.981266
 20
19.055406
 40
2.500000
  1
MAT'L
 50
0.000000
 41
1.000000
 51
0.000000
  7
STANDARD
  0
TEXT
  8
0
  6
CONTINUOUS
 62
3
 10
624.092805
 20
15.374627
 40
2.500000
  1
QTY:
 50
0.000000
 41
1.000000
 51
0.000000
  7
STANDARD
  0
TEXT
  8
0
  6
CONTINUOUS
 62
3
 10
662.350599
 20
15.263088
 40
2.500000
  1
REQ:
 50
0.000000
 41
1.000000
 51
0.000000
  7
STANDARD
  0
TEXT
  8
0
  6
CONTINUOUS
 62
3
 10
662.573677
 20
18.832329
 40
2.500000
  1
NO.
 50
0.000000
 41
1.000000
 51
0.000000
  7
STANDARD
  0
TEXT
  8
0
  6
CONTINUOUS
 62
3
 10
623.981266
 20
7.678453
 40
2.500000
  1
FINISH:
 50
0.000000
 41
1.000000
 51
0.000000
  7
STANDARD
  0
TEXT
  8
0
  6
CONTINUOUS
 62
4
 10
651.498402
 20
48.650078
 40
2.475000
  1
SWANSEA WEST IND PARK
 50
0.000000
 41
1.000000
 51
0.000000
  7
STANDARD
  0
TEXT
  8
0
  6
CONTINUOUS
 62
4
 10
651.517078
 20
44.988659
 40
2.475000
  1
SWANSEA.
 50
0.000000
 41
1.000000
 51
0.000000
  7
STANDARD
  0
TEXT
  8
0
  6
CONTINUOUS
 62
4
 10
651.481443
 20
38.080873
 40
2.300000
  1
TEL: (01792) 561234
 50
0.000000
 41
1.000000
 51
0.000000
  7
STANDARD
  0
TEXT
  8
0
  6
CONTINUOUS
 62
4
 10
651.498402
 20
34.324330
 40
2.300000
  1
FAX: (01792) 561016
 50
0.000000
 41
1.000000
 51
0.000000
  7
STANDARD
  0
TEXT
  8
0
  6
CONTINUOUS
 62
5
 10
651.490386
 20
56.703235
 40
3.000000
  1
MONO EQUIPMENT
 50
0.000000
 41
1.000000
 51
0.000000
  7
STANDARD
  0
TEXT
  8
0
  6
CONTINUOUS
 62
4
 10
651.517078
 20
52.286738
 40
2.475000
  1
QUEENSWAY
 50
0.000000
 41
1.000000
 51
0.000000
  7
STANDARD
  0
TEXT
  8
0
  6
CONTINUOUS
 62
3
 10
701.350188
 20
58.593282
 40
2.500000
  1
TITLE:
 50
0.000000
 41
1.000000
 51
0.000000
  7
STANDARD
  0
TEXT
  8
0
  6
CONTINUOUS
 62
3
 10
681.570971
 20
7.556337
 40
2.500000
  1
DRAWING
 50
0.000000
 41
1.000000
 51
0.000000
  7
STANDARD
  0
TEXT
  8
0
  6
CONTINUOUS
 62
3
 10
681.570971
 20
2.802509
 40
2.500000
  1
SIZE
 50
0.000000
 41
1.000000
 51
0.000000
  7
STANDARD
  0
TEXT
  8
0
  6
CONTINUOUS
 62
3
 10
691.816292
 20
2.802509
 40
3.250000
  1
A1
 50
0.000000
 41
1.000000
 51
0.000000
  7
STANDARD
  0
LINE
  8
0
  6
CONTINUOUS
 62
1
 10
680.669383
 20
0.293588
 11
680.669383
 21
11.293588
  0
TEXT
  8
0
  6
CONTINUOUS
 62
4
 10
651.498402
 20
41.547751
 40
2.475000
  1
SA5 4EB.
 50
0.000000
 41
1.000000
 51
0.000000
  7
STANDARD
  0
INSERT
  2
MONO-LOGO
  8
0
 10
637.541247
 20
48.776781
 41
0.500000
 42
0.500000
 50
0.000000
  0
ENDBLK
  0
BLOCK
  2
MONO-LOGO
  8
0
 70
0
 10
0.0
 20
0.0
 30
0.0
  0
LINE
  8
0
  6
CONTINUOUS
 62
2
 10
-19.875000
 20
-11.812500
 11
19.875000
 21
-11.812500
  0
LINE
  8
0
  6
CONTINUOUS
 62
2
 10
19.875000
 20
-11.812500
 11
19.875000
 21
-9.562500
  0
LINE
  8
0
  6
CONTINUOUS
 62
2
 10
-19.875000
 20
-9.562500
 11
-19.875000
 21
-11.812500
  0
LINE
  8
0
  6
CONTINUOUS
 62
2
 10
-19.875000
 20
-9.562500
 11
-19.875000
 21
-0.562500
  0
LINE
  8
0
  6
CONTINUOUS
 62
2
 10
19.875000
 20
-4.312500
 11
19.875000
 21
-5.812500
  0
LINE
  8
0
  6
CONTINUOUS
 62
2
 10
-19.875000
 20
1.687500
 11
19.875000
 21
1.687500
  0
LINE
  8
0
  6
CONTINUOUS
 62
2
 10
19.875000
 20
1.687500
 11
19.875000
 21
3.562500
  0
LINE
  8
0
  6
CONTINUOUS
 62
2
 10
19.875000
 20
3.562500
 11
-19.875000
 21
3.562500
  0
LINE
  8
0
  6
CONTINUOUS
 62
2
 10
-19.875000
 20
3.562500
 11
-19.875000
 21
1.687500
  0
LINE
  8
0
  6
CONTINUOUS
 62
2
 10
-19.875000
 20
5.812500
 11
19.875000
 21
5.812500
  0
LINE
  8
0
  6
CONTINUOUS
 62
2
 10
19.875000
 20
5.812500
 11
19.875000
 21
7.312500
  0
LINE
  8
0
  6
CONTINUOUS
 62
2
 10
19.875000
 20
7.312500
 11
-19.875000
 21
7.312500
  0
LINE
  8
0
  6
CONTINUOUS
 62
2
 10
-19.875000
 20
7.312500
 11
-19.875000
 21
5.812500
  0
LINE
  8
0
  6
CONTINUOUS
 62
2
 10
-19.875000
 20
9.562500
 11
19.875000
 21
9.562500
  0
LINE
  8
0
  6
CONTINUOUS
 62
2
 10
19.875000
 20
9.562500
 11
19.875000
 21
10.687500
  0
LINE
  8
0
  6
CONTINUOUS
 62
2
 10
19.875000
 20
10.687500
 11
-19.875000
 21
10.687500
  0
LINE
  8
0
  6
CONTINUOUS
 62
2
 10
-19.875000
 20
10.687500
 11
-19.875000
 21
9.562500
  0
LINE
  8
0
  6
CONTINUOUS
 62
2
 10
-19.875000
 20
12.937500
 11
19.875000
 21
12.937500
  0
LINE
  8
0
  6
CONTINUOUS
 62
2
 10
19.875000
 20
12.937500
 11
19.875000
 21
13.687500
  0
LINE
  8
0
  6
CONTINUOUS
 62
2
 10
19.875000
 20
13.687500
 11
-19.875000
 21
13.687500
  0
LINE
  8
0
  6
CONTINUOUS
 62
2
 10
-19.875000
 20
13.687500
 11
-19.875000
 21
12.937500
  0
LINE
  8
0
  6
CONTINUOUS
 62
2
 10
-19.875000
 20
15.937500
 11
19.875000
 21
15.937500
  0
LINE
  8
0
  6
CONTINUOUS
 62
2
 10
19.875000
 20
15.937500
 11
19.875000
 21
16.312500
  0
LINE
  8
0
  6
CONTINUOUS
 62
2
 10
19.875000
 20
16.312500
 11
-19.875000
 21
16.312500
  0
LINE
  8
0
  6
CONTINUOUS
 62
2
 10
-19.875000
 20
16.312500
 11
-19.875000
 21
15.937500
  0
LINE
  8
0
  6
CONTINUOUS
 62
2
 10
-10.125000
 20
-0.562500
 11
-10.125000
 21
-9.562500
  0
LINE
  8
0
  6
CONTINUOUS
 62
2
 10
10.125000
 20
-5.812500
 11
10.125000
 21
-4.312500
  0
LINE
  8
0
  6
CONTINUOUS
 62
2
 10
17.250000
 20
-5.437500
 11
17.250000
 21
-4.687500
  0
LINE
  8
0
  6
CONTINUOUS
 62
2
 10
12.750000
 20
-4.687500
 11
12.750000
 21
-5.437500
  0
ARC
  8
0
  6
CONTINUOUS
 62
2
 10
15.000000
 20
-4.687500
 40
2.250000
 50
0.000000
 51
90.000000
  0
ARC
  8
0
  6
CONTINUOUS
 62
2
 10
15.000000
 20
-4.687500
 40
2.250000
 50
90.000000
 51
180.000000
  0
ARC
  8
0
  6
CONTINUOUS
 62
2
 10
15.000000
 20
-5.437500
 40
2.250000
 50
180.000000
 51
270.000000
  0
ARC
  8
0
  6
CONTINUOUS
 62
2
 10
15.000000
 20
-5.437500
 40
2.250000
 50
270.000000
 51
0.000000
  0
LINE
  8
0
  6
CONTINUOUS
 62
2
 10
13.875000
 20
-0.562500
 11
16.125000
 21
-0.562500
  0
ARC
  8
0
  6
CONTINUOUS
 62
2
 10
16.125000
 20
-4.312500
 40
3.750000
 50
0.000000
 51
90.000000
  0
ARC
  8
0
  6
CONTINUOUS
 62
2
 10
16.125000
 20
-5.812500
 40
3.750000
 50
270.000000
 51
0.000000
  0
ARC
  8
0
  6
CONTINUOUS
 62
2
 10
13.875000
 20
-5.812500
 40
3.750000
 50
180.000000
 51
270.000000
  0
ARC
  8
0
  6
CONTINUOUS
 62
2
 10
13.875000
 20
-4.312500
 40
3.750000
 50
90.000000
 51
180.000000
  0
LINE
  8
0
  6
CONTINUOUS
 62
2
 10
0.208130
 20
-4.293740
 11
0.208130
 21
-5.793740
  0
LINE
  8
0
  6
CONTINUOUS
 62
2
 10
-9.541870
 20
-5.793740
 11
-9.541870
 21
-4.293740
  0
LINE
  8
0
  6
CONTINUOUS
 62
2
 10
-2.416870
 20
-5.418740
 11
-2.416870
 21
-4.668740
  0
LINE
  8
0
  6
CONTINUOUS
 62
2
 10
-6.916870
 20
-4.668740
 11
-6.916870
 21
-5.418740
  0
ARC
  8
0
  6
CONTINUOUS
 62
2
 10
-4.666870
 20
-4.668740
 40
2.250000
 50
0.000000
 51
90.000000
  0
ARC
  8
0
  6
CONTINUOUS
 62
2
 10
-4.666870
 20
-4.668740
 40
2.250000
 50
90.000000
 51
180.000000
  0
ARC
  8
0
  6
CONTINUOUS
 62
2
 10
-4.666870
 20
-5.418740
 40
2.250000
 50
180.000000
 51
270.000000
  0
ARC
  8
0
  6
CONTINUOUS
 62
2
 10
-4.666870
 20
-5.418740
 40
2.250000
 50
270.000000
 51
0.000000
  0
LINE
  8
0
  6
CONTINUOUS
 62
2
 10
-5.791870
 20
-0.543740
 11
-3.541870
 21
-0.543740
  0
ARC
  8
0
  6
CONTINUOUS
 62
2
 10
-3.541870
 20
-4.293740
 40
3.750000
 50
0.000000
 51
90.000000
  0
ARC
  8
0
  6
CONTINUOUS
 62
2
 10
-3.541870
 20
-5.793740
 40
3.750000
 50
270.000000
 51
0.000000
  0
ARC
  8
0
  6
CONTINUOUS
 62
2
 10
-5.791870
 20
-5.793740
 40
3.750000
 50
180.000000
 51
270.000000
  0
LINE
  8
0
  6
CONTINUOUS
 62
2
 10
0.900000
 20
-0.562500
 11
0.900000
 21
-9.562500
  0
LINE
  8
0
  6
CONTINUOUS
 62
2
 10
9.525000
 20
-9.562500
 11
9.525000
 21
-0.562500
  0
LINE
  8
0
  6
CONTINUOUS
 62
2
 10
-17.625000
 20
-3.937500
 11
-17.625000
 21
-9.562500
  0
LINE
  8
0
  6
CONTINUOUS
 62
2
 10
-17.625000
 20
-3.937500
 11
-15.750000
 21
-9.562500
  0
LINE
  8
0
  6
CONTINUOUS
 62
2
 10
-12.375000
 20
-9.562500
 11
-12.375000
 21
-3.937500
  0
LINE
  8
0
  6
CONTINUOUS
 62
2
 10
-14.250000
 20
-9.562500
 11
-12.375000
 21
-3.937500
  0
LINE
  8
0
  6
CONTINUOUS
 62
2
 10
-13.875000
 20
-0.562500
 11
-15.000000
 21
-3.937500
  0
LINE
  8
0
  6
CONTINUOUS
 62
2
 10
-15.000000
 20
-3.937500
 11
-16.125000
 21
-0.562500
  0
LINE
  8
0
  6
CONTINUOUS
 62
2
 10
-10.125000
 20
-0.562500
 11
-13.875000
 21
-0.562500
  0
LINE
  8
0
  6
CONTINUOUS
 62
2
 10
-16.125000
 20
-0.562500
 11
-19.875000
 21
-0.562500
  0
LINE
  8
0
  6
CONTINUOUS
 62
2
 10
-15.750000
 20
-9.562500
 11
-17.625000
 21
-9.562500
  0
LINE
  8
0
  6
CONTINUOUS
 62
2
 10
19.875000
 20
-9.562500
 11
16.125000
 21
-9.562500
  0
LINE
  8
0
  6
CONTINUOUS
 62
2
 10
3.525000
 20
-9.562500
 11
3.525000
 21
-4.687500
  0
LINE
  8
0
  6
CONTINUOUS
 62
2
 10
6.900000
 20
-0.562500
 11
6.900000
 21
-5.437500
  0
LINE
  8
0
  6
CONTINUOUS
 62
2
 10
3.525000
 20
-0.562500
 11
6.900000
 21
-5.437500
  0
LINE
  8
0
  6
CONTINUOUS
 62
2
 10
6.900000
 20
-9.562500
 11
3.525000
 21
-4.687500
  0
LINE
  8
0
  6
CONTINUOUS
 62
2
 10
0.900000
 20
-0.562500
 11
3.525000
 21
-0.562500
  0
LINE
  8
0
  6
CONTINUOUS
 62
2
 10
6.900000
 20
-0.562500
 11
9.525000
 21
-0.562500
  0
LINE
  8
0
  6
CONTINUOUS
 62
2
 10
-3.541870
 20
-9.543740
 11
0.900000
 21
-9.562500
  0
LINE
  8
0
  6
CONTINUOUS
 62
2
 10
3.525000
 20
-9.562500
 11
6.900000
 21
-9.562500
  0
LINE
  8
0
  6
CONTINUOUS
 62
2
 10
9.525000
 20
-9.562500
 11
13.875000
 21
-9.562500
  0
LINE
  8
0
  6
CONTINUOUS
 62
2
 10
-5.791870
 20
-9.562500
 11
-10.125000
 21
-9.562500
  0
LINE
  8
0
  6
CONTINUOUS
 62
2
 10
-12.375000
 20
-9.562500
 11
-14.250000
 21
-9.562500
  0
ARC
  8
0
  6
CONTINUOUS
 62
2
 10
-5.791870
 20
-4.293740
 40
3.750000
 50
90.000000
 51
180.000000
  0
LINE
  8
0
  6
CONTINUOUS
 62
2
 10
-5.791870
 20
-9.543740
 11
-5.791870
 21
-9.562500
  0
LINE
  8
0
  6
CONTINUOUS
 62
2
 10
-19.875000
 20
-11.756886
 11
19.875000
 21
-11.756886
  0
LINE
  8
0
  6
CONTINUOUS
 62
2
 10
-19.875000
 20
-11.456886
 11
19.875000
 21
-11.456886
  0
LINE
  8
0
  6
CONTINUOUS
 62
2
 10
-19.875000
 20
-11.156886
 11
19.875000
 21
-11.156886
  0
LINE
  8
0
  6
CONTINUOUS
 62
2
 10
-19.875000
 20
-10.856886
 11
19.875000
 21
-10.856886
  0
LINE
  8
0
  6
CONTINUOUS
 62
2
 10
-19.875000
 20
-10.556886
 11
19.875000
 21
-10.556886
  0
LINE
  8
0
  6
CONTINUOUS
 62
2
 10
-19.875000
 20
-10.256886
 11
19.875000
 21
-10.256886
  0
LINE
  8
0
  6
CONTINUOUS
 62
2
 10
-19.875000
 20
-9.956886
 11
19.875000
 21
-9.956886
  0
LINE
  8
0
  6
CONTINUOUS
 62
2
 10
-19.875000
 20
-9.656886
 11
19.875000
 21
-9.656886
  0
LINE
  8
0
  6
CONTINUOUS
 62
2
 10
-19.875000
 20
-9.356886
 11
-17.625000
 21
-9.356886
  0
LINE
  8
0
  6
CONTINUOUS
 62
2
 10
-15.818538
 20
-9.356886
 11
-14.181462
 21
-9.356886
  0
LINE
  8
0
  6
CONTINUOUS
 62
2
 10
-12.375000
 20
-9.356886
 11
-10.125000
 21
-9.356886
  0
LINE
  8
0
  6
CONTINUOUS
 62
2
 10
-6.960842
 20
-9.356886
 11
-2.372899
 21
-9.356886
  0
LINE
  8
0
  6
CONTINUOUS
 62
2
 10
0.900000
 20
-9.356886
 11
3.525000
 21
-9.356886
  0
LINE
  8
0
  6
CONTINUOUS
 62
2
 10
6.757652
 20
-9.356886
 11
9.525000
 21
-9.356886
  0
LINE
  8
0
  6
CONTINUOUS
 62
2
 10
12.650325
 20
-9.356886
 11
17.349675
 21
-9.356886
  0
LINE
  8
0
  6
CONTINUOUS
 62
2
 10
-19.875000
 20
-9.056886
 11
-17.625000
 21
-9.056886
  0
LINE
  8
0
  6
CONTINUOUS
 62
2
 10
-15.918538
 20
-9.056886
 11
-14.081462
 21
-9.056886
  0
LINE
  8
0
  6
CONTINUOUS
 62
2
 10
-12.375000
 20
-9.056886
 11
-10.125000
 21
-9.056886
  0
LINE
  8
0
  6
CONTINUOUS
 62
2
 10
-7.639675
 20
-9.056886
 11
-1.694066
 21
-9.056886
  0
LINE
  8
0
  6
CONTINUOUS
 62
2
 10
0.900000
 20
-9.056886
 11
3.525000
 21
-9.056886
  0
LINE
  8
0
  6
CONTINUOUS
 62
2
 10
6.549959
 20
-9.056886
 11
9.525000
 21
-9.056886
  0
LINE
  8
0
  6
CONTINUOUS
 62
2
 10
11.994452
 20
-9.056886
 11
18.005548
 21
-9.056886
  0
LINE
  8
0
  6
CONTINUOUS
 62
2
 10
-19.875000
 20
-8.756886
 11
-17.625000
 21
-8.756886
  0
LINE
  8
0
  6
CONTINUOUS
 62
2
 10
-16.018538
 20
-8.756886
 11
-13.981462
 21
-8.756886
  0
LINE
  8
0
  6
CONTINUOUS
 62
2
 10
-12.375000
 20
-8.756886
 11
-10.125000
 21
-8.756886
  0
LINE
  8
0
  6
CONTINUOUS
 62
2
 10
-8.090189
 20
-8.756886
 11
-1.243552
 21
-8.756886
  0
LINE
  8
0
  6
CONTINUOUS
 62
2
 10
0.900000
 20
-8.756886
 11
3.525000
 21
-8.756886
  0
LINE
  8
0
  6
CONTINUOUS
 62
2
 10
6.342267
 20
-8.756886
 11
9.525000
 21
-8.756886
  0
LINE
  8
0
  6
CONTINUOUS
 62
2
 10
11.552697
 20
-8.756886
 11
18.447303
 21
-8.756886
  0
LINE
  8
0
  6
CONTINUOUS
 62
2
 10
-19.875000
 20
-8.456886
 11
-17.625000
 21
-8.456886
  0
LINE
  8
0
  6
CONTINUOUS
 62
2
 10
-16.118538
 20
-8.456886
 11
-13.881462
 21
-8.456886
  0
LINE
  8
0
  6
CONTINUOUS
 62
2
 10
-12.375000
 20
-8.456886
 11
-10.125000
 21
-8.456886
  0
LINE
  8
0
  6
CONTINUOUS
 62
2
 10
-8.431976
 20
-8.456886
 11
-0.901765
 21
-8.456886
  0
LINE
  8
0
  6
CONTINUOUS
 62
2
 10
0.900000
 20
-8.456886
 11
3.525000
 21
-8.456886
  0
LINE
  8
0
  6
CONTINUOUS
 62
2
 10
6.134575
 20
-8.456886
 11
9.525000
 21
-8.456886
  0
LINE
  8
0
  6
CONTINUOUS
 62
2
 10
11.216105
 20
-8.456886
 11
18.783895
 21
-8.456886
  0
LINE
  8
0
  6
CONTINUOUS
 62
2
 10
-19.875000
 20
-8.156886
 11
-17.625000
 21
-8.156886
  0
LINE
  8
0
  6
CONTINUOUS
 62
2
 10
-16.218538
 20
-8.156886
 11
-13.781462
 21
-8.156886
  0
LINE
  8
0
  6
CONTINUOUS
 62
2
 10
-12.375000
 20
-8.156886
 11
-10.125000
 21
-8.156886
  0
LINE
  8
0
  6
CONTINUOUS
 62
2
 10
-8.703578
 20
-8.156886
 11
-0.630162
 21
-8.156886
  0
LINE
  8
0
  6
CONTINUOUS
 62
2
 10
0.900000
 20
-8.156886
 11
3.525000
 21
-8.156886
  0
LINE
  8
0
  6
CONTINUOUS
 62
2
 10
5.926882
 20
-8.156886
 11
9.525000
 21
-8.156886
  0
LINE
  8
0
  6
CONTINUOUS
 62
2
 10
10.948166
 20
-8.156886
 11
19.051834
 21
-8.156886
  0
LINE
  8
0
  6
CONTINUOUS
 62
2
 10
-19.875000
 20
-7.856886
 11
-17.625000
 21
-7.856886
  0
LINE
  8
0
  6
CONTINUOUS
 62
2
 10
-16.318538
 20
-7.856886
 11
-13.681462
 21
-7.856886
  0
LINE
  8
0
  6
CONTINUOUS
 62
2
 10
-12.375000
 20
-7.856886
 11
-10.125000
 21
-7.856886
  0
LINE
  8
0
  6
CONTINUOUS
 62
2
 10
-8.923313
 20
-7.856886
 11
-0.410428
 21
-7.856886
  0
LINE
  8
0
  6
CONTINUOUS
 62
2
 10
0.900000
 20
-7.856886
 11
3.525000
 21
-7.856886
  0
LINE
  8
0
  6
CONTINUOUS
 62
2
 10
5.719190
 20
-7.856886
 11
9.525000
 21
-7.856886
  0
LINE
  8
0
  6
CONTINUOUS
 62
2
 10
10.731278
 20
-7.856886
 11
19.268722
 21
-7.856886
  0
LINE
  8
0
  6
CONTINUOUS
 62
2
 10
-19.875000
 20
-7.556886
 11
-17.625000
 21
-7.556886
  0
LINE
  8
0
  6
CONTINUOUS
 62
2
 10
-16.418538
 20
-7.556886
 11
-13.581462
 21
-7.556886
  0
LINE
  8
0
  6
CONTINUOUS
 62
2
 10
-12.375000
 20
-7.556886
 11
-10.125000
 21
-7.556886
  0
LINE
  8
0
  6
CONTINUOUS
 62
2
 10
-9.101526
 20
-7.556886
 11
-5.367466
 21
-7.556886
  0
LINE
  8
0
  6
CONTINUOUS
 62
2
 10
-3.966275
 20
-7.556886
 11
-0.232215
 21
-7.556886
  0
LINE
  8
0
  6
CONTINUOUS
 62
2
 10
0.900000
 20
-7.556886
 11
3.525000
 21
-7.556886
  0
LINE
  8
0
  6
CONTINUOUS
 62
2
 10
5.511498
 20
-7.556886
 11
9.525000
 21
-7.556886
  0
LINE
  8
0
  6
CONTINUOUS
 62
2
 10
10.555419
 20
-7.556886
 11
14.244551
 21
-7.556886
  0
LINE
  8
0
  6
CONTINUOUS
 62
2
 10
15.755449
 20
-7.556886
 11
19.444581
 21
-7.556886
  0
LINE
  8
0
  6
CONTINUOUS
 62
2
 10
-19.875000
 20
-7.256886
 11
-17.625000
 21
-7.256886
  0
LINE
  8
0
  6
CONTINUOUS
 62
2
 10
-16.518538
 20
-7.256886
 11
-13.481462
 21
-7.256886
  0
LINE
  8
0
  6
CONTINUOUS
 62
2
 10
-12.375000
 20
-7.256886
 11
-10.125000
 21
-7.256886
  0
LINE
  8
0
  6
CONTINUOUS
 62
2
 10
-9.244653
 20
-7.256886
 11
-5.964453
 21
-7.256886
  0
LINE
  8
0
  6
CONTINUOUS
 62
2
 10
-3.369288
 20
-7.256886
 11
-0.089088
 21
-7.256886
  0
LINE
  8
0
  6
CONTINUOUS
 62
2
 10
0.900000
 20
-7.256886
 11
3.525000
 21
-7.256886
  0
LINE
  8
0
  6
CONTINUOUS
 62
2
 10
5.303806
 20
-7.256886
 11
9.525000
 21
-7.256886
  0
LINE
  8
0
  6
CONTINUOUS
 62
2
 10
10.414328
 20
-7.256886
 11
13.676242
 21
-7.256886
  0
LINE
  8
0
  6
CONTINUOUS
 62
2
 10
16.323758
 20
-7.256886
 11
19.585672
 21
-7.256886
  0
LINE
  8
0
  6
CONTINUOUS
 62
2
 10
-19.875000
 20
-6.956886
 11
-17.625000
 21
-6.956886
  0
LINE
  8
0
  6
CONTINUOUS
 62
2
 10
-16.618538
 20
-6.956886
 11
-13.381462
 21
-6.956886
  0
LINE
  8
0
  6
CONTINUOUS
 62
2
 10
-12.375000
 20
-6.956886
 11
-10.125000
 21
-6.956886
  0
LINE
  8
0
  6
CONTINUOUS
 62
2
 10
-9.356922
 20
-6.956886
 11
-6.309006
 21
-6.956886
  0
LINE
  8
0
  6
CONTINUOUS
 62
2
 10
-3.024735
 20
-6.956886
 11
0.023181
 21
-6.956886
  0
LINE
  8
0
  6
CONTINUOUS
 62
2
 10
0.900000
 20
-6.956886
 11
3.525000
 21
-6.956886
  0
LINE
  8
0
  6
CONTINUOUS
 62
2
 10
5.096113
 20
-6.956886
 11
9.525000
 21
-6.956886
  0
LINE
  8
0
  6
CONTINUOUS
 62
2
 10
10.303882
 20
-6.956886
 11
13.340492
 21
-6.956886
  0
LINE
  8
0
  6
CONTINUOUS
 62
2
 10
16.659508
 20
-6.956886
 11
19.696118
 21
-6.956886
  0
LINE
  8
0
  6
CONTINUOUS
 62
2
 10
-19.875000
 20
-6.656886
 11
-17.625000
 21
-6.656886
  0
LINE
  8
0
  6
CONTINUOUS
 62
2
 10
-16.718538
 20
-6.656886
 11
-13.281462
 21
-6.656886
  0
LINE
  8
0
  6
CONTINUOUS
 62
2
 10
-12.375000
 20
-6.656886
 11
-10.125000
 21
-6.656886
  0
LINE
  8
0
  6
CONTINUOUS
 62
2
 10
-9.441183
 20
-6.656886
 11
-6.545566
 21
-6.656886
  0
LINE
  8
0
  6
CONTINUOUS
 62
2
 10
-2.788175
 20
-6.656886
 11
0.107442
 21
-6.656886
  0
LINE
  8
0
  6
CONTINUOUS
 62
2
 10
0.900000
 20
-6.656886
 11
3.525000
 21
-6.656886
  0
LINE
  8
0
  6
CONTINUOUS
 62
2
 10
4.888421
 20
-6.656886
 11
9.525000
 21
-6.656886
  0
LINE
  8
0
  6
CONTINUOUS
 62
2
 10
10.221302
 20
-6.656886
 11
13.109075
 21
-6.656886
  0
LINE
  8
0
  6
CONTINUOUS
 62
2
 10
16.890925
 20
-6.656886
 11
19.778698
 21
-6.656886
  0
LINE
  8
0
  6
CONTINUOUS
 62
2
 10
-19.875000
 20
-6.356886
 11
-17.625000
 21
-6.356886
  0
LINE
  8
0
  6
CONTINUOUS
 62
2
 10
-16.818538
 20
-6.356886
 11
-13.181462
 21
-6.356886
  0
LINE
  8
0
  6
CONTINUOUS
 62
2
 10
-12.375000
 20
-6.356886
 11
-10.125000
 21
-6.356886
  0
LINE
  8
0
  6
CONTINUOUS
 62
2
 10
-9.499345
 20
-6.356886
 11
-6.711958
 21
-6.356886
  0
LINE
  8
0
  6
CONTINUOUS
 62
2
 10
-2.621783
 20
-6.356886
 11
0.165604
 21
-6.356886
  0
LINE
  8
0
  6
CONTINUOUS
 62
2
 10
0.900000
 20
-6.356886
 11
3.525000
 21
-6.356886
  0
LINE
  8
0
  6
CONTINUOUS
 62
2
 10
4.680729
 20
-6.356886
 11
9.525000
 21
-6.356886
  0
LINE
  8
0
  6
CONTINUOUS
 62
2
 10
10.164725
 20
-6.356886
 11
12.946411
 21
-6.356886
  0
LINE
  8
0
  6
CONTINUOUS
 62
2
 10
17.053589
 20
-6.356886
 11
19.835275
 21
-6.356886
  0
LINE
  8
0
  6
CONTINUOUS
 62
2
 10
-19.875000
 20
-6.056886
 11
-17.625000
 21
-6.056886
  0
LINE
  8
0
  6
CONTINUOUS
 62
2
 10
-16.918538
 20
-6.056886
 11
-13.081462
 21
-6.056886
  0
LINE
  8
0
  6
CONTINUOUS
 62
2
 10
-12.375000
 20
-6.056886
 11
-10.125000
 21
-6.056886
  0
LINE
  8
0
  6
CONTINUOUS
 62
2
 10
-9.532626
 20
-6.056886
 11
-6.824478
 21
-6.056886
  0
LINE
  8
0
  6
CONTINUOUS
 62
2
 10
-2.509263
 20
-6.056886
 11
0.198885
 21
-6.056886
  0
LINE
  8
0
  6
CONTINUOUS
 62
2
 10
0.900000
 20
-6.056886
 11
3.525000
 21
-6.056886
  0
LINE
  8
0
  6
CONTINUOUS
 62
2
 10
4.473036
 20
-6.056886
 11
9.525000
 21
-6.056886
  0
LINE
  8
0
  6
CONTINUOUS
 62
2
 10
10.132972
 20
-6.056886
 11
12.836932
 21
-6.056886
  0
LINE
  8
0
  6
CONTINUOUS
 62
2
 10
17.163068
 20
-6.056886
 11
19.867028
 21
-6.056886
  0
LINE
  8
0
  6
CONTINUOUS
 62
2
 10
-19.875000
 20
-5.756886
 11
-17.625000
 21
-5.756886
  0
LINE
  8
0
  6
CONTINUOUS
 62
2
 10
-17.018538
 20
-5.756886
 11
-12.981462
 21
-5.756886
  0
LINE
  8
0
  6
CONTINUOUS
 62
2
 10
-12.375000
 20
-5.756886
 11
-10.125000
 21
-5.756886
  0
LINE
  8
0
  6
CONTINUOUS
 62
2
 10
-9.541870
 20
-5.756886
 11
-6.891316
 21
-5.756886
  0
LINE
  8
0
  6
CONTINUOUS
 62
2
 10
-2.442425
 20
-5.756886
 11
0.208130
 21
-5.756886
  0
LINE
  8
0
  6
CONTINUOUS
 62
2
 10
0.900000
 20
-5.756886
 11
3.525000
 21
-5.756886
  0
LINE
  8
0
  6
CONTINUOUS
 62
2
 10
4.265344
 20
-5.756886
 11
9.525000
 21
-5.756886
  0
LINE
  8
0
  6
CONTINUOUS
 62
2
 10
10.125000
 20
-5.756886
 11
12.772784
 21
-5.756886
  0
LINE
  8
0
  6
CONTINUOUS
 62
2
 10
17.227216
 20
-5.756886
 11
19.875000
 21
-5.756886
  0
LINE
  8
0
  6
CONTINUOUS
 62
2
 10
-19.875000
 20
-5.456886
 11
-17.625000
 21
-5.456886
  0
LINE
  8
0
  6
CONTINUOUS
 62
2
 10
-17.118538
 20
-5.456886
 11
-12.881462
 21
-5.456886
  0
LINE
  8
0
  6
CONTINUOUS
 62
2
 10
-12.375000
 20
-5.456886
 11
-10.125000
 21
-5.456886
  0
LINE
  8
0
  6
CONTINUOUS
 62
2
 10
-9.541870
 20
-5.456886
 11
-6.916547
 21
-5.456886
  0
LINE
  8
0
  6
CONTINUOUS
 62
2
 10
-2.417194
 20
-5.456886
 11
0.208130
 21
-5.456886
  0
LINE
  8
0
  6
CONTINUOUS
 62
2
 10
0.900000
 20
-5.456886
 11
3.525000
 21
-5.456886
  0
LINE
  8
0
  6
CONTINUOUS
 62
2
 10
4.057652
 20
-5.456886
 11
9.525000
 21
-5.456886
  0
LINE
  8
0
  6
CONTINUOUS
 62
2
 10
10.125000
 20
-5.456886
 11
12.750084
 21
-5.456886
  0
LINE
  8
0
  6
CONTINUOUS
 62
2
 10
17.249916
 20
-5.456886
 11
19.875000
 21
-5.456886
  0
LINE
  8
0
  6
CONTINUOUS
 62
2
 10
-19.875000
 20
-5.156886
 11
-17.625000
 21
-5.156886
  0
LINE
  8
0
  6
CONTINUOUS
 62
2
 10
-17.218538
 20
-5.156886
 11
-12.781462
 21
-5.156886
  0
LINE
  8
0
  6
CONTINUOUS
 62
2
 10
-12.375000
 20
-5.156886
 11
-10.125000
 21
-5.156886
  0
LINE
  8
0
  6
CONTINUOUS
 62
2
 10
-9.541870
 20
-5.156886
 11
-6.916870
 21
-5.156886
  0
LINE
  8
0
  6
CONTINUOUS
 62
2
 10
-2.416870
 20
-5.156886
 11
0.208130
 21
-5.156886
  0
LINE
  8
0
  6
CONTINUOUS
 62
2
 10
0.900000
 20
-5.156886
 11
3.525000
 21
-5.156886
  0
LINE
  8
0
  6
CONTINUOUS
 62
2
 10
3.849959
 20
-5.156886
 11
6.705729
 21
-5.156886
  0
LINE
  8
0
  6
CONTINUOUS
 62
2
 10
6.900000
 20
-5.156886
 11
9.525000
 21
-5.156886
  0
LINE
  8
0
  6
CONTINUOUS
 62
2
 10
10.125000
 20
-5.156886
 11
12.750000
 21
-5.156886
  0
LINE
  8
0
  6
CONTINUOUS
 62
2
 10
17.250000
 20
-5.156886
 11
19.875000
 21
-5.156886
  0
LINE
  8
0
  6
CONTINUOUS
 62
2
 10
-19.875000
 20
-4.856886
 11
-17.625000
 21
-4.856886
  0
LINE
  8
0
  6
CONTINUOUS
 62
2
 10
-17.318538
 20
-4.856886
 11
-12.681462
 21
-4.856886
  0
LINE
  8
0
  6
CONTINUOUS
 62
2
 10
-12.375000
 20
-4.856886
 11
-10.125000
 21
-4.856886
  0
LINE
  8
0
  6
CONTINUOUS
 62
2
 10
-9.541870
 20
-4.856886
 11
-6.916870
 21
-4.856886
  0
LINE
  8
0
  6
CONTINUOUS
 62
2
 10
-2.416870
 20
-4.856886
 11
0.208130
 21
-4.856886
  0
LINE
  8
0
  6
CONTINUOUS
 62
2
 10
0.900000
 20
-4.856886
 11
3.525000
 21
-4.856886
  0
LINE
  8
0
  6
CONTINUOUS
 62
2
 10
3.642267
 20
-4.856886
 11
6.498036
 21
-4.856886
  0
LINE
  8
0
  6
CONTINUOUS
 62
2
 10
6.900000
 20
-4.856886
 11
9.525000
 21
-4.856886
  0
LINE
  8
0
  6
CONTINUOUS
 62
2
 10
10.125000
 20
-4.856886
 11
12.750000
 21
-4.856886
  0
LINE
  8
0
  6
CONTINUOUS
 62
2
 10
17.250000
 20
-4.856886
 11
19.875000
 21
-4.856886
  0
LINE
  8
0
  6
CONTINUOUS
 62
2
 10
-19.875000
 20
-4.556886
 11
-17.625000
 21
-4.556886
  0
LINE
  8
0
  6
CONTINUOUS
 62
2
 10
-17.418538
 20
-4.556886
 11
-12.581462
 21
-4.556886
  0
LINE
  8
0
  6
CONTINUOUS
 62
2
 10
-12.375000
 20
-4.556886
 11
-10.125000
 21
-4.556886
  0
LINE
  8
0
  6
CONTINUOUS
 62
2
 10
-9.541870
 20
-4.556886
 11
-6.914088
 21
-4.556886
  0
LINE
  8
0
  6
CONTINUOUS
 62
2
 10
-2.419652
 20
-4.556886
 11
0.208130
 21
-4.556886
  0
LINE
  8
0
  6
CONTINUOUS
 62
2
 10
0.900000
 20
-4.556886
 11
6.290344
 21
-4.556886
  0
LINE
  8
0
  6
CONTINUOUS
 62
2
 10
6.900000
 20
-4.556886
 11
9.525000
 21
-4.556886
  0
LINE
  8
0
  6
CONTINUOUS
 62
2
 10
10.125000
 20
-4.556886
 11
12.753794
 21
-4.556886
  0
LINE
  8
0
  6
CONTINUOUS
 62
2
 10
17.246206
 20
-4.556886
 11
19.875000
 21
-4.556886
  0
LINE
  8
0
  6
CONTINUOUS
 62
2
 10
-19.875000
 20
-4.256886
 11
-17.625000
 21
-4.256886
  0
LINE
  8
0
  6
CONTINUOUS
 62
2
 10
-17.518538
 20
-4.256886
 11
-12.481462
 21
-4.256886
  0
LINE
  8
0
  6
CONTINUOUS
 62
2
 10
-12.375000
 20
-4.256886
 11
-10.125000
 21
-4.256886
  0
LINE
  8
0
  6
CONTINUOUS
 62
2
 10
-9.541689
 20
-4.256886
 11
-6.878855
 21
-4.256886
  0
LINE
  8
0
  6
CONTINUOUS
 62
2
 10
-2.454886
 20
-4.256886
 11
0.207948
 21
-4.256886
  0
LINE
  8
0
  6
CONTINUOUS
 62
2
 10
0.900000
 20
-4.256886
 11
6.082652
 21
-4.256886
  0
LINE
  8
0
  6
CONTINUOUS
 62
2
 10
6.900000
 20
-4.256886
 11
9.525000
 21
-4.256886
  0
LINE
  8
0
  6
CONTINUOUS
 62
2
 10
10.125412
 20
-4.256886
 11
12.791591
 21
-4.256886
  0
LINE
  8
0
  6
CONTINUOUS
 62
2
 10
17.208409
 20
-4.256886
 11
19.874588
 21
-4.256886
  0
LINE
  8
0
  6
CONTINUOUS
 62
2
 10
-19.875000
 20
-3.956886
 11
-17.625000
 21
-3.956886
  0
LINE
  8
0
  6
CONTINUOUS
 62
2
 10
-17.618538
 20
-3.956886
 11
-12.381462
 21
-3.956886
  0
LINE
  8
0
  6
CONTINUOUS
 62
2
 10
-12.375000
 20
-3.956886
 11
-10.125000
 21
-3.956886
  0
LINE
  8
0
  6
CONTINUOUS
 62
2
 10
-9.526710
 20
-3.956886
 11
-6.801294
 21
-3.956886
  0
LINE
  8
0
  6
CONTINUOUS
 62
2
 10
-2.532447
 20
-3.956886
 11
0.192969
 21
-3.956886
  0
LINE
  8
0
  6
CONTINUOUS
 62
2
 10
0.900000
 20
-3.956886
 11
5.874959
 21
-3.956886
  0
LINE
  8
0
  6
CONTINUOUS
 62
2
 10
6.900000
 20
-3.956886
 11
9.525000
 21
-3.956886
  0
LINE
  8
0
  6
CONTINUOUS
 62
2
 10
10.141900
 20
-3.956886
 11
12.871925
 21
-3.956886
  0
LINE
  8
0
  6
CONTINUOUS
 62
2
 10
17.128075
 20
-3.956886
 11
19.858100
 21
-3.956886
  0
LINE
  8
0
  6
CONTINUOUS
 62
2
 10
-19.875000
 20
-3.656886
 11
-15.093538
 21
-3.656886
  0
LINE
  8
0
  6
CONTINUOUS
 62
2
 10
-14.906462
 20
-3.656886
 11
-10.125000
 21
-3.656886
  0
LINE
  8
0
  6
CONTINUOUS
 62
2
 10
-9.487397
 20
-3.656886
 11
-6.676510
 21
-3.656886
  0
LINE
  8
0
  6
CONTINUOUS
 62
2
 10
-2.657231
 20
-3.656886
 11
0.153656
 21
-3.656886
  0
LINE
  8
0
  6
CONTINUOUS
 62
2
 10
0.900000
 20
-3.656886
 11
5.667267
 21
-3.656886
  0
LINE
  8
0
  6
CONTINUOUS
 62
2
 10
6.900000
 20
-3.656886
 11
9.525000
 21
-3.656886
  0
LINE
  8
0
  6
CONTINUOUS
 62
2
 10
10.182755
 20
-3.656886
 11
12.999916
 21
-3.656886
  0
LINE
  8
0
  6
CONTINUOUS
 62
2
 10
17.000084
 20
-3.656886
 11
19.817245
 21
-3.656886
  0
LINE
  8
0
  6
CONTINUOUS
 62
2
 10
-19.875000
 20
-3.356886
 11
-15.193538
 21
-3.356886
  0
LINE
  8
0
  6
CONTINUOUS
 62
2
 10
-14.806462
 20
-3.356886
 11
-10.125000
 21
-3.356886
  0
LINE
  8
0
  6
CONTINUOUS
 62
2
 10
-9.422959
 20
-3.356886
 11
-6.494858
 21
-3.356886
  0
LINE
  8
0
  6
CONTINUOUS
 62
2
 10
-2.838883
 20
-3.356886
 11
0.089218
 21
-3.356886
  0
LINE
  8
0
  6
CONTINUOUS
 62
2
 10
0.900000
 20
-3.356886
 11
5.459575
 21
-3.356886
  0
LINE
  8
0
  6
CONTINUOUS
 62
2
 10
6.900000
 20
-3.356886
 11
9.525000
 21
-3.356886
  0
LINE
  8
0
  6
CONTINUOUS
 62
2
 10
10.248803
 20
-3.356886
 11
13.185622
 21
-3.356886
  0
LINE
  8
0
  6
CONTINUOUS
 62
2
 10
16.814378
 20
-3.356886
 11
19.751197
 21
-3.356886
  0
LINE
  8
0
  6
CONTINUOUS
 62
2
 10
-19.875000
 20
-3.056886
 11
-15.293538
 21
-3.056886
  0
LINE
  8
0
  6
CONTINUOUS
 62
2
 10
-14.706462
 20
-3.056886
 11
-10.125000
 21
-3.056886
  0
LINE
  8
0
  6
CONTINUOUS
 62
2
 10
-9.332025
 20
-3.056886
 11
-6.236719
 21
-3.056886
  0
LINE
  8
0
  6
CONTINUOUS
 62
2
 10
-3.097022
 20
-3.056886
 11
-0.001716
 21
-3.056886
  0
LINE
  8
0
  6
CONTINUOUS
 62
2
 10
0.900000
 20
-3.056886
 11
5.251882
 21
-3.056886
  0
LINE
  8
0
  6
CONTINUOUS
 62
2
 10
6.900000
 20
-3.056886
 11
9.525000
 21
-3.056886
  0
LINE
  8
0
  6
CONTINUOUS
 62
2
 10
10.341456
 20
-3.056886
 11
13.449646
 21
-3.056886
  0
LINE
  8
0
  6
CONTINUOUS
 62
2
 10
16.550354
 20
-3.056886
 11
19.658544
 21
-3.056886
  0
LINE
  8
0
  6
CONTINUOUS
 62
2
 10
-19.875000
 20
-2.756886
 11
-15.393538
 21
-2.756886
  0
LINE
  8
0
  6
CONTINUOUS
 62
2
 10
-14.606462
 20
-2.756886
 11
-10.125000
 21
-2.756886
  0
LINE
  8
0
  6
CONTINUOUS
 62
2
 10
-9.212481
 20
-2.756886
 11
-5.853172
 21
-2.756886
  0
LINE
  8
0
  6
CONTINUOUS
 62
2
 10
-3.480568
 20
-2.756886
 11
-0.121260
 21
-2.756886
  0
LINE
  8
0
  6
CONTINUOUS
 62
2
 10
0.900000
 20
-2.756886
 11
5.044190
 21
-2.756886
  0
LINE
  8
0
  6
CONTINUOUS
 62
2
 10
6.900000
 20
-2.756886
 11
9.525000
 21
-2.756886
  0
LINE
  8
0
  6
CONTINUOUS
 62
2
 10
10.462880
 20
-2.756886
 11
13.844479
 21
-2.756886
  0
LINE
  8
0
  6
CONTINUOUS
 62
2
 10
16.155521
 20
-2.756886
 11
19.537120
 21
-2.756886
  0
LINE
  8
0
  6
CONTINUOUS
 62
2
 10
-19.875000
 20
-2.456886
 11
-15.493538
 21
-2.456886
  0
LINE
  8
0
  6
CONTINUOUS
 62
2
 10
-14.506462
 20
-2.456886
 11
-10.125000
 21
-2.456886
  0
LINE
  8
0
  6
CONTINUOUS
 62
2
 10
-9.061192
 20
-2.456886
 11
-5.079423
 21
-2.456886
  0
LINE
  8
0
  6
CONTINUOUS
 62
2
 10
-4.254318
 20
-2.456886
 11
-0.272549
 21
-2.456886
  0
LINE
  8
0
  6
CONTINUOUS
 62
2
 10
0.900000
 20
-2.456886
 11
4.836498
 21
-2.456886
  0
LINE
  8
0
  6
CONTINUOUS
 62
2
 10
6.900000
 20
-2.456886
 11
9.525000
 21
-2.456886
  0
LINE
  8
0
  6
CONTINUOUS
 62
2
 10
10.616289
 20
-2.456886
 11
14.705279
 21
-2.456886
  0
LINE
  8
0
  6
CONTINUOUS
 62
2
 10
15.294721
 20
-2.456886
 11
19.383711
 21
-2.456886
  0
LINE
  8
0
  6
CONTINUOUS
 62
2
 10
-19.875000
 20
-2.156886
 11
-15.593538
 21
-2.156886
  0
LINE
  8
0
  6
CONTINUOUS
 62
2
 10
-14.406462
 20
-2.156886
 11
-10.125000
 21
-2.156886
  0
LINE
  8
0
  6
CONTINUOUS
 62
2
 10
-8.873486
 20
-2.156886
 11
-0.460255
 21
-2.156886
  0
LINE
  8
0
  6
CONTINUOUS
 62
2
 10
0.900000
 20
-2.156886
 11
4.628806
 21
-2.156886
  0
LINE
  8
0
  6
CONTINUOUS
 62
2
 10
6.900000
 20
-2.156886
 11
9.525000
 21
-2.156886
  0
LINE
  8
0
  6
CONTINUOUS
 62
2
 10
10.806478
 20
-2.156886
 11
19.193522
 21
-2.156886
  0
LINE
  8
0
  6
CONTINUOUS
 62
2
 10
-19.875000
 20
-1.856886
 11
-15.693538
 21
-1.856886
  0
LINE
  8
0
  6
CONTINUOUS
 62
2
 10
-14.306462
 20
-1.856886
 11
-10.125000
 21
-1.856886
  0
LINE
  8
0
  6
CONTINUOUS
 62
2
 10
-8.642176
 20
-1.856886
 11
-0.691565
 21
-1.856886
  0
LINE
  8
0
  6
CONTINUOUS
 62
2
 10
0.900000
 20
-1.856886
 11
4.421113
 21
-1.856886
  0
LINE
  8
0
  6
CONTINUOUS
 62
2
 10
6.900000
 20
-1.856886
 11
9.525000
 21
-1.856886
  0
LINE
  8
0
  6
CONTINUOUS
 62
2
 10
11.040841
 20
-1.856886
 11
18.959159
 21
-1.856886
  0
LINE
  8
0
  6
CONTINUOUS
 62
2
 10
-19.875000
 20
-1.556886
 11
-15.793538
 21
-1.556886
  0
LINE
  8
0
  6
CONTINUOUS
 62
2
 10
-14.206462
 20
-1.556886
 11
-10.125000
 21
-1.556886
  0
LINE
  8
0
  6
CONTINUOUS
 62
2
 10
-8.355487
 20
-1.556886
 11
-0.978254
 21
-1.556886
  0
LINE
  8
0
  6
CONTINUOUS
 62
2
 10
0.900000
 20
-1.556886
 11
4.213421
 21
-1.556886
  0
LINE
  8
0
  6
CONTINUOUS
 62
2
 10
6.900000
 20
-1.556886
 11
9.525000
 21
-1.556886
  0
LINE
  8
0
  6
CONTINUOUS
 62
2
 10
11.331559
 20
-1.556886
 11
18.668441
 21
-1.556886
  0
LINE
  8
0
  6
CONTINUOUS
 62
2
 10
-19.875000
 20
-1.256886
 11
-15.893538
 21
-1.256886
  0
LINE
  8
0
  6
CONTINUOUS
 62
2
 10
-14.106462
 20
-1.256886
 11
-10.125000
 21
-1.256886
  0
LINE
  8
0
  6
CONTINUOUS
 62
2
 10
-7.991874
 20
-1.256886
 11
-1.341867
 21
-1.256886
  0
LINE
  8
0
  6
CONTINUOUS
 62
2
 10
0.900000
 20
-1.256886
 11
4.005729
 21
-1.256886
  0
LINE
  8
0
  6
CONTINUOUS
 62
2
 10
6.900000
 20
-1.256886
 11
9.525000
 21
-1.256886
  0
LINE
  8
0
  6
CONTINUOUS
 62
2
 10
11.701127
 20
-1.256886
 11
18.298873
 21
-1.256886
  0
LINE
  8
0
  6
CONTINUOUS
 62
2
 10
-19.875000
 20
-0.956886
 11
-15.993538
 21
-0.956886
  0
LINE
  8
0
  6
CONTINUOUS
 62
2
 10
-14.006462
 20
-0.956886
 11
-10.125000
 21
-0.956886
  0
LINE
  8
0
  6
CONTINUOUS
 62
2
 10
-7.502982
 20
-0.956886
 11
-1.830759
 21
-0.956886
  0
LINE
  8
0
  6
CONTINUOUS
 62
2
 10
0.900000
 20
-0.956886
 11
3.798036
 21
-0.956886
  0
LINE
  8
0
  6
CONTINUOUS
 62
2
 10
6.900000
 20
-0.956886
 11
9.525000
 21
-0.956886
  0
LINE
  8
0
  6
CONTINUOUS
 62
2
 10
12.200977
 20
-0.956886
 11
17.799023
 21
-0.956886
  0
LINE
  8
0
  6
CONTINUOUS
 62
2
 10
-19.875000
 20
-0.656886
 11
-16.093538
 21
-0.656886
  0
LINE
  8
0
  6
CONTINUOUS
 62
2
 10
-13.906462
 20
-0.656886
 11
-10.125000
 21
-0.656886
  0
LINE
  8
0
  6
CONTINUOUS
 62
2
 10
-6.706086
 20
-0.656886
 11
-2.627655
 21
-0.656886
  0
LINE
  8
0
  6
CONTINUOUS
 62
2
 10
0.900000
 20
-0.656886
 11
3.590344
 21
-0.656886
  0
LINE
  8
0
  6
CONTINUOUS
 62
2
 10
6.900000
 20
-0.656886
 11
9.525000
 21
-0.656886
  0
LINE
  8
0
  6
CONTINUOUS
 62
2
 10
13.038947
 20
-0.656886
 11
16.961053
 21
-0.656886
  0
LINE
  8
0
  6
CONTINUOUS
 62
2
 10
-19.875000
 20
1.743114
 11
19.875000
 21
1.743114
  0
LINE
  8
0
  6
CONTINUOUS
 62
2
 10
-19.875000
 20
2.043114
 11
19.875000
 21
2.043114
  0
LINE
  8
0
  6
CONTINUOUS
 62
2
 10
-19.875000
 20
2.343114
 11
19.875000
 21
2.343114
  0
LINE
  8
0
  6
CONTINUOUS
 62
2
 10
-19.875000
 20
2.643114
 11
19.875000
 21
2.643114
  0
LINE
  8
0
  6
CONTINUOUS
 62
2
 10
-19.875000
 20
2.943114
 11
19.875000
 21
2.943114
  0
LINE
  8
0
  6
CONTINUOUS
 62
2
 10
-19.875000
 20
3.243114
 11
19.875000
 21
3.243114
  0
LINE
  8
0
  6
CONTINUOUS
 62
2
 10
-19.875000
 20
3.543114
 11
19.875000
 21
3.543114
  0
LINE
  8
0
  6
CONTINUOUS
 62
2
 10
-19.875000
 20
5.943114
 11
19.875000
 21
5.943114
  0
LINE
  8
0
  6
CONTINUOUS
 62
2
 10
-19.875000
 20
6.243114
 11
19.875000
 21
6.243114
  0
LINE
  8
0
  6
CONTINUOUS
 62
2
 10
-19.875000
 20
6.543114
 11
19.875000
 21
6.543114
  0
LINE
  8
0
  6
CONTINUOUS
 62
2
 10
-19.875000
 20
6.843114
 11
19.875000
 21
6.843114
  0
LINE
  8
0
  6
CONTINUOUS
 62
2
 10
-19.875000
 20
7.143114
 11
19.875000
 21
7.143114
  0
LINE
  8
0
  6
CONTINUOUS
 62
2
 10
-19.875000
 20
9.843114
 11
19.875000
 21
9.843114
  0
LINE
  8
0
  6
CONTINUOUS
 62
2
 10
-19.875000
 20
10.143114
 11
19.875000
 21
10.143114
  0
LINE
  8
0
  6
CONTINUOUS
 62
2
 10
-19.875000
 20
10.443114
 11
19.875000
 21
10.443114
  0
LINE
  8
0
  6
CONTINUOUS
 62
2
 10
-19.875000
 20
13.143114
 11
19.875000
 21
13.143114
  0
LINE
  8
0
  6
CONTINUOUS
 62
2
 10
-19.875000
 20
13.443114
 11
19.875000
 21
13.443114
  0
LINE
  8
0
  6
CONTINUOUS
 62
2
 10
-19.875000
 20
16.143114
 11
19.875000
 21
16.143114
  0
ENDBLK
  0
BLOCK
  2
*D1
  8
0
 70
1
 10
0.0
 20
0.0
  0
LINE
  8
0
  6
CONTINUOUS
 62
1
 10
3318.024826
 20
4070.499645
 11
3318.024826
 21
4296.139624
  0
LINE
  8
0
  6
CONTINUOUS
 62
1
 10
3318.024826
 20
4266.139624
 11
4318.024826
 21
4266.139624
  0
LINE
  8
0
  6
CONTINUOUS
 62
1
 10
3318.024826
 20
4266.139624
 11
3353.024826
 21
4261.139624
  0
LINE
  8
0
  6
CONTINUOUS
 62
1
 10
3353.024826
 20
4261.139624
 11
3353.024826
 21
4268.639624
  0
LINE
  8
0
  6
CONTINUOUS
 62
1
 10
3353.024826
 20
4268.639624
 11
3333.024826
 21
4266.139624
  0
LINE
  8
0
  6
CONTINUOUS
 62
1
 10
3333.024826
 20
4266.139624
 11
3353.024826
 21
4263.639624
  0
LINE
  8
0
  6
CONTINUOUS
 62
1
 10
3353.024826
 20
4263.639624
 11
3353.024826
 21
4271.139624
  0
LINE
  8
0
  6
CONTINUOUS
 62
1
 10
3353.024826
 20
4271.139624
 11
3318.024826
 21
4266.139624
  0
LINE
  8
0
  6
CONTINUOUS
 62
1
 10
4318.024826
 20
4266.139624
 11
4283.024826
 21
4271.139624
  0
LINE
  8
0
  6
CONTINUOUS
 62
1
 10
4283.024826
 20
4271.139624
 11
4283.024826
 21
4263.639624
  0
LINE
  8
0
  6
CONTINUOUS
 62
1
 10
4283.024826
 20
4263.639624
 11
4303.024826
 21
4266.139624
  0
LINE
  8
0
  6
CONTINUOUS
 62
1
 10
4303.024826
 20
4266.139624
 11
4283.024826
 21
4268.639624
  0
LINE
  8
0
  6
CONTINUOUS
 62
1
 10
4283.024826
 20
4268.639624
 11
4283.024826
 21
4261.139624
  0
LINE
  8
0
  6
CONTINUOUS
 62
1
 10
4283.024826
 20
4261.139624
 11
4318.024826
 21
4266.139624
  0
LINE
  8
0
  6
CONTINUOUS
 62
1
 10
4318.024826
 20
4296.139624
 11
4318.024826
 21
4070.499645
  0
TEXT
  8
0
  6
CONTINUOUS
 62
1
 10
3739.274826
 20
4283.639624
 40
35.000000
  1
1000.0
 50
0.000000
 41
1.000000
 51
0.000000
  7
STANDARD
  0
ENDBLK
  0
BLOCK
  2
*D2
  8
0
 70
1
 10
0.0
 20
0.0
  0
LINE
  8
0
  6
CONTINUOUS
 62
1
 10
3299.804326
 20
4061.699645
 11
3152.236977
 21
4061.699645
  0
LINE
  8
0
  6
CONTINUOUS
 62
1
 10
3182.236977
 20
4061.699645
 11
3182.236977
 21
3200.699645
  0
LINE
  8
0
  6
CONTINUOUS
 62
1
 10
3182.236977
 20
4061.699645
 11
3177.236977
 21
4026.699645
  0
LINE
  8
0
  6
CONTINUOUS
 62
1
 10
3177.236977
 20
4026.699645
 11
3184.736977
 21
4026.699645
  0
LINE
  8
0
  6
CONTINUOUS
 62
1
 10
3184.736977
 20
4026.699645
 11
3182.236977
 21
4046.699645
  0
LINE
  8
0
  6
CONTINUOUS
 62
1
 10
3182.236977
 20
4046.699645
 11
3179.736977
 21
4026.699645
  0
LINE
  8
0
  6
CONTINUOUS
 62
1
 10
3179.736977
 20
4026.699645
 11
3187.236977
 21
4026.699645
  0
LINE
  8
0
  6
CONTINUOUS
 62
1
 10
3187.236977
 20
4026.699645
 11
3182.236977
 21
4061.699645
  0
LINE
  8
0
  6
CONTINUOUS
 62
1
 10
3182.236977
 20
3200.699645
 11
3187.236977
 21
3235.699645
  0
LINE
  8
0
  6
CONTINUOUS
 62
1
 10
3187.236977
 20
3235.699645
 11
3179.736977
 21
3235.699645
  0
LINE
  8
0
  6
CONTINUOUS
 62
1
 10
3179.736977
 20
3235.699645
 11
3182.236977
 21
3215.699645
  0
LINE
  8
0
  6
CONTINUOUS
 62
1
 10
3182.236977
 20
3215.699645
 11
3184.736977
 21
3235.699645
  0
LINE
  8
0
  6
CONTINUOUS
 62
1
 10
3184.736977
 20
3235.699645
 11
3177.236977
 21
3235.699645
  0
LINE
  8
0
  6
CONTINUOUS
 62
1
 10
3177.236977
 20
3235.699645
 11
3182.236977
 21
3200.699645
  0
LINE
  8
0
  6
CONTINUOUS
 62
1
 10
3152.236977
 20
3200.699645
 11
3295.724826
 21
3200.699645
  0
TEXT
  8
0
  6
CONTINUOUS
 62
1
 10
3164.736977
 20
3566.449645
 40
35.000000
  1
861.0
 50
90.000000
 41
1.000000
 51
0.000000
  7
STANDARD
  0
ENDBLK
  0
ENDSEC
  0
SECTION
  2
ENTITIES
  0
CIRCLE
  8
0
  6
CONTINUOUS
 62
3
 10
4222.029802
 20
3796.357302
 40
19.500000
  0
LINE
  8
0
  6
CONTINUOUS
 62
3
 10
4091.089826
 20
3267.283545
 11
4091.089826
 21
3267.199645
  0
LINE
  8
0
  6
CONTINUOUS
 62
3
 10
4091.089826
 20
3267.283545
 11
4106.214826
 21
3267.283545
  0
LINE
  8
0
  6
CONTINUOUS
 62
3
 10
4106.214826
 20
3267.283545
 11
4111.089826
 21
3267.283545
  0
LINE
  8
0
  6
CONTINUOUS
 62
3
 10
4111.089826
 20
3267.283545
 11
4111.089826
 21
3267.199645
  0
LINE
  8
0
  6
CONTINUOUS
 62
3
 10
4091.089826
 20
3265.199645
 11
4091.089826
 21
3267.199645
  0
LINE
  8
0
  6
CONTINUOUS
 62
3
 10
4111.089826
 20
3267.199645
 11
4111.089826
 21
3265.199645
  0
LINE
  8
0
  6
CONTINUOUS
 62
3
 10
4091.089826
 20
3262.917534
 11
4091.089826
 21
3265.199645
  0
LINE
  8
0
  6
CONTINUOUS
 62
3
 10
4111.089826
 20
3262.917534
 11
4111.089826
 21
3265.199645
  0
LINE
  8
0
  6
CONTINUOUS
 62
3
 10
4091.089826
 20
3250.699645
 11
4091.089826
 21
3261.786986
  0
LINE
  8
0
  6
CONTINUOUS
 62
3
 10
4091.089826
 20
3261.786986
 11
4091.089826
 21
3262.917534
  0
LINE
  8
0
  6
CONTINUOUS
 62
3
 10
4111.089826
 20
3262.917534
 11
4111.089826
 21
3250.699645
  0
LINE
  8
0
  6
CONTINUOUS
 62
3
 10
3380.724826
 20
3207.899645
 11
3380.724826
 21
3209.495841
  0
LINE
  8
0
  6
CONTINUOUS
 62
3
 10
3390.724826
 20
3207.899645
 11
3380.724826
 21
3207.899645
  0
LINE
  8
0
  6
CONTINUOUS
 62
3
 10
3385.024826
 20
3237.899645
 11
3390.724826
 21
3237.899645
  0
LINE
  8
0
  6
CONTINUOUS
 62
3
 10
3390.724826
 20
3237.899645
 11
3390.724826
 21
3207.899645
  0
LINE
  8
0
  6
CONTINUOUS
 62
3
 10
4116.524826
 20
3203.399645
 11
4116.500957
 21
3203.047497
  0
LINE
  8
0
  6
CONTINUOUS
 62
3
 10
4116.500957
 20
3203.047497
 11
4116.430873
 21
3202.701583
  0
LINE
  8
0
  6
CONTINUOUS
 62
3
 10
4116.430873
 20
3202.701583
 11
4116.316854
 21
3202.367413
  0
LINE
  8
0
  6
CONTINUOUS
 62
3
 10
4116.316854
 20
3202.367413
 11
4116.161184
 21
3202.050496
  0
LINE
  8
0
  6
CONTINUOUS
 62
3
 10
4116.161184
 20
3202.050496
 11
4116.068442
 21
3201.900229
  0
LINE
  8
0
  6
CONTINUOUS
 62
3
 10
4116.068442
 20
3201.900229
 11
4115.966143
 21
3201.756341
  0
LINE
  8
0
  6
CONTINUOUS
 62
3
 10
4115.966143
 20
3201.756341
 11
4115.854572
 21
3201.619520
  0
LINE
  8
0
  6
CONTINUOUS
 62
3
 10
4115.854572
 20
3201.619520
 11
4115.734014
 21
3201.490456
  0
LINE
  8
0
  6
CONTINUOUS
 62
3
 10
4115.734014
 20
3201.490456
 11
4115.604950
 21
3201.369899
  0
LINE
  8
0
  6
CONTINUOUS
 62
3
 10
4115.604950
 20
3201.369899
 11
4115.468130
 21
3201.258328
  0
LINE
  8
0
  6
CONTINUOUS
 62
3
 10
4115.468130
 20
3201.258328
 11
4115.324242
 21
3201.156029
  0
LINE
  8
0
  6
CONTINUOUS
 62
3
 10
4115.324242
 20
3201.156029
 11
4115.173975
 21
3201.063287
  0
LINE
  8
0
  6
CONTINUOUS
 62
3
 10
4115.173975
 20
3201.063287
 11
4115.018017
 21
3200.980388
  0
LINE
  8
0
  6
CONTINUOUS
 62
3
 10
4115.018017
 20
3200.980388
 11
4114.857058
 21
3200.907616
  0
LINE
  8
0
  6
CONTINUOUS
 62
3
 10
4114.857058
 20
3200.907616
 11
4114.774918
 21
3200.875118
  0
LINE
  8
0
  6
CONTINUOUS
 62
3
 10
4114.774918
 20
3200.875118
 11
4114.691785
 21
3200.845258
  0
LINE
  8
0
  6
CONTINUOUS
 62
3
 10
4114.691785
 20
3200.845258
 11
4114.522888
 21
3200.793598
  0
LINE
  8
0
  6
CONTINUOUS
 62
3
 10
4114.522888
 20
3200.793598
 11
4114.437295
 21
3200.771869
  0
LINE
  8
0
  6
CONTINUOUS
 62
3
 10
4114.437295
 20
3200.771869
 11
4114.351055
 21
3200.752921
  0
LINE
  8
0
  6
CONTINUOUS
 62
3
 10
4114.351055
 20
3200.752921
 11
4114.176974
 21
3200.723513
  0
LINE
  8
0
  6
CONTINUOUS
 62
3
 10
4114.176974
 20
3200.723513
 11
4114.089311
 21
3200.713125
  0
LINE
  8
0
  6
CONTINUOUS
 62
3
 10
4114.089311
 20
3200.713125
 11
4114.001339
 21
3200.705660
  0
LINE
  8
0
  6
CONTINUOUS
 62
3
 10
4114.001339
 20
3200.705660
 11
4113.824830
 21
3200.699645
  0
LINE
  8
0
  6
CONTINUOUS
 62
3
 10
4116.524826
 20
3203.399645
 11
4116.524826
 21
3247.999645
  0
LINE
  8
0
  6
CONTINUOUS
 62
3
 10
4113.824826
 20
3200.699645
 11
3325.724826
 21
3200.699645
  0
LINE
  8
0
  6
CONTINUOUS
 62
3
 10
4113.824826
 20
3250.699645
 11
4114.041932
 21
3250.690182
  0
LINE
  8
0
  6
CONTINUOUS
 62
3
 10
4114.041932
 20
3250.690182
 11
4114.266774
 21
3250.661165
  0
LINE
  8
0
  6
CONTINUOUS
 62
3
 10
4114.266774
 20
3250.661165
 11
4114.496377
 21
3250.611652
  0
LINE
  8
0
  6
CONTINUOUS
 62
3
 10
4114.496377
 20
3250.611652
 11
4114.727771
 21
3250.540702
  0
LINE
  8
0
  6
CONTINUOUS
 62
3
 10
4114.727771
 20
3250.540702
 11
4114.957983
 21
3250.447371
  0
LINE
  8
0
  6
CONTINUOUS
 62
3
 10
4114.957983
 20
3250.447371
 11
4115.184040
 21
3250.330719
  0
LINE
  8
0
  6
CONTINUOUS
 62
3
 10
4115.184040
 20
3250.330719
 11
4115.402971
 21
3250.189802
  0
LINE
  8
0
  6
CONTINUOUS
 62
3
 10
4115.402971
 20
3250.189802
 11
4115.611802
 21
3250.023679
  0
LINE
  8
0
  6
CONTINUOUS
 62
3
 10
4115.611802
 20
3250.023679
 11
4115.711348
 21
3249.931141
  0
LINE
  8
0
  6
CONTINUOUS
 62
3
 10
4115.711348
 20
3249.931141
 11
4115.806932
 21
3249.832732
  0
LINE
  8
0
  6
CONTINUOUS
 62
3
 10
4115.806932
 20
3249.832732
 11
4115.898165
 21
3249.728707
  0
LINE
  8
0
  6
CONTINUOUS
 62
3
 10
4115.898165
 20
3249.728707
 11
4115.984655
 21
3249.619316
  0
LINE
  8
0
  6
CONTINUOUS
 62
3
 10
4115.984655
 20
3249.619316
 11
4116.066012
 21
3249.504812
  0
LINE
  8
0
  6
CONTINUOUS
 62
3
 10
4116.066012
 20
3249.504812
 11
4116.141844
 21
3249.385448
  0
LINE
  8
0
  6
CONTINUOUS
 62
3
 10
4116.141844
 20
3249.385448
 11
4116.211761
 21
3249.261475
  0
LINE
  8
0
  6
CONTINUOUS
 62
3
 10
4116.211761
 20
3249.261475
 11
4116.275372
 21
3249.133145
  0
LINE
  8
0
  6
CONTINUOUS
 62
3
 10
4116.275372
 20
3249.133145
 11
4116.332279
 21
3249.000779
  0
LINE
  8
0
  6
CONTINUOUS
 62
3
 10
4116.332279
 20
3249.000779
 11
4116.382218
 21
3248.864831
  0
LINE
  8
0
  6
CONTINUOUS
 62
3
 10
4116.382218
 20
3248.864831
 11
4116.424997
 21
3248.725762
  0
LINE
  8
0
  6
CONTINUOUS
 62
3
 10
4116.424997
 20
3248.725762
 11
4116.460426
 21
3248.584029
  0
LINE
  8
0
  6
CONTINUOUS
 62
3
 10
4116.460426
 20
3248.584029
 11
4116.488315
 21
3248.440092
  0
LINE
  8
0
  6
CONTINUOUS
 62
3
 10
4116.488315
 20
3248.440092
 11
4116.508472
 21
3248.294410
  0
LINE
  8
0
  6
CONTINUOUS
 62
3
 10
4116.508472
 20
3248.294410
 11
4116.520705
 21
3248.147446
  0
LINE
  8
0
  6
CONTINUOUS
 62
3
 10
4116.520705
 20
3248.147446
 11
4116.524826
 21
3247.999650
  0
LINE
  8
0
  6
CONTINUOUS
 62
3
 10
4113.683405
 20
3250.699645
 11
4113.824826
 21
3250.699645
  0
LINE
  8
0
  6
CONTINUOUS
 62
3
 10
4113.824826
 20
3250.692510
 11
4113.824826
 21
3250.699644
  0
LINE
  8
0
  6
CONTINUOUS
 62
3
 10
4113.683405
 20
3250.699645
 11
3385.024826
 21
3250.699645
  0
LINE
  8
0
  6
CONTINUOUS
 62
3
 10
3324.024826
 20
3250.699645
 11
3323.024826
 21
3250.699645
  0
LINE
  8
0
  6
CONTINUOUS
 62
3
 10
3323.024826
 20
3250.699645
 11
3323.024826
 21
3203.399645
  0
LINE
  8
0
  6
CONTINUOUS
 62
3
 10
3325.724826
 20
3200.699645
 11
3325.372678
 21
3200.723513
  0
LINE
  8
0
  6
CONTINUOUS
 62
3
 10
3325.372678
 20
3200.723513
 11
3325.026764
 21
3200.793598
  0
LINE
  8
0
  6
CONTINUOUS
 62
3
 10
3325.026764
 20
3200.793598
 11
3324.692594
 21
3200.907616
  0
LINE
  8
0
  6
CONTINUOUS
 62
3
 10
3324.692594
 20
3200.907616
 11
3324.375677
 21
3201.063287
  0
LINE
  8
0
  6
CONTINUOUS
 62
3
 10
3324.375677
 20
3201.063287
 11
3324.225410
 21
3201.156029
  0
LINE
  8
0
  6
CONTINUOUS
 62
3
 10
3324.225410
 20
3201.156029
 11
3324.081522
 21
3201.258328
  0
LINE
  8
0
  6
CONTINUOUS
 62
3
 10
3324.081522
 20
3201.258328
 11
3323.944702
 21
3201.369899
  0
LINE
  8
0
  6
CONTINUOUS
 62
3
 10
3323.944702
 20
3201.369899
 11
3323.815638
 21
3201.490456
  0
LINE
  8
0
  6
CONTINUOUS
 62
3
 10
3323.815638
 20
3201.490456
 11
3323.695080
 21
3201.619520
  0
LINE
  8
0
  6
CONTINUOUS
 62
3
 10
3323.695080
 20
3201.619520
 11
3323.583509
 21
3201.756341
  0
LINE
  8
0
  6
CONTINUOUS
 62
3
 10
3323.583509
 20
3201.756341
 11
3323.481210
 21
3201.900229
  0
LINE
  8
0
  6
CONTINUOUS
 62
3
 10
3323.481210
 20
3201.900229
 11
3323.388468
 21
3202.050496
  0
LINE
  8
0
  6
CONTINUOUS
 62
3
 10
3323.388468
 20
3202.050496
 11
3323.305569
 21
3202.206453
  0
LINE
  8
0
  6
CONTINUOUS
 62
3
 10
3323.305569
 20
3202.206453
 11
3323.232798
 21
3202.367413
  0
LINE
  8
0
  6
CONTINUOUS
 62
3
 10
3323.232798
 20
3202.367413
 11
3323.200299
 21
3202.449553
  0
LINE
  8
0
  6
CONTINUOUS
 62
3
 10
3323.200299
 20
3202.449553
 11
3323.170439
 21
3202.532686
  0
LINE
  8
0
  6
CONTINUOUS
 62
3
 10
3323.170439
 20
3202.532686
 11
3323.118779
 21
3202.701583
  0
LINE
  8
0
  6
CONTINUOUS
 62
3
 10
3323.118779
 20
3202.701583
 11
3323.097050
 21
3202.787175
  0
LINE
  8
0
  6
CONTINUOUS
 62
3
 10
3323.097050
 20
3202.787175
 11
3323.078103
 21
3202.873416
  0
LINE
  8
0
  6
CONTINUOUS
 62
3
 10
3323.078103
 20
3202.873416
 11
3323.048695
 21
3203.047497
  0
LINE
  8
0
  6
CONTINUOUS
 62
3
 10
3323.048695
 20
3203.047497
 11
3323.038306
 21
3203.135160
  0
LINE
  8
0
  6
CONTINUOUS
 62
3
 10
3323.038306
 20
3203.135160
 11
3323.030841
 21
3203.223131
  0
LINE
  8
0
  6
CONTINUOUS
 62
3
 10
3323.030841
 20
3203.223131
 11
3323.024826
 21
3203.399641
  0
LINE
  8
0
  6
CONTINUOUS
 62
3
 10
4076.724826
 20
3207.899645
 11
4076.724826
 21
3237.899645
  0
LINE
  8
0
  6
CONTINUOUS
 62
3
 10
4086.724826
 20
3207.899645
 11
4076.724826
 21
3207.899645
  0
LINE
  8
0
  6
CONTINUOUS
 62
3
 10
4086.724826
 20
3237.899645
 11
4086.724826
 21
3207.899645
  0
LINE
  8
0
  6
CONTINUOUS
 62
3
 10
4076.724826
 20
3237.899645
 11
4086.724826
 21
3237.899645
  0
LINE
  8
0
  6
CONTINUOUS
 62
3
 10
4064.724826
 20
3207.899645
 11
4064.724826
 21
3237.899645
  0
LINE
  8
0
  6
CONTINUOUS
 62
3
 10
4074.724826
 20
3207.899645
 11
4064.724826
 21
3207.899645
  0
LINE
  8
0
  6
CONTINUOUS
 62
3
 10
4074.724826
 20
3237.899645
 11
4074.724826
 21
3207.899645
  0
LINE
  8
0
  6
CONTINUOUS
 62
3
 10
4064.724826
 20
3237.899645
 11
4074.724826
 21
3237.899645
  0
LINE
  8
0
  6
CONTINUOUS
 62
3
 10
4052.724826
 20
3207.899645
 11
4052.724826
 21
3237.899645
  0
LINE
  8
0
  6
CONTINUOUS
 62
3
 10
4062.724826
 20
3207.899645
 11
4052.724826
 21
3207.899645
  0
LINE
  8
0
  6
CONTINUOUS
 62
3
 10
4062.724826
 20
3237.899645
 11
4062.724826
 21
3207.899645
  0
LINE
  8
0
  6
CONTINUOUS
 62
3
 10
4052.724826
 20
3237.899645
 11
4062.724826
 21
3237.899645
  0
LINE
  8
0
  6
CONTINUOUS
 62
3
 10
4040.724826
 20
3207.899645
 11
4040.724826
 21
3237.899645
  0
LINE
  8
0
  6
CONTINUOUS
 62
3
 10
4050.724826
 20
3207.899645
 11
4040.724826
 21
3207.899645
  0
LINE
  8
0
  6
CONTINUOUS
 62
3
 10
4050.724826
 20
3237.899645
 11
4050.724826
 21
3207.899645
  0
LINE
  8
0
  6
CONTINUOUS
 62
3
 10
4040.724826
 20
3237.899645
 11
4050.724826
 21
3237.899645
  0
LINE
  8
0
  6
CONTINUOUS
 62
3
 10
4028.724826
 20
3207.899645
 11
4028.724826
 21
3237.899645
  0
LINE
  8
0
  6
CONTINUOUS
 62
3
 10
4038.724826
 20
3207.899645
 11
4028.724826
 21
3207.899645
  0
LINE
  8
0
  6
CONTINUOUS
 62
3
 10
4038.724826
 20
3237.899645
 11
4038.724826
 21
3207.899645
  0
LINE
  8
0
  6
CONTINUOUS
 62
3
 10
4028.724826
 20
3237.899645
 11
4038.724826
 21
3237.899645
  0
LINE
  8
0
  6
CONTINUOUS
 62
3
 10
4016.724826
 20
3207.899645
 11
4016.724826
 21
3237.899645
  0
LINE
  8
0
  6
CONTINUOUS
 62
3
 10
4026.724826
 20
3207.899645
 11
4016.724826
 21
3207.899645
  0
LINE
  8
0
  6
CONTINUOUS
 62
3
 10
4026.724826
 20
3237.899645
 11
4026.724826
 21
3207.899645
  0
LINE
  8
0
  6
CONTINUOUS
 62
3
 10
4016.724826
 20
3237.899645
 11
4026.724826
 21
3237.899645
  0
LINE
  8
0
  6
CONTINUOUS
 62
3
 10
4004.724826
 20
3207.899645
 11
4004.724826
 21
3237.899645
  0
LINE
  8
0
  6
CONTINUOUS
 62
3
 10
4014.724826
 20
3207.899645
 11
4004.724826
 21
3207.899645
  0
LINE
  8
0
  6
CONTINUOUS
 62
3
 10
4014.724826
 20
3237.899645
 11
4014.724826
 21
3207.899645
  0
LINE
  8
0
  6
CONTINUOUS
 62
3
 10
4004.724826
 20
3237.899645
 11
4014.724826
 21
3237.899645
  0
LINE
  8
0
  6
CONTINUOUS
 62
3
 10
3992.724826
 20
3207.899645
 11
3992.724826
 21
3237.899645
  0
LINE
  8
0
  6
CONTINUOUS
 62
3
 10
4002.724826
 20
3207.899645
 11
3992.724826
 21
3207.899645
  0
LINE
  8
0
  6
CONTINUOUS
 62
3
 10
4002.724826
 20
3237.899645
 11
4002.724826
 21
3207.899645
  0
LINE
  8
0
  6
CONTINUOUS
 62
3
 10
3992.724826
 20
3237.899645
 11
4002.724826
 21
3237.899645
  0
LINE
  8
0
  6
CONTINUOUS
 62
3
 10
3980.724826
 20
3207.899645
 11
3980.724826
 21
3237.899645
  0
LINE
  8
0
  6
CONTINUOUS
 62
3
 10
3990.724826
 20
3207.899645
 11
3980.724826
 21
3207.899645
  0
LINE
  8
0
  6
CONTINUOUS
 62
3
 10
3990.724826
 20
3237.899645
 11
3990.724826
 21
3207.899645
  0
LINE
  8
0
  6
CONTINUOUS
 62
3
 10
3980.724826
 20
3237.899645
 11
3990.724826
 21
3237.899645
  0
LINE
  8
0
  6
CONTINUOUS
 62
3
 10
3968.724826
 20
3207.899645
 11
3968.724826
 21
3237.899645
  0
LINE
  8
0
  6
CONTINUOUS
 62
3
 10
3978.724826
 20
3207.899645
 11
3968.724826
 21
3207.899645
  0
LINE
  8
0
  6
CONTINUOUS
 62
3
 10
3978.724826
 20
3237.899645
 11
3978.724826
 21
3207.899645
  0
LINE
  8
0
  6
CONTINUOUS
 62
3
 10
3968.724826
 20
3237.899645
 11
3978.724826
 21
3237.899645
  0
LINE
  8
0
  6
CONTINUOUS
 62
3
 10
3956.724826
 20
3207.899645
 11
3956.724826
 21
3237.899645
  0
LINE
  8
0
  6
CONTINUOUS
 62
3
 10
3966.724826
 20
3207.899645
 11
3956.724826
 21
3207.899645
  0
LINE
  8
0
  6
CONTINUOUS
 62
3
 10
3966.724826
 20
3237.899645
 11
3966.724826
 21
3207.899645
  0
LINE
  8
0
  6
CONTINUOUS
 62
3
 10
3956.724826
 20
3237.899645
 11
3966.724826
 21
3237.899645
  0
LINE
  8
0
  6
CONTINUOUS
 62
3
 10
3944.724826
 20
3207.899645
 11
3944.724826
 21
3237.899645
  0
LINE
  8
0
  6
CONTINUOUS
 62
3
 10
3954.724826
 20
3207.899645
 11
3944.724826
 21
3207.899645
  0
LINE
  8
0
  6
CONTINUOUS
 62
3
 10
3954.724826
 20
3237.899645
 11
3954.724826
 21
3207.899645
  0
LINE
  8
0
  6
CONTINUOUS
 62
3
 10
3944.724826
 20
3237.899645
 11
3954.724826
 21
3237.899645
  0
LINE
  8
0
  6
CONTINUOUS
 62
3
 10
3932.724826
 20
3207.899645
 11
3932.724826
 21
3237.899645
  0
LINE
  8
0
  6
CONTINUOUS
 62
3
 10
3942.724826
 20
3207.899645
 11
3932.724826
 21
3207.899645
  0
LINE
  8
0
  6
CONTINUOUS
 62
3
 10
3942.724826
 20
3237.899645
 11
3942.724826
 21
3207.899645
  0
LINE
  8
0
  6
CONTINUOUS
 62
3
 10
3932.724826
 20
3237.899645
 11
3942.724826
 21
3237.899645
  0
LINE
  8
0
  6
CONTINUOUS
 62
3
 10
3920.724826
 20
3207.899645
 11
3920.724826
 21
3237.899645
  0
LINE
  8
0
  6
CONTINUOUS
 62
3
 10
3930.724826
 20
3207.899645
 11
3920.724826
 21
3207.899645
  0
LINE
  8
0
  6
CONTINUOUS
 62
3
 10
3930.724826
 20
3237.899645
 11
3930.724826
 21
3207.899645
  0
LINE
  8
0
  6
CONTINUOUS
 62
3
 10
3920.724826
 20
3237.899645
 11
3930.724826
 21
3237.899645
  0
LINE
  8
0
  6
CONTINUOUS
 62
3
 10
3908.724826
 20
3207.899645
 11
3908.724826
 21
3237.899645
  0
LINE
  8
0
  6
CONTINUOUS
 62
3
 10
3918.724826
 20
3207.899645
 11
3908.724826
 21
3207.899645
  0
LINE
  8
0
  6
CONTINUOUS
 62
3
 10
3918.724826
 20
3237.899645
 11
3918.724826
 21
3207.899645
  0
LINE
  8
0
  6
CONTINUOUS
 62
3
 10
3908.724826
 20
3237.899645
 11
3918.724826
 21
3237.899645
  0
LINE
  8
0
  6
CONTINUOUS
 62
3
 10
3896.724826
 20
3207.899645
 11
3896.724826
 21
3237.899645
  0
LINE
  8
0
  6
CONTINUOUS
 62
3
 10
3906.724826
 20
3207.899645
 11
3896.724826
 21
3207.899645
  0
LINE
  8
0
  6
CONTINUOUS
 62
3
 10
3906.724826
 20
3237.899645
 11
3906.724826
 21
3207.899645
  0
LINE
  8
0
  6
CONTINUOUS
 62
3
 10
3896.724826
 20
3237.899645
 11
3906.724826
 21
3237.899645
  0
LINE
  8
0
  6
CONTINUOUS
 62
3
 10
3884.724826
 20
3207.899645
 11
3884.724826
 21
3237.899645
  0
LINE
  8
0
  6
CONTINUOUS
 62
3
 10
3894.724826
 20
3207.899645
 11
3884.724826
 21
3207.899645
  0
LINE
  8
0
  6
CONTINUOUS
 62
3
 10
3894.724826
 20
3237.899645
 11
3894.724826
 21
3207.899645
  0
LINE
  8
0
  6
CONTINUOUS
 62
3
 10
3884.724826
 20
3237.899645
 11
3894.724826
 21
3237.899645
  0
LINE
  8
0
  6
CONTINUOUS
 62
3
 10
3872.724826
 20
3207.899645
 11
3872.724826
 21
3237.899645
  0
LINE
  8
0
  6
CONTINUOUS
 62
3
 10
3882.724826
 20
3207.899645
 11
3872.724826
 21
3207.899645
  0
LINE
  8
0
  6
CONTINUOUS
 62
3
 10
3882.724826
 20
3237.899645
 11
3882.724826
 21
3207.899645
  0
LINE
  8
0
  6
CONTINUOUS
 62
3
 10
3872.724826
 20
3237.899645
 11
3882.724826
 21
3237.899645
  0
LINE
  8
0
  6
CONTINUOUS
 62
3
 10
3860.724826
 20
3207.899645
 11
3860.724826
 21
3237.899645
  0
LINE
  8
0
  6
CONTINUOUS
 62
3
 10
3870.724826
 20
3207.899645
 11
3860.724826
 21
3207.899645
  0
LINE
  8
0
  6
CONTINUOUS
 62
3
 10
3870.724826
 20
3237.899645
 11
3870.724826
 21
3207.899645
  0
LINE
  8
0
  6
CONTINUOUS
 62
3
 10
3860.724826
 20
3237.899645
 11
3870.724826
 21
3237.899645
  0
LINE
  8
0
  6
CONTINUOUS
 62
3
 10
3848.724826
 20
3207.899645
 11
3848.724826
 21
3237.899645
  0
LINE
  8
0
  6
CONTINUOUS
 62
3
 10
3858.724826
 20
3207.899645
 11
3848.724826
 21
3207.899645
  0
LINE
  8
0
  6
CONTINUOUS
 62
3
 10
3858.724826
 20
3237.899645
 11
3858.724826
 21
3207.899645
  0
LINE
  8
0
  6
CONTINUOUS
 62
3
 10
3848.724826
 20
3237.899645
 11
3858.724826
 21
3237.899645
  0
LINE
  8
0
  6
CONTINUOUS
 62
3
 10
3836.724826
 20
3207.899645
 11
3836.724826
 21
3237.899645
  0
LINE
  8
0
  6
CONTINUOUS
 62
3
 10
3846.724826
 20
3207.899645
 11
3836.724826
 21
3207.899645
  0
LINE
  8
0
  6
CONTINUOUS
 62
3
 10
3846.724826
 20
3237.899645
 11
3846.724826
 21
3207.899645
  0
LINE
  8
0
  6
CONTINUOUS
 62
3
 10
3836.724826
 20
3237.899645
 11
3846.724826
 21
3237.899645
  0
LINE
  8
0
  6
CONTINUOUS
 62
3
 10
3824.724826
 20
3207.899645
 11
3824.724826
 21
3237.899645
  0
LINE
  8
0
  6
CONTINUOUS
 62
3
 10
3834.724826
 20
3207.899645
 11
3824.724826
 21
3207.899645
  0
LINE
  8
0
  6
CONTINUOUS
 62
3
 10
3834.724826
 20
3237.899645
 11
3834.724826
 21
3207.899645
  0
LINE
  8
0
  6
CONTINUOUS
 62
3
 10
3824.724826
 20
3237.899645
 11
3834.724826
 21
3237.899645
  0
LINE
  8
0
  6
CONTINUOUS
 62
3
 10
3812.724826
 20
3207.899645
 11
3812.724826
 21
3237.899645
  0
LINE
  8
0
  6
CONTINUOUS
 62
3
 10
3822.724826
 20
3207.899645
 11
3812.724826
 21
3207.899645
  0
LINE
  8
0
  6
CONTINUOUS
 62
3
 10
3822.724826
 20
3237.899645
 11
3822.724826
 21
3207.899645
  0
LINE
  8
0
  6
CONTINUOUS
 62
3
 10
3812.724826
 20
3237.899645
 11
3822.724826
 21
3237.899645
  0
LINE
  8
0
  6
CONTINUOUS
 62
3
 10
3800.724826
 20
3207.899645
 11
3800.724826
 21
3237.899645
  0
LINE
  8
0
  6
CONTINUOUS
 62
3
 10
3810.724826
 20
3207.899645
 11
3800.724826
 21
3207.899645
  0
LINE
  8
0
  6
CONTINUOUS
 62
3
 10
3810.724826
 20
3237.899645
 11
3810.724826
 21
3207.899645
  0
LINE
  8
0
  6
CONTINUOUS
 62
3
 10
3800.724826
 20
3237.899645
 11
3810.724826
 21
3237.899645
  0
LINE
  8
0
  6
CONTINUOUS
 62
3
 10
3788.724826
 20
3207.899645
 11
3788.724826
 21
3237.899645
  0
LINE
  8
0
  6
CONTINUOUS
 62
3
 10
3798.724826
 20
3207.899645
 11
3788.724826
 21
3207.899645
  0
LINE
  8
0
  6
CONTINUOUS
 62
3
 10
3798.724826
 20
3237.899645
 11
3798.724826
 21
3207.899645
  0
LINE
  8
0
  6
CONTINUOUS
 62
3
 10
3788.724826
 20
3237.899645
 11
3798.724826
 21
3237.899645
  0
LINE
  8
0
  6
CONTINUOUS
 62
3
 10
3776.724826
 20
3207.899645
 11
3776.724826
 21
3237.899645
  0
LINE
  8
0
  6
CONTINUOUS
 62
3
 10
3786.724826
 20
3207.899645
 11
3776.724826
 21
3207.899645
  0
LINE
  8
0
  6
CONTINUOUS
 62
3
 10
3786.724826
 20
3237.899645
 11
3786.724826
 21
3207.899645
  0
LINE
  8
0
  6
CONTINUOUS
 62
3
 10
3776.724826
 20
3237.899645
 11
3786.724826
 21
3237.899645
  0
LINE
  8
0
  6
CONTINUOUS
 62
3
 10
3764.724826
 20
3207.899645
 11
3764.724826
 21
3237.899645
  0
LINE
  8
0
  6
CONTINUOUS
 62
3
 10
3774.724826
 20
3207.899645
 11
3764.724826
 21
3207.899645
  0
LINE
  8
0
  6
CONTINUOUS
 62
3
 10
3774.724826
 20
3237.899645
 11
3774.724826
 21
3207.899645
  0
LINE
  8
0
  6
CONTINUOUS
 62
3
 10
3764.724826
 20
3237.899645
 11
3774.724826
 21
3237.899645
  0
LINE
  8
0
  6
CONTINUOUS
 62
3
 10
3752.724826
 20
3207.899645
 11
3752.724826
 21
3237.899645
  0
LINE
  8
0
  6
CONTINUOUS
 62
3
 10
3762.724826
 20
3207.899645
 11
3752.724826
 21
3207.899645
  0
LINE
  8
0
  6
CONTINUOUS
 62
3
 10
3762.724826
 20
3237.899645
 11
3762.724826
 21
3207.899645
  0
LINE
  8
0
  6
CONTINUOUS
 62
3
 10
3752.724826
 20
3237.899645
 11
3762.724826
 21
3237.899645
  0
LINE
  8
0
  6
CONTINUOUS
 62
3
 10
3740.724826
 20
3207.899645
 11
3740.724826
 21
3237.899645
  0
LINE
  8
0
  6
CONTINUOUS
 62
3
 10
3750.724826
 20
3207.899645
 11
3740.724826
 21
3207.899645
  0
LINE
  8
0
  6
CONTINUOUS
 62
3
 10
3750.724826
 20
3237.899645
 11
3750.724826
 21
3207.899645
  0
LINE
  8
0
  6
CONTINUOUS
 62
3
 10
3740.724826
 20
3237.899645
 11
3750.724826
 21
3237.899645
  0
LINE
  8
0
  6
CONTINUOUS
 62
3
 10
3728.724826
 20
3207.899645
 11
3728.724826
 21
3237.899645
  0
LINE
  8
0
  6
CONTINUOUS
 62
3
 10
3738.724826
 20
3207.899645
 11
3728.724826
 21
3207.899645
  0
LINE
  8
0
  6
CONTINUOUS
 62
3
 10
3738.724826
 20
3237.899645
 11
3738.724826
 21
3207.899645
  0
LINE
  8
0
  6
CONTINUOUS
 62
3
 10
3728.724826
 20
3237.899645
 11
3738.724826
 21
3237.899645
  0
LINE
  8
0
  6
CONTINUOUS
 62
3
 10
3716.724826
 20
3207.899645
 11
3716.724826
 21
3237.899645
  0
LINE
  8
0
  6
CONTINUOUS
 62
3
 10
3726.724826
 20
3207.899645
 11
3716.724826
 21
3207.899645
  0
LINE
  8
0
  6
CONTINUOUS
 62
3
 10
3726.724826
 20
3237.899645
 11
3726.724826
 21
3207.899645
  0
LINE
  8
0
  6
CONTINUOUS
 62
3
 10
3716.724826
 20
3237.899645
 11
3726.724826
 21
3237.899645
  0
LINE
  8
0
  6
CONTINUOUS
 62
3
 10
3704.724826
 20
3207.899645
 11
3704.724826
 21
3237.899645
  0
LINE
  8
0
  6
CONTINUOUS
 62
3
 10
3714.724826
 20
3207.899645
 11
3704.724826
 21
3207.899645
  0
LINE
  8
0
  6
CONTINUOUS
 62
3
 10
3714.724826
 20
3237.899645
 11
3714.724826
 21
3207.899645
  0
LINE
  8
0
  6
CONTINUOUS
 62
3
 10
3704.724826
 20
3237.899645
 11
3714.724826
 21
3237.899645
  0
LINE
  8
0
  6
CONTINUOUS
 62
3
 10
3692.724826
 20
3207.899645
 11
3692.724826
 21
3237.899645
  0
LINE
  8
0
  6
CONTINUOUS
 62
3
 10
3702.724826
 20
3207.899645
 11
3692.724826
 21
3207.899645
  0
LINE
  8
0
  6
CONTINUOUS
 62
3
 10
3702.724826
 20
3237.899645
 11
3702.724826
 21
3207.899645
  0
LINE
  8
0
  6
CONTINUOUS
 62
3
 10
3692.724826
 20
3237.899645
 11
3702.724826
 21
3237.899645
  0
LINE
  8
0
  6
CONTINUOUS
 62
3
 10
3680.724826
 20
3207.899645
 11
3680.724826
 21
3237.899645
  0
LINE
  8
0
  6
CONTINUOUS
 62
3
 10
3690.724826
 20
3207.899645
 11
3680.724826
 21
3207.899645
  0
LINE
  8
0
  6
CONTINUOUS
 62
3
 10
3690.724826
 20
3237.899645
 11
3690.724826
 21
3207.899645
  0
LINE
  8
0
  6
CONTINUOUS
 62
3
 10
3680.724826
 20
3237.899645
 11
3690.724826
 21
3237.899645
  0
LINE
  8
0
  6
CONTINUOUS
 62
3
 10
3668.724826
 20
3207.899645
 11
3668.724826
 21
3237.899645
  0
LINE
  8
0
  6
CONTINUOUS
 62
3
 10
3678.724826
 20
3207.899645
 11
3668.724826
 21
3207.899645
  0
LINE
  8
0
  6
CONTINUOUS
 62
3
 10
3678.724826
 20
3237.899645
 11
3678.724826
 21
3207.899645
  0
LINE
  8
0
  6
CONTINUOUS
 62
3
 10
3668.724826
 20
3237.899645
 11
3678.724826
 21
3237.899645
  0
LINE
  8
0
  6
CONTINUOUS
 62
3
 10
3656.724826
 20
3207.899645
 11
3656.724826
 21
3237.899645
  0
LINE
  8
0
  6
CONTINUOUS
 62
3
 10
3666.724826
 20
3207.899645
 11
3656.724826
 21
3207.899645
  0
LINE
  8
0
  6
CONTINUOUS
 62
3
 10
3666.724826
 20
3237.899645
 11
3666.724826
 21
3207.899645
  0
LINE
  8
0
  6
CONTINUOUS
 62
3
 10
3656.724826
 20
3237.899645
 11
3666.724826
 21
3237.899645
  0
LINE
  8
0
  6
CONTINUOUS
 62
3
 10
3644.724826
 20
3207.899645
 11
3644.724826
 21
3237.899645
  0
LINE
  8
0
  6
CONTINUOUS
 62
3
 10
3654.724826
 20
3207.899645
 11
3644.724826
 21
3207.899645
  0
LINE
  8
0
  6
CONTINUOUS
 62
3
 10
3654.724826
 20
3237.899645
 11
3654.724826
 21
3207.899645
  0
LINE
  8
0
  6
CONTINUOUS
 62
3
 10
3644.724826
 20
3237.899645
 11
3654.724826
 21
3237.899645
  0
LINE
  8
0
  6
CONTINUOUS
 62
3
 10
3632.724826
 20
3207.899645
 11
3632.724826
 21
3237.899645
  0
LINE
  8
0
  6
CONTINUOUS
 62
3
 10
3642.724826
 20
3207.899645
 11
3632.724826
 21
3207.899645
  0
LINE
  8
0
  6
CONTINUOUS
 62
3
 10
3642.724826
 20
3237.899645
 11
3642.724826
 21
3207.899645
  0
LINE
  8
0
  6
CONTINUOUS
 62
3
 10
3632.724826
 20
3237.899645
 11
3642.724826
 21
3237.899645
  0
LINE
  8
0
  6
CONTINUOUS
 62
3
 10
3620.724826
 20
3207.899645
 11
3620.724826
 21
3237.899645
  0
LINE
  8
0
  6
CONTINUOUS
 62
3
 10
3630.724826
 20
3207.899645
 11
3620.724826
 21
3207.899645
  0
LINE
  8
0
  6
CONTINUOUS
 62
3
 10
3630.724826
 20
3237.899645
 11
3630.724826
 21
3207.899645
  0
LINE
  8
0
  6
CONTINUOUS
 62
3
 10
3620.724826
 20
3237.899645
 11
3630.724826
 21
3237.899645
  0
LINE
  8
0
  6
CONTINUOUS
 62
3
 10
3608.724826
 20
3207.899645
 11
3608.724826
 21
3237.899645
  0
LINE
  8
0
  6
CONTINUOUS
 62
3
 10
3618.724826
 20
3207.899645
 11
3608.724826
 21
3207.899645
  0
LINE
  8
0
  6
CONTINUOUS
 62
3
 10
3618.724826
 20
3237.899645
 11
3618.724826
 21
3207.899645
  0
LINE
  8
0
  6
CONTINUOUS
 62
3
 10
3608.724826
 20
3237.899645
 11
3618.724826
 21
3237.899645
  0
LINE
  8
0
  6
CONTINUOUS
 62
3
 10
3596.724826
 20
3207.899645
 11
3596.724826
 21
3237.899645
  0
LINE
  8
0
  6
CONTINUOUS
 62
3
 10
3606.724826
 20
3207.899645
 11
3596.724826
 21
3207.899645
  0
LINE
  8
0
  6
CONTINUOUS
 62
3
 10
3606.724826
 20
3237.899645
 11
3606.724826
 21
3207.899645
  0
LINE
  8
0
  6
CONTINUOUS
 62
3
 10
3596.724826
 20
3237.899645
 11
3606.724826
 21
3237.899645
  0
LINE
  8
0
  6
CONTINUOUS
 62
3
 10
3584.724826
 20
3207.899645
 11
3584.724826
 21
3237.899645
  0
LINE
  8
0
  6
CONTINUOUS
 62
3
 10
3594.724826
 20
3207.899645
 11
3584.724826
 21
3207.899645
  0
LINE
  8
0
  6
CONTINUOUS
 62
3
 10
3594.724826
 20
3237.899645
 11
3594.724826
 21
3207.899645
  0
LINE
  8
0
  6
CONTINUOUS
 62
3
 10
3584.724826
 20
3237.899645
 11
3594.724826
 21
3237.899645
  0
LINE
  8
0
  6
CONTINUOUS
 62
3
 10
3572.724826
 20
3207.899645
 11
3572.724826
 21
3237.899645
  0
LINE
  8
0
  6
CONTINUOUS
 62
3
 10
3582.724826
 20
3207.899645
 11
3572.724826
 21
3207.899645
  0
LINE
  8
0
  6
CONTINUOUS
 62
3
 10
3582.724826
 20
3237.899645
 11
3582.724826
 21
3207.899645
  0
LINE
  8
0
  6
CONTINUOUS
 62
3
 10
3572.724826
 20
3237.899645
 11
3582.724826
 21
3237.899645
  0
LINE
  8
0
  6
CONTINUOUS
 62
3
 10
3560.724826
 20
3207.899645
 11
3560.724826
 21
3237.899645
  0
LINE
  8
0
  6
CONTINUOUS
 62
3
 10
3570.724826
 20
3207.899645
 11
3560.724826
 21
3207.899645
  0
LINE
  8
0
  6
CONTINUOUS
 62
3
 10
3570.724826
 20
3237.899645
 11
3570.724826
 21
3207.899645
  0
LINE
  8
0
  6
CONTINUOUS
 62
3
 10
3560.724826
 20
3237.899645
 11
3570.724826
 21
3237.899645
  0
LINE
  8
0
  6
CONTINUOUS
 62
3
 10
3548.724826
 20
3207.899645
 11
3548.724826
 21
3237.899645
  0
LINE
  8
0
  6
CONTINUOUS
 62
3
 10
3558.724826
 20
3207.899645
 11
3548.724826
 21
3207.899645
  0
LINE
  8
0
  6
CONTINUOUS
 62
3
 10
3558.724826
 20
3237.899645
 11
3558.724826
 21
3207.899645
  0
LINE
  8
0
  6
CONTINUOUS
 62
3
 10
3548.724826
 20
3237.899645
 11
3558.724826
 21
3237.899645
  0
LINE
  8
0
  6
CONTINUOUS
 62
3
 10
3536.724826
 20
3207.899645
 11
3536.724826
 21
3237.899645
  0
LINE
  8
0
  6
CONTINUOUS
 62
3
 10
3546.724826
 20
3207.899645
 11
3536.724826
 21
3207.899645
  0
LINE
  8
0
  6
CONTINUOUS
 62
3
 10
3546.724826
 20
3237.899645
 11
3546.724826
 21
3207.899645
  0
LINE
  8
0
  6
CONTINUOUS
 62
3
 10
3536.724826
 20
3237.899645
 11
3546.724826
 21
3237.899645
  0
LINE
  8
0
  6
CONTINUOUS
 62
3
 10
3524.724826
 20
3207.899645
 11
3524.724826
 21
3237.899645
  0
LINE
  8
0
  6
CONTINUOUS
 62
3
 10
3534.724826
 20
3207.899645
 11
3524.724826
 21
3207.899645
  0
LINE
  8
0
  6
CONTINUOUS
 62
3
 10
3534.724826
 20
3237.899645
 11
3534.724826
 21
3207.899645
  0
LINE
  8
0
  6
CONTINUOUS
 62
3
 10
3524.724826
 20
3237.899645
 11
3534.724826
 21
3237.899645
  0
LINE
  8
0
  6
CONTINUOUS
 62
3
 10
3512.724826
 20
3207.899645
 11
3512.724826
 21
3237.899645
  0
LINE
  8
0
  6
CONTINUOUS
 62
3
 10
3522.724826
 20
3207.899645
 11
3512.724826
 21
3207.899645
  0
LINE
  8
0
  6
CONTINUOUS
 62
3
 10
3522.724826
 20
3237.899645
 11
3522.724826
 21
3207.899645
  0
LINE
  8
0
  6
CONTINUOUS
 62
3
 10
3512.724826
 20
3237.899645
 11
3522.724826
 21
3237.899645
  0
LINE
  8
0
  6
CONTINUOUS
 62
3
 10
3500.724826
 20
3207.899645
 11
3500.724826
 21
3237.899645
  0
LINE
  8
0
  6
CONTINUOUS
 62
3
 10
3510.724826
 20
3207.899645
 11
3500.724826
 21
3207.899645
  0
LINE
  8
0
  6
CONTINUOUS
 62
3
 10
3510.724826
 20
3237.899645
 11
3510.724826
 21
3207.899645
  0
LINE
  8
0
  6
CONTINUOUS
 62
3
 10
3500.724826
 20
3237.899645
 11
3510.724826
 21
3237.899645
  0
LINE
  8
0
  6
CONTINUOUS
 62
3
 10
3488.724826
 20
3207.899645
 11
3488.724826
 21
3237.899645
  0
LINE
  8
0
  6
CONTINUOUS
 62
3
 10
3498.724826
 20
3207.899645
 11
3488.724826
 21
3207.899645
  0
LINE
  8
0
  6
CONTINUOUS
 62
3
 10
3498.724826
 20
3237.899645
 11
3498.724826
 21
3207.899645
  0
LINE
  8
0
  6
CONTINUOUS
 62
3
 10
3488.724826
 20
3237.899645
 11
3498.724826
 21
3237.899645
  0
LINE
  8
0
  6
CONTINUOUS
 62
3
 10
3476.724826
 20
3207.899645
 11
3476.724826
 21
3237.899645
  0
LINE
  8
0
  6
CONTINUOUS
 62
3
 10
3486.724826
 20
3207.899645
 11
3476.724826
 21
3207.899645
  0
LINE
  8
0
  6
CONTINUOUS
 62
3
 10
3486.724826
 20
3237.899645
 11
3486.724826
 21
3207.899645
  0
LINE
  8
0
  6
CONTINUOUS
 62
3
 10
3476.724826
 20
3237.899645
 11
3486.724826
 21
3237.899645
  0
LINE
  8
0
  6
CONTINUOUS
 62
3
 10
3464.724826
 20
3207.899645
 11
3464.724826
 21
3237.899645
  0
LINE
  8
0
  6
CONTINUOUS
 62
3
 10
3474.724826
 20
3207.899645
 11
3464.724826
 21
3207.899645
  0
LINE
  8
0
  6
CONTINUOUS
 62
3
 10
3474.724826
 20
3237.899645
 11
3474.724826
 21
3207.899645
  0
LINE
  8
0
  6
CONTINUOUS
 62
3
 10
3464.724826
 20
3237.899645
 11
3474.724826
 21
3237.899645
  0
LINE
  8
0
  6
CONTINUOUS
 62
3
 10
3452.724826
 20
3207.899645
 11
3452.724826
 21
3237.899645
  0
LINE
  8
0
  6
CONTINUOUS
 62
3
 10
3462.724826
 20
3207.899645
 11
3452.724826
 21
3207.899645
  0
LINE
  8
0
  6
CONTINUOUS
 62
3
 10
3462.724826
 20
3237.899645
 11
3462.724826
 21
3207.899645
  0
LINE
  8
0
  6
CONTINUOUS
 62
3
 10
3452.724826
 20
3237.899645
 11
3462.724826
 21
3237.899645
  0
LINE
  8
0
  6
CONTINUOUS
 62
3
 10
3440.724826
 20
3207.899645
 11
3440.724826
 21
3237.899645
  0
LINE
  8
0
  6
CONTINUOUS
 62
3
 10
3450.724826
 20
3207.899645
 11
3440.724826
 21
3207.899645
  0
LINE
  8
0
  6
CONTINUOUS
 62
3
 10
3450.724826
 20
3237.899645
 11
3450.724826
 21
3207.899645
  0
LINE
  8
0
  6
CONTINUOUS
 62
3
 10
3440.724826
 20
3237.899645
 11
3450.724826
 21
3237.899645
  0
LINE
  8
0
  6
CONTINUOUS
 62
3
 10
3428.724826
 20
3207.899645
 11
3428.724826
 21
3237.899645
  0
LINE
  8
0
  6
CONTINUOUS
 62
3
 10
3438.724826
 20
3207.899645
 11
3428.724826
 21
3207.899645
  0
LINE
  8
0
  6
CONTINUOUS
 62
3
 10
3438.724826
 20
3237.899645
 11
3438.724826
 21
3207.899645
  0
LINE
  8
0
  6
CONTINUOUS
 62
3
 10
3428.724826
 20
3237.899645
 11
3438.724826
 21
3237.899645
  0
LINE
  8
0
  6
CONTINUOUS
 62
3
 10
3416.724826
 20
3207.899645
 11
3416.724826
 21
3237.899645
  0
LINE
  8
0
  6
CONTINUOUS
 62
3
 10
3426.724826
 20
3207.899645
 11
3416.724826
 21
3207.899645
  0
LINE
  8
0
  6
CONTINUOUS
 62
3
 10
3426.724826
 20
3237.899645
 11
3426.724826
 21
3207.899645
  0
LINE
  8
0
  6
CONTINUOUS
 62
3
 10
3416.724826
 20
3237.899645
 11
3426.724826
 21
3237.899645
  0
LINE
  8
0
  6
CONTINUOUS
 62
3
 10
3404.724826
 20
3207.899645
 11
3404.724826
 21
3237.899645
  0
LINE
  8
0
  6
CONTINUOUS
 62
3
 10
3414.724826
 20
3207.899645
 11
3404.724826
 21
3207.899645
  0
LINE
  8
0
  6
CONTINUOUS
 62
3
 10
3414.724826
 20
3237.899645
 11
3414.724826
 21
3207.899645
  0
LINE
  8
0
  6
CONTINUOUS
 62
3
 10
3404.724826
 20
3237.899645
 11
3414.724826
 21
3237.899645
  0
LINE
  8
0
  6
CONTINUOUS
 62
3
 10
3392.724826
 20
3207.899645
 11
3392.724826
 21
3237.899645
  0
LINE
  8
0
  6
CONTINUOUS
 62
3
 10
3402.724826
 20
3207.899645
 11
3392.724826
 21
3207.899645
  0
LINE
  8
0
  6
CONTINUOUS
 62
3
 10
3402.724826
 20
3237.899645
 11
3402.724826
 21
3207.899645
  0
LINE
  8
0
  6
CONTINUOUS
 62
3
 10
3392.724826
 20
3237.899645
 11
3402.724826
 21
3237.899645
  0
LINE
  8
0
  6
CONTINUOUS
 62
3
 10
4090.199826
 20
3180.472719
 11
4090.199826
 21
3200.699645
  0
LINE
  8
0
  6
CONTINUOUS
 62
3
 10
4090.199826
 20
3167.211554
 11
4090.199826
 21
3180.472719
  0
LINE
  8
0
  6
CONTINUOUS
 62
3
 10
4090.199826
 20
3157.991322
 11
4090.199826
 21
3167.211554
  0
LINE
  8
0
  6
CONTINUOUS
 62
3
 10
4110.449826
 20
3180.472719
 11
4110.449826
 21
3167.211554
  0
LINE
  8
0
  6
CONTINUOUS
 62
3
 10
4110.449826
 20
3200.699645
 11
4110.449826
 21
3180.472719
  0
LINE
  8
0
  6
CONTINUOUS
 62
3
 10
4110.449826
 20
3167.211554
 11
4110.449826
 21
3157.991322
  0
POLYLINE
  8
0
  6
CONTINUOUS
 62
1
 66
1
 70
2
  0
VERTEX
  8
0
 10
4110.449826
 20
3156.065724
 70
0
 42
-0.410890
  0
VERTEX
  8
0
 10
4108.949826
 20
3154.775991
 70
0
  0
SEQEND
  0
POLYLINE
  8
0
  6
CONTINUOUS
 62
1
 66
1
 70
2
  0
VERTEX
  8
0
 10
4091.699826
 20
3154.775991
 70
0
 42
-0.410890
  0
VERTEX
  8
0
 10
4090.199826
 20
3156.065724
 70
0
  0
SEQEND
  0
LINE
  8
0
  6
CONTINUOUS
 62
3
 10
4110.449826
 20
3157.991322
 11
4110.449826
 21
3156.495615
  0
LINE
  8
0
  6
CONTINUOUS
 62
3
 10
4090.199826
 20
3156.495615
 11
4090.199826
 21
3157.991322
  0
LINE
  8
0
  6
CONTINUOUS
 62
3
 10
4110.449826
 20
3156.495615
 11
4110.449826
 21
3156.065724
  0
LINE
  8
0
  6
CONTINUOUS
 62
3
 10
4108.949826
 20
3154.775990
 11
4091.699826
 21
3154.775990
  0
LINE
  8
0
  6
CONTINUOUS
 62
3
 10
4090.199826
 20
3156.065724
 11
4090.199826
 21
3156.495615
  0
LINE
  8
0
  6
CONTINUOUS
 62
3
 10
4085.324826
 20
3192.205790
 11
4085.324826
 21
3191.920499
  0
LINE
  8
0
  6
CONTINUOUS
 62
3
 10
4085.324826
 20
3192.205790
 11
4085.324826
 21
3200.536771
  0
LINE
  8
0
  6
CONTINUOUS
 62
3
 10
4085.324826
 20
3200.536771
 11
4085.324826
 21
3200.699645
  0
LINE
  8
0
  6
CONTINUOUS
 62
3
 10
4115.324826
 20
3201.154651
 11
4115.324826
 21
3200.536771
  0
LINE
  8
0
  6
CONTINUOUS
 62
3
 10
4115.324826
 20
3200.536771
 11
4115.324826
 21
3192.205790
  0
LINE
  8
0
  6
CONTINUOUS
 62
3
 10
4115.324826
 20
3191.920499
 11
4115.324826
 21
3192.205790
  0
ARC
  8
0
  6
CONTINUOUS
 62
1
 10
4086.824826
 20
3191.920499
 40
1.500000
 50
180.000000
 51
270.000000
  0
ARC
  8
0
  6
CONTINUOUS
 62
1
 10
4113.824826
 20
3191.920499
 40
1.500000
 50
270.000000
 51
0.000000
  0
LINE
  8
0
  6
CONTINUOUS
 62
3
 10
4113.824826
 20
3190.420499
 11
4111.824826
 21
3190.420499
  0
LINE
  8
0
  6
CONTINUOUS
 62
3
 10
4088.824826
 20
3190.420499
 11
4086.824826
 21
3190.420499
  0
LINE
  8
0
  6
CONTINUOUS
 62
3
 10
4088.824826
 20
3190.420504
 11
4090.199826
 21
3190.420504
  0
LINE
  8
0
  6
CONTINUOUS
 62
3
 10
4110.449826
 20
3190.420504
 11
4111.824826
 21
3190.420504
  0
LINE
  8
0
  6
CONTINUOUS
 62
3
 10
4076.724826
 20
3208.115675
 11
4076.940856
 21
3207.899645
  0
LINE
  8
0
  6
CONTINUOUS
 62
3
 10
3324.024826
 20
3267.699645
 11
3324.024826
 21
3260.399645
  0
LINE
  8
0
  6
CONTINUOUS
 62
3
 10
3385.024826
 20
3267.699645
 11
3385.024826
 21
3260.399645
  0
LINE
  8
0
  6
CONTINUOUS
 62
3
 10
3324.024826
 20
3218.699645
 11
3324.024826
 21
3260.399645
  0
LINE
  8
0
  6
CONTINUOUS
 62
3
 10
3373.024826
 20
3206.699645
 11
3336.024826
 21
3206.699645
  0
LINE
  8
0
  6
CONTINUOUS
 62
3
 10
3385.024826
 20
3260.399645
 11
3385.024826
 21
3218.699645
  0
ARC
  8
0
  6
CONTINUOUS
 62
1
 10
3336.024826
 20
3218.699645
 40
12.000000
 50
180.000000
 51
270.000000
  0
ARC
  8
0
  6
CONTINUOUS
 62
1
 10
3373.024826
 20
3218.699645
 40
12.000000
 50
270.000000
 51
0.000000
  0
LINE
  8
0
  6
CONTINUOUS
 62
3
 10
4315.754115
 20
3267.699645
 11
4315.824826
 21
3267.699645
  0
LINE
  8
0
  6
CONTINUOUS
 62
3
 10
4315.824826
 20
3267.699645
 11
4315.824826
 21
3267.702062
  0
CIRCLE
  8
0
  6
CONTINUOUS
 62
3
 10
4222.024826
 20
3796.199645
 40
36.000000
  0
LINE
  8
0
  6
CONTINUOUS
 62
3
 10
4315.824826
 20
4042.699645
 11
4315.683405
 21
4042.699645
  0
LINE
  8
0
  6
CONTINUOUS
 62
3
 10
3320.224826
 20
3267.699645
 11
3320.295537
 21
3267.699645
  0
LINE
  8
0
  6
CONTINUOUS
 62
3
 10
3320.366247
 20
4042.699645
 11
3320.224826
 21
4042.699645
  0
LINE
  8
0
  6
CONTINUOUS
 62
3
 10
3320.366247
 20
4042.699645
 11
4315.683405
 21
4042.699645
  0
LINE
  8
0
  6
CONTINUOUS
 62
3
 10
4316.051993
 20
4042.687885
 11
4316.022863
 21
4042.690615
  0
LINE
  8
0
  6
CONTINUOUS
 62
3
 10
4316.022863
 20
4042.690615
 11
4315.993909
 21
4042.692991
  0
LINE
  8
0
  6
CONTINUOUS
 62
3
 10
4315.993909
 20
4042.692991
 11
4315.965147
 21
4042.695011
  0
LINE
  8
0
  6
CONTINUOUS
 62
3
 10
4315.965147
 20
4042.695011
 11
4315.936595
 21
4042.696670
  0
LINE
  8
0
  6
CONTINUOUS
 62
3
 10
4315.936595
 20
4042.696670
 11
4315.908270
 21
4042.697967
  0
LINE
  8
0
  6
CONTINUOUS
 62
3
 10
4315.908270
 20
4042.697967
 11
4315.880188
 21
4042.698897
  0
LINE
  8
0
  6
CONTINUOUS
 62
3
 10
4315.880188
 20
4042.698897
 11
4315.852368
 21
4042.699457
  0
LINE
  8
0
  6
CONTINUOUS
 62
3
 10
4315.852368
 20
4042.699457
 11
4315.824829
 21
4042.699645
  0
LINE
  8
0
  6
CONTINUOUS
 62
3
 10
4318.023990
 20
4040.560279
 11
4318.013675
 21
4040.718607
  0
LINE
  8
0
  6
CONTINUOUS
 62
3
 10
4318.013675
 20
4040.718607
 11
4317.991640
 21
4040.878002
  0
LINE
  8
0
  6
CONTINUOUS
 62
3
 10
4317.991640
 20
4040.878002
 11
4317.957763
 21
4041.037164
  0
LINE
  8
0
  6
CONTINUOUS
 62
3
 10
4317.957763
 20
4041.037164
 11
4317.911926
 21
4041.194792
  0
LINE
  8
0
  6
CONTINUOUS
 62
3
 10
4317.911926
 20
4041.194792
 11
4317.854008
 21
4041.349586
  0
LINE
  8
0
  6
CONTINUOUS
 62
3
 10
4317.854008
 20
4041.349586
 11
4317.784013
 21
4041.500172
  0
LINE
  8
0
  6
CONTINUOUS
 62
3
 10
4317.784013
 20
4041.500172
 11
4317.702577
 21
4041.645281
  0
LINE
  8
0
  6
CONTINUOUS
 62
3
 10
4317.702577
 20
4041.645281
 11
4317.610529
 21
4041.783888
  0
LINE
  8
0
  6
CONTINUOUS
 62
3
 10
4317.610529
 20
4041.783888
 11
4317.508695
 21
4041.914974
  0
LINE
  8
0
  6
CONTINUOUS
 62
3
 10
4317.508695
 20
4041.914974
 11
4317.397903
 21
4042.037518
  0
LINE
  8
0
  6
CONTINUOUS
 62
3
 10
4317.397903
 20
4042.037518
 11
4317.278998
 21
4042.150513
  0
LINE
  8
0
  6
CONTINUOUS
 62
3
 10
4317.278998
 20
4042.150513
 11
4317.153179
 21
4042.253316
  0
LINE
  8
0
  6
CONTINUOUS
 62
3
 10
4317.153179
 20
4042.253316
 11
4317.021748
 21
4042.345544
  0
LINE
  8
0
  6
CONTINUOUS
 62
3
 10
4317.021748
 20
4042.345544
 11
4316.886008
 21
4042.426703
  0
LINE
  8
0
  6
CONTINUOUS
 62
3
 10
4316.886008
 20
4042.426703
 11
4316.747407
 21
4042.496322
  0
LINE
  8
0
  6
CONTINUOUS
 62
3
 10
4316.747407
 20
4042.496322
 11
4316.607122
 21
4042.554822
  0
LINE
  8
0
  6
CONTINUOUS
 62
3
 10
4316.607122
 20
4042.554822
 11
4316.466296
 21
4042.602715
  0
LINE
  8
0
  6
CONTINUOUS
 62
3
 10
4316.466296
 20
4042.602715
 11
4316.326072
 21
4042.640514
  0
LINE
  8
0
  6
CONTINUOUS
 62
3
 10
4316.326072
 20
4042.640514
 11
4316.187590
 21
4042.668733
  0
LINE
  8
0
  6
CONTINUOUS
 62
3
 10
4316.187590
 20
4042.668733
 11
4316.051996
 21
4042.687885
  0
LINE
  8
0
  6
CONTINUOUS
 62
3
 10
4318.024826
 20
4040.499645
 11
4318.024813
 21
4040.507203
  0
LINE
  8
0
  6
CONTINUOUS
 62
3
 10
4318.024813
 20
4040.507203
 11
4318.024772
 21
4040.514767
  0
LINE
  8
0
  6
CONTINUOUS
 62
3
 10
4318.024772
 20
4040.514767
 11
4318.024706
 21
4040.522338
  0
LINE
  8
0
  6
CONTINUOUS
 62
3
 10
4318.024706
 20
4040.522338
 11
4318.024614
 21
4040.529915
  0
LINE
  8
0
  6
CONTINUOUS
 62
3
 10
4318.024614
 20
4040.529915
 11
4318.024495
 21
4040.537498
  0
LINE
  8
0
  6
CONTINUOUS
 62
3
 10
4318.024495
 20
4040.537498
 11
4318.024352
 21
4040.545086
  0
LINE
  8
0
  6
CONTINUOUS
 62
3
 10
4318.024352
 20
4040.545086
 11
4318.024183
 21
4040.552680
  0
LINE
  8
0
  6
CONTINUOUS
 62
3
 10
4318.024183
 20
4040.552680
 11
4318.023990
 21
4040.560276
  0
LINE
  8
0
  6
CONTINUOUS
 62
3
 10
3320.224826
 20
4042.699645
 11
3320.197284
 21
4042.699457
  0
LINE
  8
0
  6
CONTINUOUS
 62
3
 10
3320.197284
 20
4042.699457
 11
3320.169464
 21
4042.698897
  0
LINE
  8
0
  6
CONTINUOUS
 62
3
 10
3320.169464
 20
4042.698897
 11
3320.141382
 21
4042.697967
  0
LINE
  8
0
  6
CONTINUOUS
 62
3
 10
3320.141382
 20
4042.697967
 11
3320.113057
 21
4042.696670
  0
LINE
  8
0
  6
CONTINUOUS
 62
3
 10
3320.113057
 20
4042.696670
 11
3320.084505
 21
4042.695011
  0
LINE
  8
0
  6
CONTINUOUS
 62
3
 10
3320.084505
 20
4042.695011
 11
3320.055743
 21
4042.692991
  0
LINE
  8
0
  6
CONTINUOUS
 62
3
 10
3320.055743
 20
4042.692991
 11
3320.026789
 21
4042.690615
  0
LINE
  8
0
  6
CONTINUOUS
 62
3
 10
3320.026789
 20
4042.690615
 11
3319.997662
 21
4042.687885
  0
LINE
  8
0
  6
CONTINUOUS
 62
3
 10
3318.025662
 20
4040.560279
 11
3318.025469
 21
4040.552680
  0
LINE
  8
0
  6
CONTINUOUS
 62
3
 10
3318.025469
 20
4040.552680
 11
3318.025300
 21
4040.545086
  0
LINE
  8
0
  6
CONTINUOUS
 62
3
 10
3318.025300
 20
4040.545086
 11
3318.025157
 21
4040.537498
  0
LINE
  8
0
  6
CONTINUOUS
 62
3
 10
3318.025157
 20
4040.537498
 11
3318.025038
 21
4040.529915
  0
LINE
  8
0
  6
CONTINUOUS
 62
3
 10
3318.025038
 20
4040.529915
 11
3318.024946
 21
4040.522338
  0
LINE
  8
0
  6
CONTINUOUS
 62
3
 10
3318.024946
 20
4040.522338
 11
3318.024880
 21
4040.514767
  0
LINE
  8
0
  6
CONTINUOUS
 62
3
 10
3318.024880
 20
4040.514767
 11
3318.024839
 21
4040.507203
  0
LINE
  8
0
  6
CONTINUOUS
 62
3
 10
3318.024839
 20
4040.507203
 11
3318.024826
 21
4040.499648
  0
LINE
  8
0
  6
CONTINUOUS
 62
3
 10
3319.997659
 20
4042.687885
 11
3319.862062
 21
4042.668733
  0
LINE
  8
0
  6
CONTINUOUS
 62
3
 10
3319.862062
 20
4042.668733
 11
3319.723580
 21
4042.640514
  0
LINE
  8
0
  6
CONTINUOUS
 62
3
 10
3319.723580
 20
4042.640514
 11
3319.583356
 21
4042.602715
  0
LINE
  8
0
  6
CONTINUOUS
 62
3
 10
3319.583356
 20
4042.602715
 11
3319.442530
 21
4042.554822
  0
LINE
  8
0
  6
CONTINUOUS
 62
3
 10
3319.442530
 20
4042.554822
 11
3319.302245
 21
4042.496322
  0
LINE
  8
0
  6
CONTINUOUS
 62
3
 10
3319.302245
 20
4042.496322
 11
3319.163644
 21
4042.426703
  0
LINE
  8
0
  6
CONTINUOUS
 62
3
 10
3319.163644
 20
4042.426703
 11
3319.027904
 21
4042.345544
  0
LINE
  8
0
  6
CONTINUOUS
 62
3
 10
3319.027904
 20
4042.345544
 11
3318.896473
 21
4042.253316
  0
LINE
  8
0
  6
CONTINUOUS
 62
3
 10
3318.896473
 20
4042.253316
 11
3318.770654
 21
4042.150513
  0
LINE
  8
0
  6
CONTINUOUS
 62
3
 10
3318.770654
 20
4042.150513
 11
3318.651749
 21
4042.037518
  0
LINE
  8
0
  6
CONTINUOUS
 62
3
 10
3318.651749
 20
4042.037518
 11
3318.540957
 21
4041.914974
  0
LINE
  8
0
  6
CONTINUOUS
 62
3
 10
3318.540957
 20
4041.914974
 11
3318.439124
 21
4041.783888
  0
LINE
  8
0
  6
CONTINUOUS
 62
3
 10
3318.439124
 20
4041.783888
 11
3318.347075
 21
4041.645281
  0
LINE
  8
0
  6
CONTINUOUS
 62
3
 10
3318.347075
 20
4041.645281
 11
3318.265639
 21
4041.500172
  0
LINE
  8
0
  6
CONTINUOUS
 62
3
 10
3318.265639
 20
4041.500172
 11
3318.195644
 21
4041.349586
  0
LINE
  8
0
  6
CONTINUOUS
 62
3
 10
3318.195644
 20
4041.349586
 11
3318.137726
 21
4041.194792
  0
LINE
  8
0
  6
CONTINUOUS
 62
3
 10
3318.137726
 20
4041.194792
 11
3318.091889
 21
4041.037164
  0
LINE
  8
0
  6
CONTINUOUS
 62
3
 10
3318.091889
 20
4041.037164
 11
3318.058012
 21
4040.878002
  0
LINE
  8
0
  6
CONTINUOUS
 62
3
 10
3318.058012
 20
4040.878002
 11
3318.035977
 21
4040.718607
  0
LINE
  8
0
  6
CONTINUOUS
 62
3
 10
3318.035977
 20
4040.718607
 11
3318.029362
 21
4040.639232
  0
LINE
  8
0
  6
CONTINUOUS
 62
3
 10
3318.029362
 20
4040.639232
 11
3318.025662
 21
4040.560283
  0
LINE
  8
0
  6
CONTINUOUS
 62
3
 10
4315.754115
 20
3267.699645
 11
3320.295537
 21
3267.699645
  0
LINE
  8
0
  6
CONTINUOUS
 62
3
 10
4318.024657
 20
3269.872899
 11
4318.024697
 21
3269.876246
  0
LINE
  8
0
  6
CONTINUOUS
 62
3
 10
4318.024697
 20
3269.876246
 11
4318.024731
 21
3269.879593
  0
LINE
  8
0
  6
CONTINUOUS
 62
3
 10
4318.024731
 20
3269.879593
 11
4318.024760
 21
3269.882938
  0
LINE
  8
0
  6
CONTINUOUS
 62
3
 10
4318.024760
 20
3269.882938
 11
4318.024784
 21
3269.886282
  0
LINE
  8
0
  6
CONTINUOUS
 62
3
 10
4318.024784
 20
3269.886282
 11
4318.024802
 21
3269.889624
  0
LINE
  8
0
  6
CONTINUOUS
 62
3
 10
4318.024802
 20
3269.889624
 11
4318.024815
 21
3269.892966
  0
LINE
  8
0
  6
CONTINUOUS
 62
3
 10
4318.024815
 20
3269.892966
 11
4318.024823
 21
3269.896306
  0
LINE
  8
0
  6
CONTINUOUS
 62
3
 10
4318.024823
 20
3269.896306
 11
4318.024826
 21
3269.899641
  0
LINE
  8
0
  6
CONTINUOUS
 62
3
 10
4315.927923
 20
3267.702062
 11
4316.068077
 21
3267.713760
  0
LINE
  8
0
  6
CONTINUOUS
 62
3
 10
4316.068077
 20
3267.713760
 11
4316.212503
 21
3267.735267
  0
LINE
  8
0
  6
CONTINUOUS
 62
3
 10
4316.212503
 20
3267.735267
 11
4316.359848
 21
3267.767155
  0
LINE
  8
0
  6
CONTINUOUS
 62
3
 10
4316.359848
 20
3267.767155
 11
4316.508757
 21
3267.809994
  0
LINE
  8
0
  6
CONTINUOUS
 62
3
 10
4316.508757
 20
3267.809994
 11
4316.657877
 21
3267.864358
  0
LINE
  8
0
  6
CONTINUOUS
 62
3
 10
4316.657877
 20
3267.864358
 11
4316.805855
 21
3267.930818
  0
LINE
  8
0
  6
CONTINUOUS
 62
3
 10
4316.805855
 20
3267.930818
 11
4316.951336
 21
3268.009945
  0
LINE
  8
0
  6
CONTINUOUS
 62
3
 10
4316.951336
 20
3268.009945
 11
4317.092799
 21
3268.101827
  0
LINE
  8
0
  6
CONTINUOUS
 62
3
 10
4317.092799
 20
3268.101827
 11
4317.228588
 21
3268.205719
  0
LINE
  8
0
  6
CONTINUOUS
 62
3
 10
4317.228588
 20
3268.205719
 11
4317.357221
 21
3268.321141
  0
LINE
  8
0
  6
CONTINUOUS
 62
3
 10
4317.357221
 20
3268.321141
 11
4317.477170
 21
3268.447520
  0
LINE
  8
0
  6
CONTINUOUS
 62
3
 10
4317.477170
 20
3268.447520
 11
4317.587359
 21
3268.583751
  0
LINE
  8
0
  6
CONTINUOUS
 62
3
 10
4317.587359
 20
3268.583751
 11
4317.686824
 21
3268.728632
  0
LINE
  8
0
  6
CONTINUOUS
 62
3
 10
4317.686824
 20
3268.728632
 11
4317.774600
 21
3268.880959
  0
LINE
  8
0
  6
CONTINUOUS
 62
3
 10
4317.774600
 20
3268.880959
 11
4317.849720
 21
3269.039528
  0
LINE
  8
0
  6
CONTINUOUS
 62
3
 10
4317.849720
 20
3269.039528
 11
4317.911399
 21
3269.202895
  0
LINE
  8
0
  6
CONTINUOUS
 62
3
 10
4317.911399
 20
3269.202895
 11
4317.937173
 21
3269.285866
  0
LINE
  8
0
  6
CONTINUOUS
 62
3
 10
4317.937173
 20
3269.285866
 11
4317.959593
 21
3269.369441
  0
LINE
  8
0
  6
CONTINUOUS
 62
3
 10
4317.959593
 20
3269.369441
 11
4317.978677
 21
3269.453430
  0
LINE
  8
0
  6
CONTINUOUS
 62
3
 10
4317.978677
 20
3269.453430
 11
4317.994441
 21
3269.537641
  0
LINE
  8
0
  6
CONTINUOUS
 62
3
 10
4317.994441
 20
3269.537641
 11
4318.006904
 21
3269.621885
  0
LINE
  8
0
  6
CONTINUOUS
 62
3
 10
4318.006904
 20
3269.621885
 11
4318.016083
 21
3269.705969
  0
LINE
  8
0
  6
CONTINUOUS
 62
3
 10
4318.016083
 20
3269.705969
 11
4318.021995
 21
3269.789701
  0
LINE
  8
0
  6
CONTINUOUS
 62
3
 10
4318.021995
 20
3269.789701
 11
4318.024657
 21
3269.872895
  0
LINE
  8
0
  6
CONTINUOUS
 62
3
 10
4315.824826
 20
3267.699645
 11
4315.837527
 21
3267.699685
  0
LINE
  8
0
  6
CONTINUOUS
 62
3
 10
4315.837527
 20
3267.699685
 11
4315.850287
 21
3267.699803
  0
LINE
  8
0
  6
CONTINUOUS
 62
3
 10
4315.850287
 20
3267.699803
 11
4315.863102
 21
3267.699998
  0
LINE
  8
0
  6
CONTINUOUS
 62
3
 10
4315.863102
 20
3267.699998
 11
4315.875970
 21
3267.700268
  0
LINE
  8
0
  6
CONTINUOUS
 62
3
 10
4315.875970
 20
3267.700268
 11
4315.888889
 21
3267.700611
  0
LINE
  8
0
  6
CONTINUOUS
 62
3
 10
4315.888889
 20
3267.700611
 11
4315.901855
 21
3267.701026
  0
LINE
  8
0
  6
CONTINUOUS
 62
3
 10
4315.901855
 20
3267.701026
 11
4315.914868
 21
3267.701510
  0
LINE
  8
0
  6
CONTINUOUS
 62
3
 10
4315.914868
 20
3267.701510
 11
4315.927920
 21
3267.702062
  0
LINE
  8
0
  6
CONTINUOUS
 62
3
 10
3320.121729
 20
3267.702062
 11
3320.134784
 21
3267.701510
  0
LINE
  8
0
  6
CONTINUOUS
 62
3
 10
3320.134784
 20
3267.701510
 11
3320.147797
 21
3267.701026
  0
LINE
  8
0
  6
CONTINUOUS
 62
3
 10
3320.147797
 20
3267.701026
 11
3320.160763
 21
3267.700611
  0
LINE
  8
0
  6
CONTINUOUS
 62
3
 10
3320.160763
 20
3267.700611
 11
3320.173682
 21
3267.700268
  0
LINE
  8
0
  6
CONTINUOUS
 62
3
 10
3320.173682
 20
3267.700268
 11
3320.186550
 21
3267.699998
  0
LINE
  8
0
  6
CONTINUOUS
 62
3
 10
3320.186550
 20
3267.699998
 11
3320.199365
 21
3267.699803
  0
LINE
  8
0
  6
CONTINUOUS
 62
3
 10
3320.199365
 20
3267.699803
 11
3320.212125
 21
3267.699685
  0
LINE
  8
0
  6
CONTINUOUS
 62
3
 10
3320.212125
 20
3267.699685
 11
3320.224823
 21
3267.699645
  0
LINE
  8
0
  6
CONTINUOUS
 62
3
 10
3318.024995
 20
3269.872899
 11
3318.033569
 21
3269.705969
  0
LINE
  8
0
  6
CONTINUOUS
 62
3
 10
3318.033569
 20
3269.705969
 11
3318.055211
 21
3269.537641
  0
LINE
  8
0
  6
CONTINUOUS
 62
3
 10
3318.055211
 20
3269.537641
 11
3318.090059
 21
3269.369441
  0
LINE
  8
0
  6
CONTINUOUS
 62
3
 10
3318.090059
 20
3269.369441
 11
3318.138253
 21
3269.202895
  0
LINE
  8
0
  6
CONTINUOUS
 62
3
 10
3318.138253
 20
3269.202895
 11
3318.199932
 21
3269.039528
  0
LINE
  8
0
  6
CONTINUOUS
 62
3
 10
3318.199932
 20
3269.039528
 11
3318.275053
 21
3268.880959
  0
LINE
  8
0
  6
CONTINUOUS
 62
3
 10
3318.275053
 20
3268.880959
 11
3318.362828
 21
3268.728632
  0
LINE
  8
0
  6
CONTINUOUS
 62
3
 10
3318.362828
 20
3268.728632
 11
3318.462293
 21
3268.583751
  0
LINE
  8
0
  6
CONTINUOUS
 62
3
 10
3318.462293
 20
3268.583751
 11
3318.572482
 21
3268.447520
  0
LINE
  8
0
  6
CONTINUOUS
 62
3
 10
3318.572482
 20
3268.447520
 11
3318.692431
 21
3268.321141
  0
LINE
  8
0
  6
CONTINUOUS
 62
3
 10
3318.692431
 20
3268.321141
 11
3318.821064
 21
3268.205719
  0
LINE
  8
0
  6
CONTINUOUS
 62
3
 10
3318.821064
 20
3268.205719
 11
3318.956853
 21
3268.101827
  0
LINE
  8
0
  6
CONTINUOUS
 62
3
 10
3318.956853
 20
3268.101827
 11
3319.098316
 21
3268.009945
  0
LINE
  8
0
  6
CONTINUOUS
 62
3
 10
3319.098316
 20
3268.009945
 11
3319.243797
 21
3267.930818
  0
LINE
  8
0
  6
CONTINUOUS
 62
3
 10
3319.243797
 20
3267.930818
 11
3319.391775
 21
3267.864358
  0
LINE
  8
0
  6
CONTINUOUS
 62
3
 10
3319.391775
 20
3267.864358
 11
3319.540895
 21
3267.809994
  0
LINE
  8
0
  6
CONTINUOUS
 62
3
 10
3319.540895
 20
3267.809994
 11
3319.689805
 21
3267.767155
  0
LINE
  8
0
  6
CONTINUOUS
 62
3
 10
3319.689805
 20
3267.767155
 11
3319.837149
 21
3267.735267
  0
LINE
  8
0
  6
CONTINUOUS
 62
3
 10
3319.837149
 20
3267.735267
 11
3319.981575
 21
3267.713760
  0
LINE
  8
0
  6
CONTINUOUS
 62
3
 10
3319.981575
 20
3267.713760
 11
3320.121726
 21
3267.702062
  0
LINE
  8
0
  6
CONTINUOUS
 62
3
 10
3318.024826
 20
3269.899645
 11
3318.024829
 21
3269.896306
  0
LINE
  8
0
  6
CONTINUOUS
 62
3
 10
3318.024829
 20
3269.896306
 11
3318.024837
 21
3269.892966
  0
LINE
  8
0
  6
CONTINUOUS
 62
3
 10
3318.024837
 20
3269.892966
 11
3318.024850
 21
3269.889624
  0
LINE
  8
0
  6
CONTINUOUS
 62
3
 10
3318.024850
 20
3269.889624
 11
3318.024868
 21
3269.886282
  0
LINE
  8
0
  6
CONTINUOUS
 62
3
 10
3318.024868
 20
3269.886282
 11
3318.024892
 21
3269.882938
  0
LINE
  8
0
  6
CONTINUOUS
 62
3
 10
3318.024892
 20
3269.882938
 11
3318.024921
 21
3269.879593
  0
LINE
  8
0
  6
CONTINUOUS
 62
3
 10
3318.024921
 20
3269.879593
 11
3318.024955
 21
3269.876246
  0
LINE
  8
0
  6
CONTINUOUS
 62
3
 10
3318.024955
 20
3269.876246
 11
3318.024995
 21
3269.872902
  0
LINE
  8
0
  6
CONTINUOUS
 62
3
 10
3318.024826
 20
3269.899645
 11
3318.024826
 21
4040.499645
  0
LINE
  8
0
  6
CONTINUOUS
 62
3
 10
4318.024826
 20
4040.499645
 11
4318.024826
 21
3269.899645
  0
LINE
  8
0
  6
CONTINUOUS
 62
3
 10
3329.804326
 20
4061.699645
 11
3356.245326
 21
4061.699645
  0
LINE
  8
0
  6
CONTINUOUS
 62
3
 10
3356.245326
 20
4042.699645
 11
3356.245326
 21
4061.699645
  0
LINE
  8
0
  6
CONTINUOUS
 62
3
 10
3329.804326
 20
4042.699645
 11
3329.804326
 21
4061.699645
  0
LINE
  8
0
  6
CONTINUOUS
 62
3
 10
4135.824826
 20
3201.199645
 11
4135.824826
 21
3201.699645
  0
LINE
  8
0
  6
CONTINUOUS
 62
3
 10
4310.824826
 20
3201.699645
 11
4310.824826
 21
3201.199645
  0
LINE
  8
0
  6
CONTINUOUS
 62
3
 10
4305.824826
 20
3201.199645
 11
4310.824826
 21
3201.199645
  0
LINE
  8
0
  6
CONTINUOUS
 62
3
 10
4135.824826
 20
3201.199645
 11
4140.824826
 21
3201.199645
  0
LINE
  8
0
  6
CONTINUOUS
 62
3
 10
4305.824826
 20
3201.199645
 11
4140.824826
 21
3201.199645
  0
LINE
  8
0
  6
CONTINUOUS
 62
3
 10
4133.524826
 20
3201.699645
 11
4313.124826
 21
3201.699645
  0
ARC
  8
0
  6
CONTINUOUS
 62
1
 10
4313.124826
 20
3204.399645
 40
2.700000
 50
270.000000
 51
0.000000
  0
LINE
  8
0
  6
CONTINUOUS
 62
3
 10
4313.124826
 20
3201.699645
 11
4313.124826
 21
3201.701991
  0
LINE
  8
0
  6
CONTINUOUS
 62
3
 10
4315.824826
 20
3204.399645
 11
4315.822479
 21
3204.399645
  0
LINE
  8
0
  6
CONTINUOUS
 62
3
 10
4315.824826
 20
3204.399645
 11
4315.824826
 21
3266.449645
  0
LINE
  8
0
  6
CONTINUOUS
 62
3
 10
4315.824826
 20
3266.449645
 11
4315.824826
 21
3266.459645
  0
LINE
  8
0
  6
CONTINUOUS
 62
3
 10
4315.824826
 20
3204.399645
 11
4315.824788
 21
3204.399793
  0
LINE
  8
0
  6
CONTINUOUS
 62
3
 10
4315.824788
 20
3204.399793
 11
4315.824676
 21
3204.399898
  0
LINE
  8
0
  6
CONTINUOUS
 62
3
 10
4315.824676
 20
3204.399898
 11
4315.824490
 21
3204.399960
  0
LINE
  8
0
  6
CONTINUOUS
 62
3
 10
4315.824490
 20
3204.399960
 11
4315.824230
 21
3204.399979
  0
LINE
  8
0
  6
CONTINUOUS
 62
3
 10
4315.824230
 20
3204.399979
 11
4315.823899
 21
3204.399957
  0
LINE
  8
0
  6
CONTINUOUS
 62
3
 10
4315.823899
 20
3204.399957
 11
4315.823496
 21
3204.399894
  0
LINE
  8
0
  6
CONTINUOUS
 62
3
 10
4315.823496
 20
3204.399894
 11
4315.823022
 21
3204.399789
  0
LINE
  8
0
  6
CONTINUOUS
 62
3
 10
4315.823022
 20
3204.399789
 11
4315.822479
 21
3204.399645
  0
LINE
  8
0
  6
CONTINUOUS
 62
3
 10
4315.824826
 20
3266.459645
 11
4315.824826
 21
3267.699645
  0
LINE
  8
0
  6
CONTINUOUS
 62
3
 10
4130.827173
 20
3204.399645
 11
4130.826630
 21
3204.399789
  0
LINE
  8
0
  6
CONTINUOUS
 62
3
 10
4130.826630
 20
3204.399789
 11
4130.826156
 21
3204.399894
  0
LINE
  8
0
  6
CONTINUOUS
 62
3
 10
4130.826156
 20
3204.399894
 11
4130.825753
 21
3204.399957
  0
LINE
  8
0
  6
CONTINUOUS
 62
3
 10
4130.825753
 20
3204.399957
 11
4130.825422
 21
3204.399979
  0
LINE
  8
0
  6
CONTINUOUS
 62
3
 10
4130.825422
 20
3204.399979
 11
4130.825162
 21
3204.399960
  0
LINE
  8
0
  6
CONTINUOUS
 62
3
 10
4130.825162
 20
3204.399960
 11
4130.824976
 21
3204.399898
  0
LINE
  8
0
  6
CONTINUOUS
 62
3
 10
4130.824976
 20
3204.399898
 11
4130.824864
 21
3204.399793
  0
LINE
  8
0
  6
CONTINUOUS
 62
3
 10
4130.824864
 20
3204.399793
 11
4130.824826
 21
3204.399645
  0
LINE
  8
0
  6
CONTINUOUS
 62
3
 10
4130.824826
 20
3266.449645
 11
4130.824826
 21
3204.399645
  0
LINE
  8
0
  6
CONTINUOUS
 62
3
 10
4130.824826
 20
3266.459645
 11
4130.824826
 21
3266.449645
  0
LINE
  8
0
  6
CONTINUOUS
 62
3
 10
4130.824826
 20
3267.699645
 11
4130.824826
 21
3266.459645
  0
ARC
  8
0
  6
CONTINUOUS
 62
1
 10
4133.524826
 20
3204.399645
 40
2.700000
 50
180.000000
 51
270.000000
  0
LINE
  8
0
  6
CONTINUOUS
 62
3
 10
4130.824826
 20
3204.399645
 11
4130.827173
 21
3204.399645
  0
LINE
  8
0
  6
CONTINUOUS
 62
3
 10
4185.464826
 20
3201.199645
 11
4185.464826
 21
3201.149645
  0
LINE
  8
0
  6
CONTINUOUS
 62
3
 10
4171.424826
 20
4076.499645
 11
4152.124826
 21
4076.499645
  0
ARC
  8
0
  6
CONTINUOUS
 62
3
 10
4171.424826
 20
4070.499645
 40
6.000000
 50
0.000000
 51
90.000000
  0
ARC
  8
0
  6
CONTINUOUS
 62
3
 10
4152.124826
 20
4070.499645
 40
6.000000
 50
90.000000
 51
180.000000
  0
LINE
  8
0
  6
CONTINUOUS
 62
3
 10
4142.837737
 20
4053.999645
 11
4152.306282
 21
4053.999645
  0
LINE
  8
0
  6
CONTINUOUS
 62
3
 10
4152.306282
 20
4053.999645
 11
4171.243370
 21
4053.999645
  0
LINE
  8
0
  6
CONTINUOUS
 62
3
 10
4171.243370
 20
4053.999645
 11
4180.711915
 21
4053.999645
  0
LINE
  8
0
  6
CONTINUOUS
 62
3
 10
4142.837737
 20
4069.499645
 11
4152.306282
 21
4069.499645
  0
LINE
  8
0
  6
CONTINUOUS
 62
3
 10
4142.837737
 20
4053.999645
 11
4142.837737
 21
4069.499645
  0
LINE
  8
0
  6
CONTINUOUS
 62
3
 10
4152.306282
 20
4069.499645
 11
4171.243370
 21
4069.499645
  0
LINE
  8
0
  6
CONTINUOUS
 62
3
 10
4171.243370
 20
4069.499645
 11
4180.711915
 21
4069.499645
  0
LINE
  8
0
  6
CONTINUOUS
 62
3
 10
4180.711915
 20
4053.999645
 11
4180.711915
 21
4069.499645
  0
LINE
  8
0
  6
CONTINUOUS
 62
3
 10
4142.837737
 20
4047.499645
 11
4142.837737
 21
4042.699645
  0
LINE
  8
0
  6
CONTINUOUS
 62
3
 10
4180.711915
 20
4047.499645
 11
4180.711915
 21
4042.699645
  0
LINE
  8
0
  6
CONTINUOUS
 62
3
 10
4180.711915
 20
4047.499645
 11
4171.243370
 21
4047.499645
  0
LINE
  8
0
  6
CONTINUOUS
 62
3
 10
4171.243370
 20
4047.499645
 11
4152.306282
 21
4047.499645
  0
LINE
  8
0
  6
CONTINUOUS
 62
3
 10
4152.306282
 20
4047.499645
 11
4142.837737
 21
4047.499645
  0
LINE
  8
0
  6
CONTINUOUS
 62
3
 10
4177.424826
 20
4069.499645
 11
4177.424826
 21
4070.499645
  0
LINE
  8
0
  6
CONTINUOUS
 62
3
 10
4146.124826
 20
4069.499645
 11
4146.124826
 21
4070.499645
  0
LINE
  8
0
  6
CONTINUOUS
 62
3
 10
4175.774826
 20
4047.499645
 11
4175.774826
 21
4053.999645
  0
LINE
  8
0
  6
CONTINUOUS
 62
3
 10
4147.774826
 20
4047.499645
 11
4147.774826
 21
4053.999645
  0
LINE
  8
0
  6
CONTINUOUS
 62
3
 10
3597.796827
 20
3189.449645
 11
3598.165501
 21
3189.449645
  0
LINE
  8
0
  6
CONTINUOUS
 62
3
 10
3597.796827
 20
3189.449645
 11
3550.244568
 21
3189.449645
  0
LINE
  8
0
  6
CONTINUOUS
 62
3
 10
3544.432867
 20
3189.449645
 11
3550.244568
 21
3189.449645
  0
LINE
  8
0
  6
CONTINUOUS
 62
3
 10
3544.432867
 20
3189.449645
 11
3534.066151
 21
3189.449645
  0
LINE
  8
0
  6
CONTINUOUS
 62
3
 10
3533.477065
 20
3189.449645
 11
3534.066151
 21
3189.449645
  0
ARC
  8
0
  6
CONTINUOUS
 62
1
 10
3598.165501
 20
3190.199645
 40
0.750000
 50
270.000000
 51
355.895272
  0
ARC
  8
0
  6
CONTINUOUS
 62
1
 10
3533.477065
 20
3190.199645
 40
0.750000
 50
184.104728
 51
270.000000
  0
LINE
  8
0
  6
CONTINUOUS
 62
3
 10
3531.971616
 20
3200.699645
 11
3532.728989
 21
3190.145960
  0
LINE
  8
0
  6
CONTINUOUS
 62
3
 10
3599.670950
 20
3200.699645
 11
3598.913577
 21
3190.145960
  0
ARC
  8
0
  6
CENTER
 62
4
 10
3353.419795
 20
3230.492109
 40
763.120079
 50
270.000000
 51
359.640175
  0
LINE
  8
0
  6
CENTER
 62
4
 10
3353.419795
 20
2467.372030
 11
3353.419795
 21
3230.492109
  0
TEXT
  8
0
  6
CONTINUOUS
 62
4
 10
3545.992750
 20
2849.215620
 40
100.000000
  1
LH
 50
0.000000
 41
0.800000
 51
0.000000
  7
STANDARD
  0
LINE
  8
0
  6
CONTINUOUS
 62
4
 10
3559.549295
 20
3445.096253
 11
4056.549295
 21
3445.096253
  0
LINE
  8
0
  6
CONTINUOUS
 62
4
 10
4056.549295
 20
3445.096253
 11
4056.549295
 21
3865.096253
  0
LINE
  8
0
  6
CONTINUOUS
 62
4
 10
4056.549295
 20
3865.096253
 11
3559.549295
 21
3865.096253
  0
LINE
  8
0
  6
CONTINUOUS
 62
4
 10
3559.549295
 20
3865.096253
 11
3559.549295
 21
3445.096253
  0
TEXT
  8
0
  6
CONTINUOUS
 62
4
 10
3678.549295
 20
3760.096253
 40
70.000000
  1
FG158
 50
0.000000
 41
1.000000
 51
0.000000
  7
STANDARD
  0
TEXT
  8
0
  6
CONTINUOUS
 62
4
 10
3594.549295
 20
3620.096253
 40
70.000000
  1
4/5 TRAY
 50
0.000000
 41
1.000000
 51
0.000000
  7
STANDARD
  0
TEXT
  8
0
  6
CONTINUOUS
 62
4
 10
3678.549295
 20
3480.096253
 40
70.000000
  1
60X40
 50
0.000000
 41
1.000000
 51
0.000000
  7
STANDARD
  0
DIMENSION
  8
0
 62
1
  2
*D1
 70
0
  1
<>
 10
3818.024826
 20
4266.139624
 11
3818.024826
 21
4266.139624
 13
3318.024826
 23
4040.499645
 14
4318.024826
 24
4040.499645
 50
0.000000
  0
DIMENSION
  8
0
 62
1
  2
*D2
 70
0
  1
<>
 10
3182.236977
 20
3631.199645
 11
3182.236977
 21
3631.199645
 13
3329.804326
 23
4061.699645
 14
3325.724826
 24
3200.699645
 50
-90.000000
  0
INSERT
  2
A1-SHEET
  8
BORDER
 10
100.000000
 20
100.000000
 41
10.000000
 42
10.000000
 50
0.000000
  0
ENDSEC
  0
EOF
