  0
SECTION
  2
HEADER
  9
$LIMMIN
 10
0.000000
 20
0.000000
  9
$LIMMAX
 10
8408.964153
 20
5946.035575
  9
$EXTMIN
 10
0.000000
 20
0.000000
  9
$EXTMAX
 10
8408.964153
 20
5946.035575
  9
$ANGBASE
 50
0.0
  9
$ANGDIR
 70
0
  9
$DIMRND
 40
0.100000
  9
$DIMSE1
 70
0
  9
$DIMSE2
 70
0
  9
$DIMTXT
 40
3.500000
  9
$LTSCALE
 40
1.000000
  9
$LUPREC
 70
0
  9
$AUPREC
 70
0
  9
$PDMODE
 70
2
  9
$PDSIZE
 40
42.044821
  0
ENDSEC
  0
SECTION
  2
TABLES
  0
TABLE
  2
VPORT
  70
1
  0
VPORT
  2
*ACTIVE
 70
0
  10
0.0
 20
0.0
 11
1.0
 21
1.0
 12
594.0
 22
420.0
 13
0.0
 23
0.0
 14
10.0
 24
10.0
 15
10.0
 25
10.0
 16
0.0
 26
0.0
 36
1.0
 17
594.0
 27
420.0
 37
100.0
 40
1000.0
 41
1.0
 42
50.0
 43
0.0
 44
0.0
 50
0.0
 51
0.0
 71
0
 72
2000
 73
1
 74
3
 75
0
 76
0
 77
0
 78
1
  0
ENDTAB
  0
TABLE
  2
LTYPE
 70
4
  0
LTYPE
  2
CONTINUOUS
 70
0
  3
Solid line
 72
65
 73
0
 40
0.0
  0
LTYPE
  2
DASHED
 70
0
  3
Dashed line
 72
65
 73
2
 40
60.000000
 49
30.000000
 49
-30.000000
  0
LTYPE
  2
CENTER
 70
0
  3
Chain line
 72
65
 73
4
 40
240.000000
 49
150.000000
 49
-30.000000
 49
30.000000
 49
-30.000000
  0
LTYPE
  2
RANDOM
 70
0
  3
Random line
 72
65
 73
4
 40
225.000000
 49
60.000000
 49
-30.000000
 49
45.000000
 49
-90.000000
  0
ENDTAB
  0
TABLE
  2
STYLE
 70
9
  0
STYLE
  2
STANDARD
 40
0
 41
1.0
 50
0.0
 71
0
 42
0
  3
simplex
  4

 70
0
  0
ENDTAB
  0
TABLE
  2
LAYER
 70
3
  0
LAYER
  2
0
 70
0
 62
7
  6
CONTINUOUS
  0
LAYER
  2
0
 62
1
  6
CONTINUOUS
 70
0
  0
LAYER
  2
BORDER
 62
1
  6
CONTINUOUS
 70
0
  0
ENDTAB
  0
ENDSEC
  0
SECTION
  2
BLOCKS
  0
BLOCK
  2
A1-SHEET
  8
0
 70
0
 10
0.0
 20
0.0
 30
0.0
  0
LINE
  8
0
  6
CONTINUOUS
 62
1
 10
0.000000
 20
0.293588
 11
0.000000
 21
570.293588
  0
LINE
  8
0
  6
CONTINUOUS
 62
1
 10
810.896415
 20
0.293588
 11
0.000000
 21
0.293588
  0
LINE
  8
0
  6
CONTINUOUS
 62
1
 10
0.000000
 20
570.293588
 11
810.896415
 21
570.293588
  0
LINE
  8
0
  6
CONTINUOUS
 62
1
 10
810.896415
 20
0.293588
 11
810.896415
 21
570.293588
  0
LINE
  8
0
  6
CONTINUOUS
 62
1
 10
405.448208
 20
570.293588
 11
405.448208
 21
573.293588
  0
LINE
  8
0
  6
CONTINUOUS
 62
1
 10
608.172311
 20
570.293588
 11
608.172311
 21
573.293588
  0
LINE
  8
0
  6
CONTINUOUS
 62
1
 10
202.724104
 20
570.293588
 11
202.724104
 21
573.293588
  0
LINE
  8
0
  6
CONTINUOUS
 62
1
 10
101.362052
 20
570.293588
 11
101.362052
 21
573.293588
  0
LINE
  8
0
  6
CONTINUOUS
 62
1
 10
304.086156
 20
570.293588
 11
304.086156
 21
569.894507
  0
LINE
  8
0
  6
CONTINUOUS
 62
1
 10
304.086156
 20
569.894507
 11
304.086156
 21
573.293588
  0
LINE
  8
0
  6
CONTINUOUS
 62
1
 10
506.810260
 20
570.293588
 11
506.810260
 21
573.293588
  0
LINE
  8
0
  6
CONTINUOUS
 62
1
 10
709.534363
 20
570.293588
 11
709.534363
 21
573.293588
  0
TEXT
  8
0
  6
CONTINUOUS
 62
2
 10
99.855229
 20
574.935709
 40
3.000000
  1
1
 50
0.000000
 41
1.000000
 51
0.000000
  7
STANDARD
  0
TEXT
  8
0
  6
CONTINUOUS
 62
2
 10
201.603454
 20
574.761780
 40
3.000000
  1
2
 50
0.000000
 41
1.000000
 51
0.000000
  7
STANDARD
  0
TEXT
  8
0
  6
CONTINUOUS
 62
2
 10
303.425760
 20
574.928387
 40
3.000000
  1
3
 50
0.000000
 41
1.000000
 51
0.000000
  7
STANDARD
  0
TEXT
  8
0
  6
CONTINUOUS
 62
2
 10
403.692370
 20
574.751238
 40
3.000000
  1
4
 50
0.000000
 41
1.000000
 51
0.000000
  7
STANDARD
  0
TEXT
  8
0
  6
CONTINUOUS
 62
2
 10
505.761611
 20
574.628257
 40
3.000000
  1
5
 50
0.000000
 41
1.000000
 51
0.000000
  7
STANDARD
  0
TEXT
  8
0
  6
CONTINUOUS
 62
2
 10
607.243575
 20
575.166148
 40
3.000000
  1
6
 50
0.000000
 41
1.000000
 51
0.000000
  7
STANDARD
  0
TEXT
  8
0
  6
CONTINUOUS
 62
2
 10
708.456940
 20
573.963183
 40
3.000000
  1
7
 50
0.000000
 41
1.000000
 51
0.000000
  7
STANDARD
  0
LINE
  8
0
  6
CONTINUOUS
 62
3
 10
405.448208
 20
570.293588
 11
405.448208
 21
565.293588
  0
LINE
  8
0
  6
CONTINUOUS
 62
1
 10
810.896415
 20
285.293588
 11
813.896415
 21
285.293588
  0
LINE
  8
0
  6
CONTINUOUS
 62
1
 10
810.896415
 20
427.793588
 11
813.896415
 21
427.793588
  0
LINE
  8
0
  6
CONTINUOUS
 62
1
 10
810.896415
 20
142.793588
 11
813.896415
 21
142.793588
  0
LINE
  8
0
  6
CONTINUOUS
 62
1
 10
810.896415
 20
499.043588
 11
813.896415
 21
499.043588
  0
LINE
  8
0
  6
CONTINUOUS
 62
1
 10
810.896415
 20
356.543588
 11
813.896415
 21
356.543588
  0
LINE
  8
0
  6
CONTINUOUS
 62
1
 10
810.896415
 20
214.043588
 11
813.896415
 21
214.043588
  0
LINE
  8
0
  6
CONTINUOUS
 62
1
 10
810.896415
 20
71.543588
 11
813.896415
 21
71.543588
  0
TEXT
  8
0
  6
CONTINUOUS
 62
2
 10
814.731259
 20
497.682453
 40
3.000000
  1
A
 50
0.000000
 41
1.000000
 51
0.000000
  7
STANDARD
  0
TEXT
  8
0
  6
CONTINUOUS
 62
2
 10
814.617524
 20
426.633648
 40
3.000000
  1
B
 50
0.000000
 41
1.000000
 51
0.000000
  7
STANDARD
  0
TEXT
  8
0
  6
CONTINUOUS
 62
2
 10
815.378220
 20
355.128239
 40
3.000000
  1
C
 50
0.000000
 41
1.000000
 51
0.000000
  7
STANDARD
  0
TEXT
  8
0
  6
CONTINUOUS
 62
2
 10
815.265962
 20
284.354684
 40
3.000000
  1
D
 50
0.000000
 41
1.000000
 51
0.000000
  7
STANDARD
  0
TEXT
  8
0
  6
CONTINUOUS
 62
2
 10
815.477184
 20
212.961533
 40
3.000000
  1
E
 50
0.000000
 41
1.000000
 51
0.000000
  7
STANDARD
  0
TEXT
  8
0
  6
CONTINUOUS
 62
2
 10
814.828747
 20
141.734274
 40
3.000000
  1
F
 50
0.000000
 41
1.000000
 51
0.000000
  7
STANDARD
  0
TEXT
  8
0
  6
CONTINUOUS
 62
2
 10
815.320614
 20
69.921633
 40
3.000000
  1
G
 50
0.000000
 41
1.000000
 51
0.000000
  7
STANDARD
  0
LINE
  8
0
  6
CONTINUOUS
 62
3
 10
810.896415
 20
285.293588
 11
807.896415
 21
285.293588
  0
LINE
  8
0
  6
CONTINUOUS
 62
1
 10
578.313470
 20
19.293588
 11
578.313470
 21
0.000000
  0
LINE
  8
0
  6
CONTINUOUS
 62
1
 10
284.611031
 20
19.293588
 11
284.611031
 21
0.293588
  0
LINE
  8
0
  6
CONTINUOUS
 62
1
 10
810.896415
 20
563.293588
 11
653.667813
 21
563.293588
  0
LINE
  8
0
  6
CONTINUOUS
 62
1
 10
107.451868
 20
563.293588
 11
0.000000
 21
563.293588
  0
LINE
  8
0
  6
CONTINUOUS
 62
1
 10
0.000000
 20
19.293588
 11
623.352368
 21
19.293588
  0
TEXT
  8
0
  6
CONTINUOUS
 62
2
 10
46.453288
 20
10.796613
 40
3.105000
  1
1998 - THIS DESIGN/DRAWING IS THE PROPERTY OF MONO EQUIPMENT AND MUST NOT BE
 50
0.000000
 41
1.000000
 51
0.000000
  7
STANDARD
  0
TEXT
  8
0
  6
CONTINUOUS
 62
2
 10
41.107749
 20
4.310541
 40
3.105000
  1
REPRODUCED, COPIED, OR ITS CONTENTS DIVULGED WITHOUT PRIOR WRITTEN PERMISSION.
 50
0.000000
 41
1.000000
 51
0.000000
  7
STANDARD
  0
CIRCLE
  8
0
  6
CONTINUOUS
 62
3
 10
42.276047
 20
14.388236
 40
2.173500
  0
TEXT
  8
0
  6
CONTINUOUS
 62
2
 10
16.991737
 20
10.697820
 40
3.105000
  1
COPYRIGHT
 50
0.000000
 41
1.000000
 51
0.000000
  7
STANDARD
  0
TEXT
  8
0
  6
CONTINUOUS
 62
2
 10
41.713660
 20
13.712616
 40
1.630125
  1
C
 50
0.000000
 41
1.000000
 51
0.000000
  7
STANDARD
  0
TEXT
  8
0
  6
CONTINUOUS
 62
3
 10
286.872128
 20
14.527338
 40
3.003000
  1
REMOVE ALL BURRS & SHARP EDGES - ON SHEET METAL PARTS
 50
0.000000
 41
1.000000
 51
0.000000
  7
STANDARD
  0
LINE
  8
0
  6
CONTINUOUS
 62
1
 10
578.313470
 20
13.293588
 11
284.611031
 21
13.293588
  0
LINE
  8
0
  6
CONTINUOUS
 62
1
 10
284.611031
 20
6.293588
 11
578.313470
 21
6.293588
  0
TEXT
  8
0
  6
CONTINUOUS
 62
3
 10
292.717676
 20
1.450699
 40
3.003000
  1
OPEN TOL,150 & BELOW -.5,OVER 150 -1.0
 50
0.000000
 41
1.000000
 51
0.000000
  7
STANDARD
  0
TEXT
  8
0
  6
CONTINUOUS
 62
3
 10
343.153184
 20
2.995429
 40
3.003000
  1
+
 50
0.000000
 41
1.000000
 51
0.000000
  7
STANDARD
  0
TEXT
  8
0
  6
CONTINUOUS
 62
3
 10
374.360063
 20
3.082114
 40
3.003000
  1
+
 50
0.000000
 41
1.000000
 51
0.000000
  7
STANDARD
  0
TEXT
  8
0
  6
CONTINUOUS
 62
3
 10
396.025848
 20
1.552562
 40
3.003000
  1
DECIMAL DIMs,75 & BELOW -.25, 75 TO 300-.4, 300 TO 600-.5, OVER 600-1.0
 50
0.000000
 41
1.000000
 51
0.000000
  7
STANDARD
  0
TEXT
  8
0
  6
CONTINUOUS
 62
3
 10
453.503115
 20
3.046556
 40
3.003000
  1
+
 50
0.000000
 41
1.000000
 51
0.000000
  7
STANDARD
  0
TEXT
  8
0
  6
CONTINUOUS
 62
3
 10
489.694740
 20
3.046556
 40
3.003000
  1
+
 50
0.000000
 41
1.000000
 51
0.000000
  7
STANDARD
  0
TEXT
  8
0
  6
CONTINUOUS
 62
3
 10
525.686413
 20
3.046556
 40
3.003000
  1
+
 50
0.000000
 41
1.000000
 51
0.000000
  7
STANDARD
  0
TEXT
  8
0
  6
CONTINUOUS
 62
3
 10
557.079149
 20
3.046556
 40
3.003000
  1
+
 50
0.000000
 41
1.000000
 51
0.000000
  7
STANDARD
  0
TEXT
  8
0
  6
CONTINUOUS
 62
3
 10
298.372755
 20
8.027002
 40
3.003000
  1
SURFACE MACHINING,         COARSE FINISH,          MEDIUM FINISH
 50
0.000000
 41
1.000000
 51
0.000000
  7
STANDARD
  0
LINE
  8
0
  6
CONTINUOUS
 62
3
 10
358.454200
 20
7.938625
 11
357.376430
 21
9.477839
  0
LINE
  8
0
  6
CONTINUOUS
 62
3
 10
355.061002
 20
7.938625
 11
361.601409
 21
7.938625
  0
LINE
  8
0
  6
CONTINUOUS
 62
3
 10
355.461530
 20
7.938625
 11
356.552531
 21
6.847623
  0
LINE
  8
0
  6
CONTINUOUS
 62
3
 10
358.675973
 20
6.847623
 11
357.584972
 21
7.938625
  0
LINE
  8
0
  6
CONTINUOUS
 62
3
 10
359.708413
 20
7.938625
 11
360.799415
 21
6.847623
  0
LINE
  8
0
  6
CONTINUOUS
 62
3
 10
357.376430
 20
9.477839
 11
359.531969
 21
9.477839
  0
TEXT
  8
0
  6
CONTINUOUS
 62
3
 10
355.059729
 20
10.350713
 40
1.911000
  1
3.2
 50
0.000000
 41
1.000000
 51
0.000000
  7
STANDARD
  0
LINE
  8
0
  6
CONTINUOUS
 62
3
 10
361.472631
 20
12.249391
 11
358.454200
 21
7.938625
  0
LINE
  8
0
  6
CONTINUOUS
 62
3
 10
415.064989
 20
7.939383
 11
413.987220
 21
9.478597
  0
LINE
  8
0
  6
CONTINUOUS
 62
3
 10
411.671791
 20
7.939383
 11
418.212199
 21
7.939383
  0
LINE
  8
0
  6
CONTINUOUS
 62
3
 10
412.072320
 20
7.939383
 11
413.163321
 21
6.848381
  0
LINE
  8
0
  6
CONTINUOUS
 62
3
 10
415.286763
 20
6.848381
 11
414.195761
 21
7.939383
  0
LINE
  8
0
  6
CONTINUOUS
 62
3
 10
416.319203
 20
7.939383
 11
417.410204
 21
6.848381
  0
LINE
  8
0
  6
CONTINUOUS
 62
3
 10
413.987220
 20
9.478597
 11
416.142758
 21
9.478597
  0
TEXT
  8
0
  6
CONTINUOUS
 62
3
 10
411.670519
 20
10.351471
 40
1.911000
  1
1.6
 50
0.000000
 41
1.000000
 51
0.000000
  7
STANDARD
  0
LINE
  8
0
  6
CONTINUOUS
 62
3
 10
418.083420
 20
12.250149
 11
415.064989
 21
7.939383
  0
TEXT
  8
0
  6
CONTINUOUS
 62
3
 10
471.656054
 20
7.835044
 40
3.003000
  1
FINE FINISH,          GROUND FINISH
 50
0.000000
 41
1.000000
 51
0.000000
  7
STANDARD
  0
LINE
  8
0
  6
CONTINUOUS
 62
3
 10
520.028258
 20
7.857540
 11
518.950489
 21
9.396754
  0
LINE
  8
0
  6
CONTINUOUS
 62
3
 10
516.635060
 20
7.857540
 11
523.175468
 21
7.857540
  0
LINE
  8
0
  6
CONTINUOUS
 62
3
 10
517.035588
 20
7.857540
 11
518.126590
 21
6.766538
  0
LINE
  8
0
  6
CONTINUOUS
 62
3
 10
520.250032
 20
6.766538
 11
519.159030
 21
7.857540
  0
LINE
  8
0
  6
CONTINUOUS
 62
3
 10
521.282472
 20
7.857540
 11
522.373473
 21
6.766538
  0
LINE
  8
0
  6
CONTINUOUS
 62
3
 10
518.950489
 20
9.396754
 11
521.106027
 21
9.396754
  0
TEXT
  8
0
  6
CONTINUOUS
 62
3
 10
516.633788
 20
10.269628
 40
1.911000
  1
0.4
 50
0.000000
 41
1.000000
 51
0.000000
  7
STANDARD
  0
LINE
  8
0
  6
CONTINUOUS
 62
3
 10
523.046689
 20
12.168306
 11
520.028258
 21
7.857540
  0
LINE
  8
0
  6
CONTINUOUS
 62
3
 10
466.978169
 20
7.991505
 11
465.900400
 21
9.530719
  0
LINE
  8
0
  6
CONTINUOUS
 62
3
 10
463.584971
 20
7.991505
 11
470.125378
 21
7.991505
  0
LINE
  8
0
  6
CONTINUOUS
 62
3
 10
463.985499
 20
7.991505
 11
465.076501
 21
6.900503
  0
LINE
  8
0
  6
CONTINUOUS
 62
3
 10
467.199942
 20
6.900503
 11
466.108941
 21
7.991505
  0
LINE
  8
0
  6
CONTINUOUS
 62
3
 10
468.232382
 20
7.991505
 11
469.323384
 21
6.900503
  0
LINE
  8
0
  6
CONTINUOUS
 62
3
 10
465.900400
 20
9.530719
 11
468.055938
 21
9.530719
  0
TEXT
  8
0
  6
CONTINUOUS
 62
3
 10
463.583698
 20
10.403593
 40
1.911000
  1
0.8
 50
0.000000
 41
1.000000
 51
0.000000
  7
STANDARD
  0
LINE
  8
0
  6
CONTINUOUS
 62
3
 10
469.996600
 20
12.302271
 11
466.978169
 21
7.991505
  0
TEXT
  8
0
  6
CONTINUOUS
 62
3
 10
417.615816
 20
14.532113
 40
3.003000
  1
EXTERNAL CORNERS TO BE SAFETY RADIUSED 2mm UNLESS STATED OTHERWISE
 50
0.000000
 41
1.000000
 51
0.000000
  7
STANDARD
  0
TEXT
  8
0
  6
CONTINUOUS
 62
3
 10
656.297578
 20
564.567124
 40
4.000000
  1
ALL DIMENSIONS IN mm UNLESS OTHERWISE STATED
 50
0.000000
 41
1.000000
 51
0.000000
  7
STANDARD
  0
LINE
  8
0
  6
CONTINUOUS
 62
1
 10
653.667813
 20
570.293588
 11
653.667813
 21
563.293588
  0
LINE
  8
0
  6
CONTINUOUS
 62
1
 10
107.451868
 20
570.293588
 11
107.451868
 21
563.293588
  0
TEXT
  8
0
  6
CONTINUOUS
 62
3
 10
3.972877
 20
564.871493
 40
4.000000
  1
DO NOT SCALE - IF IN DOUBT ASK !
 50
0.000000
 41
1.000000
 51
0.000000
  7
STANDARD
  0
LINE
  8
0
  6
CONTINUOUS
 62
1
 10
587.525727
 20
13.926050
 11
596.525727
 21
16.337592
  0
LINE
  8
0
  6
CONTINUOUS
 62
1
 10
587.525727
 20
10.249192
 11
596.525727
 21
7.837650
  0
LINE
  8
0
  6
CONTINUOUS
 62
1
 10
587.525727
 20
10.249192
 11
587.525727
 21
13.926050
  0
LINE
  8
0
  6
CONTINUOUS
 62
1
 10
596.525727
 20
16.337592
 11
596.525727
 21
7.837650
  0
CIRCLE
  8
0
  6
CONTINUOUS
 62
1
 10
607.775727
 20
12.087621
 40
4.500000
  0
CIRCLE
  8
0
  6
CONTINUOUS
 62
1
 10
607.775727
 20
12.087621
 40
1.838429
  0
LINE
  8
0
  6
CENTER
 62
3
 10
585.650727
 20
12.087621
 11
598.400727
 21
12.087621
  0
LINE
  8
0
  6
CENTER
 62
3
 10
602.150727
 20
12.087621
 11
613.400727
 21
12.087621
  0
LINE
  8
0
  6
CENTER
 62
3
 10
607.775727
 20
6.462621
 11
607.775727
 21
17.712621
  0
TEXT
  8
0
  6
CONTINUOUS
 62
3
 10
592.291645
 20
1.750190
 40
2.500000
  1
1st ANGLE
 50
0.000000
 41
1.000000
 51
0.000000
  7
STANDARD
  0
LINE
  8
0
  6
CONTINUOUS
 62
1
 10
623.352368
 20
0.293588
 11
623.352368
 21
62.274256
  0
LINE
  8
0
  6
CONTINUOUS
 62
1
 10
623.352368
 20
0.293588
 11
810.896415
 21
0.293588
  0
LINE
  8
0
  6
CONTINUOUS
 62
1
 10
727.208958
 20
33.293588
 11
727.208958
 21
0.293588
  0
TEXT
  8
0
  6
CONTINUOUS
 62
3
 10
727.766174
 20
10.487504
 40
2.500000
  1
DRAWING NO.
 50
0.000000
 41
1.000000
 51
0.000000
  7
STANDARD
  0
TEXT
  8
0
  6
CONTINUOUS
 62
3
 10
800.510911
 20
10.225253
 40
2.500000
  1
REV:
 50
0.000000
 41
1.000000
 51
0.000000
  7
STANDARD
  0
LINE
  8
0
  6
CONTINUOUS
 62
1
 10
798.482467
 20
14.293588
 11
798.482467
 21
0.293588
  0
LINE
  8
0
  6
CONTINUOUS
 62
1
 10
633.753828
 20
71.698567
 11
633.753828
 21
62.274256
  0
LINE
  8
0
  6
CONTINUOUS
 62
1
 10
791.352368
 20
62.274256
 11
727.208958
 21
62.274256
  0
LINE
  8
0
  6
CONTINUOUS
 62
1
 10
810.896415
 20
62.274256
 11
623.352368
 21
62.274256
  0
LINE
  8
0
  6
CONTINUOUS
 62
1
 10
633.753828
 20
77.604799
 11
633.753828
 21
62.274256
  0
LINE
  8
0
  6
CONTINUOUS
 62
1
 10
623.352368
 20
69.274256
 11
810.896415
 21
69.274256
  0
LINE
  8
0
  6
CONTINUOUS
 62
1
 10
793.896415
 20
69.274256
 11
793.896415
 21
62.274256
  0
LINE
  8
0
  6
CONTINUOUS
 62
1
 10
623.352368
 20
62.274256
 11
623.352368
 21
77.604799
  0
TEXT
  8
0
  6
CONTINUOUS
 62
3
 10
718.950436
 20
64.569995
 40
2.500000
  1
REVISION
 50
0.000000
 41
1.000000
 51
0.000000
  7
STANDARD
  0
TEXT
  8
0
  6
CONTINUOUS
 62
3
 10
795.462895
 20
64.646654
 40
2.500000
  1
ECN NO.
 50
0.000000
 41
1.000000
 51
0.000000
  7
STANDARD
  0
LINE
  8
0
  6
CONTINUOUS
 62
1
 10
764.317856
 20
14.293588
 11
764.317856
 21
33.293588
  0
LINE
  8
0
  6
CONTINUOUS
 62
1
 10
623.352368
 20
14.293588
 11
623.352368
 21
0.293588
  0
LINE
  8
0
  6
CONTINUOUS
 62
1
 10
623.352368
 20
16.727379
 11
623.352368
 21
2.727379
  0
LINE
  8
0
  6
CONTINUOUS
 62
1
 10
646.753828
 20
77.604799
 11
646.753828
 21
62.274256
  0
LINE
  8
0
  6
CONTINUOUS
 62
1
 10
670.486609
 20
77.604799
 11
670.486609
 21
62.274256
  0
TEXT
  8
0
  6
CONTINUOUS
 62
3
 10
636.962453
 20
64.332177
 40
2.500000
  1
SIG
 50
0.000000
 41
1.000000
 51
0.000000
  7
STANDARD
  0
TEXT
  8
0
  6
CONTINUOUS
 62
3
 10
624.865220
 20
64.110210
 40
2.500000
  1
REV
 50
0.000000
 41
1.000000
 51
0.000000
  7
STANDARD
  0
TEXT
  8
0
  6
CONTINUOUS
 62
3
 10
653.166086
 20
64.110210
 40
2.500000
  1
DATE
 50
0.000000
 41
1.000000
 51
0.000000
  7
STANDARD
  0
LINE
  8
0
  6
CONTINUOUS
 62
1
 10
810.896415
 20
14.293588
 11
727.208958
 21
14.293588
  0
LINE
  8
0
  6
CONTINUOUS
 62
1
 10
810.896415
 20
0.293588
 11
810.896415
 21
570.293588
  0
LINE
  8
0
  6
CONTINUOUS
 62
1
 10
700.168430
 20
0.293588
 11
700.168430
 21
62.274256
  0
LINE
  8
0
  6
CONTINUOUS
 62
1
 10
810.896415
 20
33.293588
 11
700.168430
 21
33.293588
  0
LINE
  8
0
  6
CONTINUOUS
 62
1
 10
700.168430
 20
22.293588
 11
727.208958
 21
22.293588
  0
LINE
  8
0
  6
CONTINUOUS
 62
1
 10
727.208958
 20
11.293588
 11
700.168430
 21
11.293588
  0
TEXT
  8
0
  6
CONTINUOUS
 62
3
 10
701.350188
 20
29.612613
 40
2.500000
  1
DRAWN:
 50
0.000000
 41
1.000000
 51
0.000000
  7
STANDARD
  0
TEXT
  8
0
  6
CONTINUOUS
 62
3
 10
701.350188
 20
18.637009
 40
2.500000
  1
DATE:
 50
0.000000
 41
1.000000
 51
0.000000
  7
STANDARD
  0
TEXT
  8
0
  6
CONTINUOUS
 62
3
 10
701.111588
 20
7.661404
 40
2.500000
  1
SCALE:
 50
0.000000
 41
1.000000
 51
0.000000
  7
STANDARD
  0
TEXT
  8
0
  6
CONTINUOUS
 62
2
 10
772.768519
 20
28.719478
 40
2.500000
  1
WORKS ORDER NO.
 50
0.000000
 41
1.000000
 51
0.000000
  7
STANDARD
  0
TEXT
  8
0
  6
CONTINUOUS
 62
2
 10
728.589229
 20
28.541629
 40
2.500000
  1
PURCHASE ORDER NO.
 50
0.000000
 41
1.000000
 51
0.000000
  7
STANDARD
  0
LINE
  8
0
  6
CONTINUOUS
 62
1
 10
700.168430
 20
33.293588
 11
623.352368
 21
33.293588
  0
LINE
  8
0
  6
CONTINUOUS
 62
1
 10
700.168430
 20
22.293588
 11
623.352368
 21
22.293588
  0
LINE
  8
0
  6
CONTINUOUS
 62
1
 10
700.168430
 20
11.293588
 11
623.352368
 21
11.293588
  0
TEXT
  8
0
  6
CONTINUOUS
 62
3
 10
624.026517
 20
29.753879
 40
2.500000
  1
MAT'L:
 50
0.000000
 41
1.000000
 51
0.000000
  7
STANDARD
  0
LINE
  8
0
  6
CONTINUOUS
 62
1
 10
661.760399
 20
11.293588
 11
661.760399
 21
22.293588
  0
TEXT
  8
0
  6
CONTINUOUS
 62
3
 10
623.981266
 20
19.055406
 40
2.500000
  1
MAT'L
 50
0.000000
 41
1.000000
 51
0.000000
  7
STANDARD
  0
TEXT
  8
0
  6
CONTINUOUS
 62
3
 10
624.092805
 20
15.374627
 40
2.500000
  1
QTY:
 50
0.000000
 41
1.000000
 51
0.000000
  7
STANDARD
  0
TEXT
  8
0
  6
CONTINUOUS
 62
3
 10
662.350599
 20
15.263088
 40
2.500000
  1
REQ:
 50
0.000000
 41
1.000000
 51
0.000000
  7
STANDARD
  0
TEXT
  8
0
  6
CONTINUOUS
 62
3
 10
662.573677
 20
18.832329
 40
2.500000
  1
NO.
 50
0.000000
 41
1.000000
 51
0.000000
  7
STANDARD
  0
TEXT
  8
0
  6
CONTINUOUS
 62
3
 10
623.981266
 20
7.678453
 40
2.500000
  1
FINISH:
 50
0.000000
 41
1.000000
 51
0.000000
  7
STANDARD
  0
TEXT
  8
0
  6
CONTINUOUS
 62
4
 10
651.498402
 20
48.650078
 40
2.475000
  1
SWANSEA WEST IND PARK
 50
0.000000
 41
1.000000
 51
0.000000
  7
STANDARD
  0
TEXT
  8
0
  6
CONTINUOUS
 62
4
 10
651.517078
 20
44.988659
 40
2.475000
  1
SWANSEA.
 50
0.000000
 41
1.000000
 51
0.000000
  7
STANDARD
  0
TEXT
  8
0
  6
CONTINUOUS
 62
4
 10
651.481443
 20
38.080873
 40
2.300000
  1
TEL: (01792) 561234
 50
0.000000
 41
1.000000
 51
0.000000
  7
STANDARD
  0
TEXT
  8
0
  6
CONTINUOUS
 62
4
 10
651.498402
 20
34.324330
 40
2.300000
  1
FAX: (01792) 561016
 50
0.000000
 41
1.000000
 51
0.000000
  7
STANDARD
  0
TEXT
  8
0
  6
CONTINUOUS
 62
5
 10
651.490386
 20
56.703235
 40
3.000000
  1
MONO EQUIPMENT
 50
0.000000
 41
1.000000
 51
0.000000
  7
STANDARD
  0
TEXT
  8
0
  6
CONTINUOUS
 62
4
 10
651.517078
 20
52.286738
 40
2.475000
  1
QUEENSWAY
 50
0.000000
 41
1.000000
 51
0.000000
  7
STANDARD
  0
TEXT
  8
0
  6
CONTINUOUS
 62
3
 10
701.350188
 20
58.593282
 40
2.500000
  1
TITLE:
 50
0.000000
 41
1.000000
 51
0.000000
  7
STANDARD
  0
TEXT
  8
0
  6
CONTINUOUS
 62
3
 10
681.570971
 20
7.556337
 40
2.500000
  1
DRAWING
 50
0.000000
 41
1.000000
 51
0.000000
  7
STANDARD
  0
TEXT
  8
0
  6
CONTINUOUS
 62
3
 10
681.570971
 20
2.802509
 40
2.500000
  1
SIZE
 50
0.000000
 41
1.000000
 51
0.000000
  7
STANDARD
  0
TEXT
  8
0
  6
CONTINUOUS
 62
3
 10
691.816292
 20
2.802509
 40
3.250000
  1
A1
 50
0.000000
 41
1.000000
 51
0.000000
  7
STANDARD
  0
LINE
  8
0
  6
CONTINUOUS
 62
1
 10
680.669383
 20
0.293588
 11
680.669383
 21
11.293588
  0
TEXT
  8
0
  6
CONTINUOUS
 62
4
 10
651.498402
 20
41.547751
 40
2.475000
  1
SA5 4EB.
 50
0.000000
 41
1.000000
 51
0.000000
  7
STANDARD
  0
INSERT
  2
MONO-LOGO
  8
0
 10
637.541247
 20
48.776781
 41
0.500000
 42
0.500000
 50
0.000000
  0
ENDBLK
  0
BLOCK
  2
MONO-LOGO
  8
0
 70
0
 10
0.0
 20
0.0
 30
0.0
  0
LINE
  8
0
  6
CONTINUOUS
 62
2
 10
-19.875000
 20
-11.812500
 11
19.875000
 21
-11.812500
  0
LINE
  8
0
  6
CONTINUOUS
 62
2
 10
19.875000
 20
-11.812500
 11
19.875000
 21
-9.562500
  0
LINE
  8
0
  6
CONTINUOUS
 62
2
 10
-19.875000
 20
-9.562500
 11
-19.875000
 21
-11.812500
  0
LINE
  8
0
  6
CONTINUOUS
 62
2
 10
-19.875000
 20
-9.562500
 11
-19.875000
 21
-0.562500
  0
LINE
  8
0
  6
CONTINUOUS
 62
2
 10
19.875000
 20
-4.312500
 11
19.875000
 21
-5.812500
  0
LINE
  8
0
  6
CONTINUOUS
 62
2
 10
-19.875000
 20
1.687500
 11
19.875000
 21
1.687500
  0
LINE
  8
0
  6
CONTINUOUS
 62
2
 10
19.875000
 20
1.687500
 11
19.875000
 21
3.562500
  0
LINE
  8
0
  6
CONTINUOUS
 62
2
 10
19.875000
 20
3.562500
 11
-19.875000
 21
3.562500
  0
LINE
  8
0
  6
CONTINUOUS
 62
2
 10
-19.875000
 20
3.562500
 11
-19.875000
 21
1.687500
  0
LINE
  8
0
  6
CONTINUOUS
 62
2
 10
-19.875000
 20
5.812500
 11
19.875000
 21
5.812500
  0
LINE
  8
0
  6
CONTINUOUS
 62
2
 10
19.875000
 20
5.812500
 11
19.875000
 21
7.312500
  0
LINE
  8
0
  6
CONTINUOUS
 62
2
 10
19.875000
 20
7.312500
 11
-19.875000
 21
7.312500
  0
LINE
  8
0
  6
CONTINUOUS
 62
2
 10
-19.875000
 20
7.312500
 11
-19.875000
 21
5.812500
  0
LINE
  8
0
  6
CONTINUOUS
 62
2
 10
-19.875000
 20
9.562500
 11
19.875000
 21
9.562500
  0
LINE
  8
0
  6
CONTINUOUS
 62
2
 10
19.875000
 20
9.562500
 11
19.875000
 21
10.687500
  0
LINE
  8
0
  6
CONTINUOUS
 62
2
 10
19.875000
 20
10.687500
 11
-19.875000
 21
10.687500
  0
LINE
  8
0
  6
CONTINUOUS
 62
2
 10
-19.875000
 20
10.687500
 11
-19.875000
 21
9.562500
  0
LINE
  8
0
  6
CONTINUOUS
 62
2
 10
-19.875000
 20
12.937500
 11
19.875000
 21
12.937500
  0
LINE
  8
0
  6
CONTINUOUS
 62
2
 10
19.875000
 20
12.937500
 11
19.875000
 21
13.687500
  0
LINE
  8
0
  6
CONTINUOUS
 62
2
 10
19.875000
 20
13.687500
 11
-19.875000
 21
13.687500
  0
LINE
  8
0
  6
CONTINUOUS
 62
2
 10
-19.875000
 20
13.687500
 11
-19.875000
 21
12.937500
  0
LINE
  8
0
  6
CONTINUOUS
 62
2
 10
-19.875000
 20
15.937500
 11
19.875000
 21
15.937500
  0
LINE
  8
0
  6
CONTINUOUS
 62
2
 10
19.875000
 20
15.937500
 11
19.875000
 21
16.312500
  0
LINE
  8
0
  6
CONTINUOUS
 62
2
 10
19.875000
 20
16.312500
 11
-19.875000
 21
16.312500
  0
LINE
  8
0
  6
CONTINUOUS
 62
2
 10
-19.875000
 20
16.312500
 11
-19.875000
 21
15.937500
  0
LINE
  8
0
  6
CONTINUOUS
 62
2
 10
-10.125000
 20
-0.562500
 11
-10.125000
 21
-9.562500
  0
LINE
  8
0
  6
CONTINUOUS
 62
2
 10
10.125000
 20
-5.812500
 11
10.125000
 21
-4.312500
  0
LINE
  8
0
  6
CONTINUOUS
 62
2
 10
17.250000
 20
-5.437500
 11
17.250000
 21
-4.687500
  0
LINE
  8
0
  6
CONTINUOUS
 62
2
 10
12.750000
 20
-4.687500
 11
12.750000
 21
-5.437500
  0
ARC
  8
0
  6
CONTINUOUS
 62
2
 10
15.000000
 20
-4.687500
 40
2.250000
 50
0.000000
 51
90.000000
  0
ARC
  8
0
  6
CONTINUOUS
 62
2
 10
15.000000
 20
-4.687500
 40
2.250000
 50
90.000000
 51
180.000000
  0
ARC
  8
0
  6
CONTINUOUS
 62
2
 10
15.000000
 20
-5.437500
 40
2.250000
 50
180.000000
 51
270.000000
  0
ARC
  8
0
  6
CONTINUOUS
 62
2
 10
15.000000
 20
-5.437500
 40
2.250000
 50
270.000000
 51
0.000000
  0
LINE
  8
0
  6
CONTINUOUS
 62
2
 10
13.875000
 20
-0.562500
 11
16.125000
 21
-0.562500
  0
ARC
  8
0
  6
CONTINUOUS
 62
2
 10
16.125000
 20
-4.312500
 40
3.750000
 50
0.000000
 51
90.000000
  0
ARC
  8
0
  6
CONTINUOUS
 62
2
 10
16.125000
 20
-5.812500
 40
3.750000
 50
270.000000
 51
0.000000
  0
ARC
  8
0
  6
CONTINUOUS
 62
2
 10
13.875000
 20
-5.812500
 40
3.750000
 50
180.000000
 51
270.000000
  0
ARC
  8
0
  6
CONTINUOUS
 62
2
 10
13.875000
 20
-4.312500
 40
3.750000
 50
90.000000
 51
180.000000
  0
LINE
  8
0
  6
CONTINUOUS
 62
2
 10
0.208130
 20
-4.293740
 11
0.208130
 21
-5.793740
  0
LINE
  8
0
  6
CONTINUOUS
 62
2
 10
-9.541870
 20
-5.793740
 11
-9.541870
 21
-4.293740
  0
LINE
  8
0
  6
CONTINUOUS
 62
2
 10
-2.416870
 20
-5.418740
 11
-2.416870
 21
-4.668740
  0
LINE
  8
0
  6
CONTINUOUS
 62
2
 10
-6.916870
 20
-4.668740
 11
-6.916870
 21
-5.418740
  0
ARC
  8
0
  6
CONTINUOUS
 62
2
 10
-4.666870
 20
-4.668740
 40
2.250000
 50
0.000000
 51
90.000000
  0
ARC
  8
0
  6
CONTINUOUS
 62
2
 10
-4.666870
 20
-4.668740
 40
2.250000
 50
90.000000
 51
180.000000
  0
ARC
  8
0
  6
CONTINUOUS
 62
2
 10
-4.666870
 20
-5.418740
 40
2.250000
 50
180.000000
 51
270.000000
  0
ARC
  8
0
  6
CONTINUOUS
 62
2
 10
-4.666870
 20
-5.418740
 40
2.250000
 50
270.000000
 51
0.000000
  0
LINE
  8
0
  6
CONTINUOUS
 62
2
 10
-5.791870
 20
-0.543740
 11
-3.541870
 21
-0.543740
  0
ARC
  8
0
  6
CONTINUOUS
 62
2
 10
-3.541870
 20
-4.293740
 40
3.750000
 50
0.000000
 51
90.000000
  0
ARC
  8
0
  6
CONTINUOUS
 62
2
 10
-3.541870
 20
-5.793740
 40
3.750000
 50
270.000000
 51
0.000000
  0
ARC
  8
0
  6
CONTINUOUS
 62
2
 10
-5.791870
 20
-5.793740
 40
3.750000
 50
180.000000
 51
270.000000
  0
LINE
  8
0
  6
CONTINUOUS
 62
2
 10
0.900000
 20
-0.562500
 11
0.900000
 21
-9.562500
  0
LINE
  8
0
  6
CONTINUOUS
 62
2
 10
9.525000
 20
-9.562500
 11
9.525000
 21
-0.562500
  0
LINE
  8
0
  6
CONTINUOUS
 62
2
 10
-17.625000
 20
-3.937500
 11
-17.625000
 21
-9.562500
  0
LINE
  8
0
  6
CONTINUOUS
 62
2
 10
-17.625000
 20
-3.937500
 11
-15.750000
 21
-9.562500
  0
LINE
  8
0
  6
CONTINUOUS
 62
2
 10
-12.375000
 20
-9.562500
 11
-12.375000
 21
-3.937500
  0
LINE
  8
0
  6
CONTINUOUS
 62
2
 10
-14.250000
 20
-9.562500
 11
-12.375000
 21
-3.937500
  0
LINE
  8
0
  6
CONTINUOUS
 62
2
 10
-13.875000
 20
-0.562500
 11
-15.000000
 21
-3.937500
  0
LINE
  8
0
  6
CONTINUOUS
 62
2
 10
-15.000000
 20
-3.937500
 11
-16.125000
 21
-0.562500
  0
LINE
  8
0
  6
CONTINUOUS
 62
2
 10
-10.125000
 20
-0.562500
 11
-13.875000
 21
-0.562500
  0
LINE
  8
0
  6
CONTINUOUS
 62
2
 10
-16.125000
 20
-0.562500
 11
-19.875000
 21
-0.562500
  0
LINE
  8
0
  6
CONTINUOUS
 62
2
 10
-15.750000
 20
-9.562500
 11
-17.625000
 21
-9.562500
  0
LINE
  8
0
  6
CONTINUOUS
 62
2
 10
19.875000
 20
-9.562500
 11
16.125000
 21
-9.562500
  0
LINE
  8
0
  6
CONTINUOUS
 62
2
 10
3.525000
 20
-9.562500
 11
3.525000
 21
-4.687500
  0
LINE
  8
0
  6
CONTINUOUS
 62
2
 10
6.900000
 20
-0.562500
 11
6.900000
 21
-5.437500
  0
LINE
  8
0
  6
CONTINUOUS
 62
2
 10
3.525000
 20
-0.562500
 11
6.900000
 21
-5.437500
  0
LINE
  8
0
  6
CONTINUOUS
 62
2
 10
6.900000
 20
-9.562500
 11
3.525000
 21
-4.687500
  0
LINE
  8
0
  6
CONTINUOUS
 62
2
 10
0.900000
 20
-0.562500
 11
3.525000
 21
-0.562500
  0
LINE
  8
0
  6
CONTINUOUS
 62
2
 10
6.900000
 20
-0.562500
 11
9.525000
 21
-0.562500
  0
LINE
  8
0
  6
CONTINUOUS
 62
2
 10
-3.541870
 20
-9.543740
 11
0.900000
 21
-9.562500
  0
LINE
  8
0
  6
CONTINUOUS
 62
2
 10
3.525000
 20
-9.562500
 11
6.900000
 21
-9.562500
  0
LINE
  8
0
  6
CONTINUOUS
 62
2
 10
9.525000
 20
-9.562500
 11
13.875000
 21
-9.562500
  0
LINE
  8
0
  6
CONTINUOUS
 62
2
 10
-5.791870
 20
-9.562500
 11
-10.125000
 21
-9.562500
  0
LINE
  8
0
  6
CONTINUOUS
 62
2
 10
-12.375000
 20
-9.562500
 11
-14.250000
 21
-9.562500
  0
ARC
  8
0
  6
CONTINUOUS
 62
2
 10
-5.791870
 20
-4.293740
 40
3.750000
 50
90.000000
 51
180.000000
  0
LINE
  8
0
  6
CONTINUOUS
 62
2
 10
-5.791870
 20
-9.543740
 11
-5.791870
 21
-9.562500
  0
LINE
  8
0
  6
CONTINUOUS
 62
2
 10
-19.875000
 20
-11.756886
 11
19.875000
 21
-11.756886
  0
LINE
  8
0
  6
CONTINUOUS
 62
2
 10
-19.875000
 20
-11.456886
 11
19.875000
 21
-11.456886
  0
LINE
  8
0
  6
CONTINUOUS
 62
2
 10
-19.875000
 20
-11.156886
 11
19.875000
 21
-11.156886
  0
LINE
  8
0
  6
CONTINUOUS
 62
2
 10
-19.875000
 20
-10.856886
 11
19.875000
 21
-10.856886
  0
LINE
  8
0
  6
CONTINUOUS
 62
2
 10
-19.875000
 20
-10.556886
 11
19.875000
 21
-10.556886
  0
LINE
  8
0
  6
CONTINUOUS
 62
2
 10
-19.875000
 20
-10.256886
 11
19.875000
 21
-10.256886
  0
LINE
  8
0
  6
CONTINUOUS
 62
2
 10
-19.875000
 20
-9.956886
 11
19.875000
 21
-9.956886
  0
LINE
  8
0
  6
CONTINUOUS
 62
2
 10
-19.875000
 20
-9.656886
 11
19.875000
 21
-9.656886
  0
LINE
  8
0
  6
CONTINUOUS
 62
2
 10
-19.875000
 20
-9.356886
 11
-17.625000
 21
-9.356886
  0
LINE
  8
0
  6
CONTINUOUS
 62
2
 10
-15.818538
 20
-9.356886
 11
-14.181462
 21
-9.356886
  0
LINE
  8
0
  6
CONTINUOUS
 62
2
 10
-12.375000
 20
-9.356886
 11
-10.125000
 21
-9.356886
  0
LINE
  8
0
  6
CONTINUOUS
 62
2
 10
-6.960842
 20
-9.356886
 11
-2.372899
 21
-9.356886
  0
LINE
  8
0
  6
CONTINUOUS
 62
2
 10
0.900000
 20
-9.356886
 11
3.525000
 21
-9.356886
  0
LINE
  8
0
  6
CONTINUOUS
 62
2
 10
6.757652
 20
-9.356886
 11
9.525000
 21
-9.356886
  0
LINE
  8
0
  6
CONTINUOUS
 62
2
 10
12.650325
 20
-9.356886
 11
17.349675
 21
-9.356886
  0
LINE
  8
0
  6
CONTINUOUS
 62
2
 10
-19.875000
 20
-9.056886
 11
-17.625000
 21
-9.056886
  0
LINE
  8
0
  6
CONTINUOUS
 62
2
 10
-15.918538
 20
-9.056886
 11
-14.081462
 21
-9.056886
  0
LINE
  8
0
  6
CONTINUOUS
 62
2
 10
-12.375000
 20
-9.056886
 11
-10.125000
 21
-9.056886
  0
LINE
  8
0
  6
CONTINUOUS
 62
2
 10
-7.639675
 20
-9.056886
 11
-1.694066
 21
-9.056886
  0
LINE
  8
0
  6
CONTINUOUS
 62
2
 10
0.900000
 20
-9.056886
 11
3.525000
 21
-9.056886
  0
LINE
  8
0
  6
CONTINUOUS
 62
2
 10
6.549959
 20
-9.056886
 11
9.525000
 21
-9.056886
  0
LINE
  8
0
  6
CONTINUOUS
 62
2
 10
11.994452
 20
-9.056886
 11
18.005548
 21
-9.056886
  0
LINE
  8
0
  6
CONTINUOUS
 62
2
 10
-19.875000
 20
-8.756886
 11
-17.625000
 21
-8.756886
  0
LINE
  8
0
  6
CONTINUOUS
 62
2
 10
-16.018538
 20
-8.756886
 11
-13.981462
 21
-8.756886
  0
LINE
  8
0
  6
CONTINUOUS
 62
2
 10
-12.375000
 20
-8.756886
 11
-10.125000
 21
-8.756886
  0
LINE
  8
0
  6
CONTINUOUS
 62
2
 10
-8.090189
 20
-8.756886
 11
-1.243552
 21
-8.756886
  0
LINE
  8
0
  6
CONTINUOUS
 62
2
 10
0.900000
 20
-8.756886
 11
3.525000
 21
-8.756886
  0
LINE
  8
0
  6
CONTINUOUS
 62
2
 10
6.342267
 20
-8.756886
 11
9.525000
 21
-8.756886
  0
LINE
  8
0
  6
CONTINUOUS
 62
2
 10
11.552697
 20
-8.756886
 11
18.447303
 21
-8.756886
  0
LINE
  8
0
  6
CONTINUOUS
 62
2
 10
-19.875000
 20
-8.456886
 11
-17.625000
 21
-8.456886
  0
LINE
  8
0
  6
CONTINUOUS
 62
2
 10
-16.118538
 20
-8.456886
 11
-13.881462
 21
-8.456886
  0
LINE
  8
0
  6
CONTINUOUS
 62
2
 10
-12.375000
 20
-8.456886
 11
-10.125000
 21
-8.456886
  0
LINE
  8
0
  6
CONTINUOUS
 62
2
 10
-8.431976
 20
-8.456886
 11
-0.901765
 21
-8.456886
  0
LINE
  8
0
  6
CONTINUOUS
 62
2
 10
0.900000
 20
-8.456886
 11
3.525000
 21
-8.456886
  0
LINE
  8
0
  6
CONTINUOUS
 62
2
 10
6.134575
 20
-8.456886
 11
9.525000
 21
-8.456886
  0
LINE
  8
0
  6
CONTINUOUS
 62
2
 10
11.216105
 20
-8.456886
 11
18.783895
 21
-8.456886
  0
LINE
  8
0
  6
CONTINUOUS
 62
2
 10
-19.875000
 20
-8.156886
 11
-17.625000
 21
-8.156886
  0
LINE
  8
0
  6
CONTINUOUS
 62
2
 10
-16.218538
 20
-8.156886
 11
-13.781462
 21
-8.156886
  0
LINE
  8
0
  6
CONTINUOUS
 62
2
 10
-12.375000
 20
-8.156886
 11
-10.125000
 21
-8.156886
  0
LINE
  8
0
  6
CONTINUOUS
 62
2
 10
-8.703578
 20
-8.156886
 11
-0.630162
 21
-8.156886
  0
LINE
  8
0
  6
CONTINUOUS
 62
2
 10
0.900000
 20
-8.156886
 11
3.525000
 21
-8.156886
  0
LINE
  8
0
  6
CONTINUOUS
 62
2
 10
5.926882
 20
-8.156886
 11
9.525000
 21
-8.156886
  0
LINE
  8
0
  6
CONTINUOUS
 62
2
 10
10.948166
 20
-8.156886
 11
19.051834
 21
-8.156886
  0
LINE
  8
0
  6
CONTINUOUS
 62
2
 10
-19.875000
 20
-7.856886
 11
-17.625000
 21
-7.856886
  0
LINE
  8
0
  6
CONTINUOUS
 62
2
 10
-16.318538
 20
-7.856886
 11
-13.681462
 21
-7.856886
  0
LINE
  8
0
  6
CONTINUOUS
 62
2
 10
-12.375000
 20
-7.856886
 11
-10.125000
 21
-7.856886
  0
LINE
  8
0
  6
CONTINUOUS
 62
2
 10
-8.923313
 20
-7.856886
 11
-0.410428
 21
-7.856886
  0
LINE
  8
0
  6
CONTINUOUS
 62
2
 10
0.900000
 20
-7.856886
 11
3.525000
 21
-7.856886
  0
LINE
  8
0
  6
CONTINUOUS
 62
2
 10
5.719190
 20
-7.856886
 11
9.525000
 21
-7.856886
  0
LINE
  8
0
  6
CONTINUOUS
 62
2
 10
10.731278
 20
-7.856886
 11
19.268722
 21
-7.856886
  0
LINE
  8
0
  6
CONTINUOUS
 62
2
 10
-19.875000
 20
-7.556886
 11
-17.625000
 21
-7.556886
  0
LINE
  8
0
  6
CONTINUOUS
 62
2
 10
-16.418538
 20
-7.556886
 11
-13.581462
 21
-7.556886
  0
LINE
  8
0
  6
CONTINUOUS
 62
2
 10
-12.375000
 20
-7.556886
 11
-10.125000
 21
-7.556886
  0
LINE
  8
0
  6
CONTINUOUS
 62
2
 10
-9.101526
 20
-7.556886
 11
-5.367466
 21
-7.556886
  0
LINE
  8
0
  6
CONTINUOUS
 62
2
 10
-3.966275
 20
-7.556886
 11
-0.232215
 21
-7.556886
  0
LINE
  8
0
  6
CONTINUOUS
 62
2
 10
0.900000
 20
-7.556886
 11
3.525000
 21
-7.556886
  0
LINE
  8
0
  6
CONTINUOUS
 62
2
 10
5.511498
 20
-7.556886
 11
9.525000
 21
-7.556886
  0
LINE
  8
0
  6
CONTINUOUS
 62
2
 10
10.555419
 20
-7.556886
 11
14.244551
 21
-7.556886
  0
LINE
  8
0
  6
CONTINUOUS
 62
2
 10
15.755449
 20
-7.556886
 11
19.444581
 21
-7.556886
  0
LINE
  8
0
  6
CONTINUOUS
 62
2
 10
-19.875000
 20
-7.256886
 11
-17.625000
 21
-7.256886
  0
LINE
  8
0
  6
CONTINUOUS
 62
2
 10
-16.518538
 20
-7.256886
 11
-13.481462
 21
-7.256886
  0
LINE
  8
0
  6
CONTINUOUS
 62
2
 10
-12.375000
 20
-7.256886
 11
-10.125000
 21
-7.256886
  0
LINE
  8
0
  6
CONTINUOUS
 62
2
 10
-9.244653
 20
-7.256886
 11
-5.964453
 21
-7.256886
  0
LINE
  8
0
  6
CONTINUOUS
 62
2
 10
-3.369288
 20
-7.256886
 11
-0.089088
 21
-7.256886
  0
LINE
  8
0
  6
CONTINUOUS
 62
2
 10
0.900000
 20
-7.256886
 11
3.525000
 21
-7.256886
  0
LINE
  8
0
  6
CONTINUOUS
 62
2
 10
5.303806
 20
-7.256886
 11
9.525000
 21
-7.256886
  0
LINE
  8
0
  6
CONTINUOUS
 62
2
 10
10.414328
 20
-7.256886
 11
13.676242
 21
-7.256886
  0
LINE
  8
0
  6
CONTINUOUS
 62
2
 10
16.323758
 20
-7.256886
 11
19.585672
 21
-7.256886
  0
LINE
  8
0
  6
CONTINUOUS
 62
2
 10
-19.875000
 20
-6.956886
 11
-17.625000
 21
-6.956886
  0
LINE
  8
0
  6
CONTINUOUS
 62
2
 10
-16.618538
 20
-6.956886
 11
-13.381462
 21
-6.956886
  0
LINE
  8
0
  6
CONTINUOUS
 62
2
 10
-12.375000
 20
-6.956886
 11
-10.125000
 21
-6.956886
  0
LINE
  8
0
  6
CONTINUOUS
 62
2
 10
-9.356922
 20
-6.956886
 11
-6.309006
 21
-6.956886
  0
LINE
  8
0
  6
CONTINUOUS
 62
2
 10
-3.024735
 20
-6.956886
 11
0.023181
 21
-6.956886
  0
LINE
  8
0
  6
CONTINUOUS
 62
2
 10
0.900000
 20
-6.956886
 11
3.525000
 21
-6.956886
  0
LINE
  8
0
  6
CONTINUOUS
 62
2
 10
5.096113
 20
-6.956886
 11
9.525000
 21
-6.956886
  0
LINE
  8
0
  6
CONTINUOUS
 62
2
 10
10.303882
 20
-6.956886
 11
13.340492
 21
-6.956886
  0
LINE
  8
0
  6
CONTINUOUS
 62
2
 10
16.659508
 20
-6.956886
 11
19.696118
 21
-6.956886
  0
LINE
  8
0
  6
CONTINUOUS
 62
2
 10
-19.875000
 20
-6.656886
 11
-17.625000
 21
-6.656886
  0
LINE
  8
0
  6
CONTINUOUS
 62
2
 10
-16.718538
 20
-6.656886
 11
-13.281462
 21
-6.656886
  0
LINE
  8
0
  6
CONTINUOUS
 62
2
 10
-12.375000
 20
-6.656886
 11
-10.125000
 21
-6.656886
  0
LINE
  8
0
  6
CONTINUOUS
 62
2
 10
-9.441183
 20
-6.656886
 11
-6.545566
 21
-6.656886
  0
LINE
  8
0
  6
CONTINUOUS
 62
2
 10
-2.788175
 20
-6.656886
 11
0.107442
 21
-6.656886
  0
LINE
  8
0
  6
CONTINUOUS
 62
2
 10
0.900000
 20
-6.656886
 11
3.525000
 21
-6.656886
  0
LINE
  8
0
  6
CONTINUOUS
 62
2
 10
4.888421
 20
-6.656886
 11
9.525000
 21
-6.656886
  0
LINE
  8
0
  6
CONTINUOUS
 62
2
 10
10.221302
 20
-6.656886
 11
13.109075
 21
-6.656886
  0
LINE
  8
0
  6
CONTINUOUS
 62
2
 10
16.890925
 20
-6.656886
 11
19.778698
 21
-6.656886
  0
LINE
  8
0
  6
CONTINUOUS
 62
2
 10
-19.875000
 20
-6.356886
 11
-17.625000
 21
-6.356886
  0
LINE
  8
0
  6
CONTINUOUS
 62
2
 10
-16.818538
 20
-6.356886
 11
-13.181462
 21
-6.356886
  0
LINE
  8
0
  6
CONTINUOUS
 62
2
 10
-12.375000
 20
-6.356886
 11
-10.125000
 21
-6.356886
  0
LINE
  8
0
  6
CONTINUOUS
 62
2
 10
-9.499345
 20
-6.356886
 11
-6.711958
 21
-6.356886
  0
LINE
  8
0
  6
CONTINUOUS
 62
2
 10
-2.621783
 20
-6.356886
 11
0.165604
 21
-6.356886
  0
LINE
  8
0
  6
CONTINUOUS
 62
2
 10
0.900000
 20
-6.356886
 11
3.525000
 21
-6.356886
  0
LINE
  8
0
  6
CONTINUOUS
 62
2
 10
4.680729
 20
-6.356886
 11
9.525000
 21
-6.356886
  0
LINE
  8
0
  6
CONTINUOUS
 62
2
 10
10.164725
 20
-6.356886
 11
12.946411
 21
-6.356886
  0
LINE
  8
0
  6
CONTINUOUS
 62
2
 10
17.053589
 20
-6.356886
 11
19.835275
 21
-6.356886
  0
LINE
  8
0
  6
CONTINUOUS
 62
2
 10
-19.875000
 20
-6.056886
 11
-17.625000
 21
-6.056886
  0
LINE
  8
0
  6
CONTINUOUS
 62
2
 10
-16.918538
 20
-6.056886
 11
-13.081462
 21
-6.056886
  0
LINE
  8
0
  6
CONTINUOUS
 62
2
 10
-12.375000
 20
-6.056886
 11
-10.125000
 21
-6.056886
  0
LINE
  8
0
  6
CONTINUOUS
 62
2
 10
-9.532626
 20
-6.056886
 11
-6.824478
 21
-6.056886
  0
LINE
  8
0
  6
CONTINUOUS
 62
2
 10
-2.509263
 20
-6.056886
 11
0.198885
 21
-6.056886
  0
LINE
  8
0
  6
CONTINUOUS
 62
2
 10
0.900000
 20
-6.056886
 11
3.525000
 21
-6.056886
  0
LINE
  8
0
  6
CONTINUOUS
 62
2
 10
4.473036
 20
-6.056886
 11
9.525000
 21
-6.056886
  0
LINE
  8
0
  6
CONTINUOUS
 62
2
 10
10.132972
 20
-6.056886
 11
12.836932
 21
-6.056886
  0
LINE
  8
0
  6
CONTINUOUS
 62
2
 10
17.163068
 20
-6.056886
 11
19.867028
 21
-6.056886
  0
LINE
  8
0
  6
CONTINUOUS
 62
2
 10
-19.875000
 20
-5.756886
 11
-17.625000
 21
-5.756886
  0
LINE
  8
0
  6
CONTINUOUS
 62
2
 10
-17.018538
 20
-5.756886
 11
-12.981462
 21
-5.756886
  0
LINE
  8
0
  6
CONTINUOUS
 62
2
 10
-12.375000
 20
-5.756886
 11
-10.125000
 21
-5.756886
  0
LINE
  8
0
  6
CONTINUOUS
 62
2
 10
-9.541870
 20
-5.756886
 11
-6.891316
 21
-5.756886
  0
LINE
  8
0
  6
CONTINUOUS
 62
2
 10
-2.442425
 20
-5.756886
 11
0.208130
 21
-5.756886
  0
LINE
  8
0
  6
CONTINUOUS
 62
2
 10
0.900000
 20
-5.756886
 11
3.525000
 21
-5.756886
  0
LINE
  8
0
  6
CONTINUOUS
 62
2
 10
4.265344
 20
-5.756886
 11
9.525000
 21
-5.756886
  0
LINE
  8
0
  6
CONTINUOUS
 62
2
 10
10.125000
 20
-5.756886
 11
12.772784
 21
-5.756886
  0
LINE
  8
0
  6
CONTINUOUS
 62
2
 10
17.227216
 20
-5.756886
 11
19.875000
 21
-5.756886
  0
LINE
  8
0
  6
CONTINUOUS
 62
2
 10
-19.875000
 20
-5.456886
 11
-17.625000
 21
-5.456886
  0
LINE
  8
0
  6
CONTINUOUS
 62
2
 10
-17.118538
 20
-5.456886
 11
-12.881462
 21
-5.456886
  0
LINE
  8
0
  6
CONTINUOUS
 62
2
 10
-12.375000
 20
-5.456886
 11
-10.125000
 21
-5.456886
  0
LINE
  8
0
  6
CONTINUOUS
 62
2
 10
-9.541870
 20
-5.456886
 11
-6.916547
 21
-5.456886
  0
LINE
  8
0
  6
CONTINUOUS
 62
2
 10
-2.417194
 20
-5.456886
 11
0.208130
 21
-5.456886
  0
LINE
  8
0
  6
CONTINUOUS
 62
2
 10
0.900000
 20
-5.456886
 11
3.525000
 21
-5.456886
  0
LINE
  8
0
  6
CONTINUOUS
 62
2
 10
4.057652
 20
-5.456886
 11
9.525000
 21
-5.456886
  0
LINE
  8
0
  6
CONTINUOUS
 62
2
 10
10.125000
 20
-5.456886
 11
12.750084
 21
-5.456886
  0
LINE
  8
0
  6
CONTINUOUS
 62
2
 10
17.249916
 20
-5.456886
 11
19.875000
 21
-5.456886
  0
LINE
  8
0
  6
CONTINUOUS
 62
2
 10
-19.875000
 20
-5.156886
 11
-17.625000
 21
-5.156886
  0
LINE
  8
0
  6
CONTINUOUS
 62
2
 10
-17.218538
 20
-5.156886
 11
-12.781462
 21
-5.156886
  0
LINE
  8
0
  6
CONTINUOUS
 62
2
 10
-12.375000
 20
-5.156886
 11
-10.125000
 21
-5.156886
  0
LINE
  8
0
  6
CONTINUOUS
 62
2
 10
-9.541870
 20
-5.156886
 11
-6.916870
 21
-5.156886
  0
LINE
  8
0
  6
CONTINUOUS
 62
2
 10
-2.416870
 20
-5.156886
 11
0.208130
 21
-5.156886
  0
LINE
  8
0
  6
CONTINUOUS
 62
2
 10
0.900000
 20
-5.156886
 11
3.525000
 21
-5.156886
  0
LINE
  8
0
  6
CONTINUOUS
 62
2
 10
3.849959
 20
-5.156886
 11
6.705729
 21
-5.156886
  0
LINE
  8
0
  6
CONTINUOUS
 62
2
 10
6.900000
 20
-5.156886
 11
9.525000
 21
-5.156886
  0
LINE
  8
0
  6
CONTINUOUS
 62
2
 10
10.125000
 20
-5.156886
 11
12.750000
 21
-5.156886
  0
LINE
  8
0
  6
CONTINUOUS
 62
2
 10
17.250000
 20
-5.156886
 11
19.875000
 21
-5.156886
  0
LINE
  8
0
  6
CONTINUOUS
 62
2
 10
-19.875000
 20
-4.856886
 11
-17.625000
 21
-4.856886
  0
LINE
  8
0
  6
CONTINUOUS
 62
2
 10
-17.318538
 20
-4.856886
 11
-12.681462
 21
-4.856886
  0
LINE
  8
0
  6
CONTINUOUS
 62
2
 10
-12.375000
 20
-4.856886
 11
-10.125000
 21
-4.856886
  0
LINE
  8
0
  6
CONTINUOUS
 62
2
 10
-9.541870
 20
-4.856886
 11
-6.916870
 21
-4.856886
  0
LINE
  8
0
  6
CONTINUOUS
 62
2
 10
-2.416870
 20
-4.856886
 11
0.208130
 21
-4.856886
  0
LINE
  8
0
  6
CONTINUOUS
 62
2
 10
0.900000
 20
-4.856886
 11
3.525000
 21
-4.856886
  0
LINE
  8
0
  6
CONTINUOUS
 62
2
 10
3.642267
 20
-4.856886
 11
6.498036
 21
-4.856886
  0
LINE
  8
0
  6
CONTINUOUS
 62
2
 10
6.900000
 20
-4.856886
 11
9.525000
 21
-4.856886
  0
LINE
  8
0
  6
CONTINUOUS
 62
2
 10
10.125000
 20
-4.856886
 11
12.750000
 21
-4.856886
  0
LINE
  8
0
  6
CONTINUOUS
 62
2
 10
17.250000
 20
-4.856886
 11
19.875000
 21
-4.856886
  0
LINE
  8
0
  6
CONTINUOUS
 62
2
 10
-19.875000
 20
-4.556886
 11
-17.625000
 21
-4.556886
  0
LINE
  8
0
  6
CONTINUOUS
 62
2
 10
-17.418538
 20
-4.556886
 11
-12.581462
 21
-4.556886
  0
LINE
  8
0
  6
CONTINUOUS
 62
2
 10
-12.375000
 20
-4.556886
 11
-10.125000
 21
-4.556886
  0
LINE
  8
0
  6
CONTINUOUS
 62
2
 10
-9.541870
 20
-4.556886
 11
-6.914088
 21
-4.556886
  0
LINE
  8
0
  6
CONTINUOUS
 62
2
 10
-2.419652
 20
-4.556886
 11
0.208130
 21
-4.556886
  0
LINE
  8
0
  6
CONTINUOUS
 62
2
 10
0.900000
 20
-4.556886
 11
6.290344
 21
-4.556886
  0
LINE
  8
0
  6
CONTINUOUS
 62
2
 10
6.900000
 20
-4.556886
 11
9.525000
 21
-4.556886
  0
LINE
  8
0
  6
CONTINUOUS
 62
2
 10
10.125000
 20
-4.556886
 11
12.753794
 21
-4.556886
  0
LINE
  8
0
  6
CONTINUOUS
 62
2
 10
17.246206
 20
-4.556886
 11
19.875000
 21
-4.556886
  0
LINE
  8
0
  6
CONTINUOUS
 62
2
 10
-19.875000
 20
-4.256886
 11
-17.625000
 21
-4.256886
  0
LINE
  8
0
  6
CONTINUOUS
 62
2
 10
-17.518538
 20
-4.256886
 11
-12.481462
 21
-4.256886
  0
LINE
  8
0
  6
CONTINUOUS
 62
2
 10
-12.375000
 20
-4.256886
 11
-10.125000
 21
-4.256886
  0
LINE
  8
0
  6
CONTINUOUS
 62
2
 10
-9.541689
 20
-4.256886
 11
-6.878855
 21
-4.256886
  0
LINE
  8
0
  6
CONTINUOUS
 62
2
 10
-2.454886
 20
-4.256886
 11
0.207948
 21
-4.256886
  0
LINE
  8
0
  6
CONTINUOUS
 62
2
 10
0.900000
 20
-4.256886
 11
6.082652
 21
-4.256886
  0
LINE
  8
0
  6
CONTINUOUS
 62
2
 10
6.900000
 20
-4.256886
 11
9.525000
 21
-4.256886
  0
LINE
  8
0
  6
CONTINUOUS
 62
2
 10
10.125412
 20
-4.256886
 11
12.791591
 21
-4.256886
  0
LINE
  8
0
  6
CONTINUOUS
 62
2
 10
17.208409
 20
-4.256886
 11
19.874588
 21
-4.256886
  0
LINE
  8
0
  6
CONTINUOUS
 62
2
 10
-19.875000
 20
-3.956886
 11
-17.625000
 21
-3.956886
  0
LINE
  8
0
  6
CONTINUOUS
 62
2
 10
-17.618538
 20
-3.956886
 11
-12.381462
 21
-3.956886
  0
LINE
  8
0
  6
CONTINUOUS
 62
2
 10
-12.375000
 20
-3.956886
 11
-10.125000
 21
-3.956886
  0
LINE
  8
0
  6
CONTINUOUS
 62
2
 10
-9.526710
 20
-3.956886
 11
-6.801294
 21
-3.956886
  0
LINE
  8
0
  6
CONTINUOUS
 62
2
 10
-2.532447
 20
-3.956886
 11
0.192969
 21
-3.956886
  0
LINE
  8
0
  6
CONTINUOUS
 62
2
 10
0.900000
 20
-3.956886
 11
5.874959
 21
-3.956886
  0
LINE
  8
0
  6
CONTINUOUS
 62
2
 10
6.900000
 20
-3.956886
 11
9.525000
 21
-3.956886
  0
LINE
  8
0
  6
CONTINUOUS
 62
2
 10
10.141900
 20
-3.956886
 11
12.871925
 21
-3.956886
  0
LINE
  8
0
  6
CONTINUOUS
 62
2
 10
17.128075
 20
-3.956886
 11
19.858100
 21
-3.956886
  0
LINE
  8
0
  6
CONTINUOUS
 62
2
 10
-19.875000
 20
-3.656886
 11
-15.093538
 21
-3.656886
  0
LINE
  8
0
  6
CONTINUOUS
 62
2
 10
-14.906462
 20
-3.656886
 11
-10.125000
 21
-3.656886
  0
LINE
  8
0
  6
CONTINUOUS
 62
2
 10
-9.487397
 20
-3.656886
 11
-6.676510
 21
-3.656886
  0
LINE
  8
0
  6
CONTINUOUS
 62
2
 10
-2.657231
 20
-3.656886
 11
0.153656
 21
-3.656886
  0
LINE
  8
0
  6
CONTINUOUS
 62
2
 10
0.900000
 20
-3.656886
 11
5.667267
 21
-3.656886
  0
LINE
  8
0
  6
CONTINUOUS
 62
2
 10
6.900000
 20
-3.656886
 11
9.525000
 21
-3.656886
  0
LINE
  8
0
  6
CONTINUOUS
 62
2
 10
10.182755
 20
-3.656886
 11
12.999916
 21
-3.656886
  0
LINE
  8
0
  6
CONTINUOUS
 62
2
 10
17.000084
 20
-3.656886
 11
19.817245
 21
-3.656886
  0
LINE
  8
0
  6
CONTINUOUS
 62
2
 10
-19.875000
 20
-3.356886
 11
-15.193538
 21
-3.356886
  0
LINE
  8
0
  6
CONTINUOUS
 62
2
 10
-14.806462
 20
-3.356886
 11
-10.125000
 21
-3.356886
  0
LINE
  8
0
  6
CONTINUOUS
 62
2
 10
-9.422959
 20
-3.356886
 11
-6.494858
 21
-3.356886
  0
LINE
  8
0
  6
CONTINUOUS
 62
2
 10
-2.838883
 20
-3.356886
 11
0.089218
 21
-3.356886
  0
LINE
  8
0
  6
CONTINUOUS
 62
2
 10
0.900000
 20
-3.356886
 11
5.459575
 21
-3.356886
  0
LINE
  8
0
  6
CONTINUOUS
 62
2
 10
6.900000
 20
-3.356886
 11
9.525000
 21
-3.356886
  0
LINE
  8
0
  6
CONTINUOUS
 62
2
 10
10.248803
 20
-3.356886
 11
13.185622
 21
-3.356886
  0
LINE
  8
0
  6
CONTINUOUS
 62
2
 10
16.814378
 20
-3.356886
 11
19.751197
 21
-3.356886
  0
LINE
  8
0
  6
CONTINUOUS
 62
2
 10
-19.875000
 20
-3.056886
 11
-15.293538
 21
-3.056886
  0
LINE
  8
0
  6
CONTINUOUS
 62
2
 10
-14.706462
 20
-3.056886
 11
-10.125000
 21
-3.056886
  0
LINE
  8
0
  6
CONTINUOUS
 62
2
 10
-9.332025
 20
-3.056886
 11
-6.236719
 21
-3.056886
  0
LINE
  8
0
  6
CONTINUOUS
 62
2
 10
-3.097022
 20
-3.056886
 11
-0.001716
 21
-3.056886
  0
LINE
  8
0
  6
CONTINUOUS
 62
2
 10
0.900000
 20
-3.056886
 11
5.251882
 21
-3.056886
  0
LINE
  8
0
  6
CONTINUOUS
 62
2
 10
6.900000
 20
-3.056886
 11
9.525000
 21
-3.056886
  0
LINE
  8
0
  6
CONTINUOUS
 62
2
 10
10.341456
 20
-3.056886
 11
13.449646
 21
-3.056886
  0
LINE
  8
0
  6
CONTINUOUS
 62
2
 10
16.550354
 20
-3.056886
 11
19.658544
 21
-3.056886
  0
LINE
  8
0
  6
CONTINUOUS
 62
2
 10
-19.875000
 20
-2.756886
 11
-15.393538
 21
-2.756886
  0
LINE
  8
0
  6
CONTINUOUS
 62
2
 10
-14.606462
 20
-2.756886
 11
-10.125000
 21
-2.756886
  0
LINE
  8
0
  6
CONTINUOUS
 62
2
 10
-9.212481
 20
-2.756886
 11
-5.853172
 21
-2.756886
  0
LINE
  8
0
  6
CONTINUOUS
 62
2
 10
-3.480568
 20
-2.756886
 11
-0.121260
 21
-2.756886
  0
LINE
  8
0
  6
CONTINUOUS
 62
2
 10
0.900000
 20
-2.756886
 11
5.044190
 21
-2.756886
  0
LINE
  8
0
  6
CONTINUOUS
 62
2
 10
6.900000
 20
-2.756886
 11
9.525000
 21
-2.756886
  0
LINE
  8
0
  6
CONTINUOUS
 62
2
 10
10.462880
 20
-2.756886
 11
13.844479
 21
-2.756886
  0
LINE
  8
0
  6
CONTINUOUS
 62
2
 10
16.155521
 20
-2.756886
 11
19.537120
 21
-2.756886
  0
LINE
  8
0
  6
CONTINUOUS
 62
2
 10
-19.875000
 20
-2.456886
 11
-15.493538
 21
-2.456886
  0
LINE
  8
0
  6
CONTINUOUS
 62
2
 10
-14.506462
 20
-2.456886
 11
-10.125000
 21
-2.456886
  0
LINE
  8
0
  6
CONTINUOUS
 62
2
 10
-9.061192
 20
-2.456886
 11
-5.079423
 21
-2.456886
  0
LINE
  8
0
  6
CONTINUOUS
 62
2
 10
-4.254318
 20
-2.456886
 11
-0.272549
 21
-2.456886
  0
LINE
  8
0
  6
CONTINUOUS
 62
2
 10
0.900000
 20
-2.456886
 11
4.836498
 21
-2.456886
  0
LINE
  8
0
  6
CONTINUOUS
 62
2
 10
6.900000
 20
-2.456886
 11
9.525000
 21
-2.456886
  0
LINE
  8
0
  6
CONTINUOUS
 62
2
 10
10.616289
 20
-2.456886
 11
14.705279
 21
-2.456886
  0
LINE
  8
0
  6
CONTINUOUS
 62
2
 10
15.294721
 20
-2.456886
 11
19.383711
 21
-2.456886
  0
LINE
  8
0
  6
CONTINUOUS
 62
2
 10
-19.875000
 20
-2.156886
 11
-15.593538
 21
-2.156886
  0
LINE
  8
0
  6
CONTINUOUS
 62
2
 10
-14.406462
 20
-2.156886
 11
-10.125000
 21
-2.156886
  0
LINE
  8
0
  6
CONTINUOUS
 62
2
 10
-8.873486
 20
-2.156886
 11
-0.460255
 21
-2.156886
  0
LINE
  8
0
  6
CONTINUOUS
 62
2
 10
0.900000
 20
-2.156886
 11
4.628806
 21
-2.156886
  0
LINE
  8
0
  6
CONTINUOUS
 62
2
 10
6.900000
 20
-2.156886
 11
9.525000
 21
-2.156886
  0
LINE
  8
0
  6
CONTINUOUS
 62
2
 10
10.806478
 20
-2.156886
 11
19.193522
 21
-2.156886
  0
LINE
  8
0
  6
CONTINUOUS
 62
2
 10
-19.875000
 20
-1.856886
 11
-15.693538
 21
-1.856886
  0
LINE
  8
0
  6
CONTINUOUS
 62
2
 10
-14.306462
 20
-1.856886
 11
-10.125000
 21
-1.856886
  0
LINE
  8
0
  6
CONTINUOUS
 62
2
 10
-8.642176
 20
-1.856886
 11
-0.691565
 21
-1.856886
  0
LINE
  8
0
  6
CONTINUOUS
 62
2
 10
0.900000
 20
-1.856886
 11
4.421113
 21
-1.856886
  0
LINE
  8
0
  6
CONTINUOUS
 62
2
 10
6.900000
 20
-1.856886
 11
9.525000
 21
-1.856886
  0
LINE
  8
0
  6
CONTINUOUS
 62
2
 10
11.040841
 20
-1.856886
 11
18.959159
 21
-1.856886
  0
LINE
  8
0
  6
CONTINUOUS
 62
2
 10
-19.875000
 20
-1.556886
 11
-15.793538
 21
-1.556886
  0
LINE
  8
0
  6
CONTINUOUS
 62
2
 10
-14.206462
 20
-1.556886
 11
-10.125000
 21
-1.556886
  0
LINE
  8
0
  6
CONTINUOUS
 62
2
 10
-8.355487
 20
-1.556886
 11
-0.978254
 21
-1.556886
  0
LINE
  8
0
  6
CONTINUOUS
 62
2
 10
0.900000
 20
-1.556886
 11
4.213421
 21
-1.556886
  0
LINE
  8
0
  6
CONTINUOUS
 62
2
 10
6.900000
 20
-1.556886
 11
9.525000
 21
-1.556886
  0
LINE
  8
0
  6
CONTINUOUS
 62
2
 10
11.331559
 20
-1.556886
 11
18.668441
 21
-1.556886
  0
LINE
  8
0
  6
CONTINUOUS
 62
2
 10
-19.875000
 20
-1.256886
 11
-15.893538
 21
-1.256886
  0
LINE
  8
0
  6
CONTINUOUS
 62
2
 10
-14.106462
 20
-1.256886
 11
-10.125000
 21
-1.256886
  0
LINE
  8
0
  6
CONTINUOUS
 62
2
 10
-7.991874
 20
-1.256886
 11
-1.341867
 21
-1.256886
  0
LINE
  8
0
  6
CONTINUOUS
 62
2
 10
0.900000
 20
-1.256886
 11
4.005729
 21
-1.256886
  0
LINE
  8
0
  6
CONTINUOUS
 62
2
 10
6.900000
 20
-1.256886
 11
9.525000
 21
-1.256886
  0
LINE
  8
0
  6
CONTINUOUS
 62
2
 10
11.701127
 20
-1.256886
 11
18.298873
 21
-1.256886
  0
LINE
  8
0
  6
CONTINUOUS
 62
2
 10
-19.875000
 20
-0.956886
 11
-15.993538
 21
-0.956886
  0
LINE
  8
0
  6
CONTINUOUS
 62
2
 10
-14.006462
 20
-0.956886
 11
-10.125000
 21
-0.956886
  0
LINE
  8
0
  6
CONTINUOUS
 62
2
 10
-7.502982
 20
-0.956886
 11
-1.830759
 21
-0.956886
  0
LINE
  8
0
  6
CONTINUOUS
 62
2
 10
0.900000
 20
-0.956886
 11
3.798036
 21
-0.956886
  0
LINE
  8
0
  6
CONTINUOUS
 62
2
 10
6.900000
 20
-0.956886
 11
9.525000
 21
-0.956886
  0
LINE
  8
0
  6
CONTINUOUS
 62
2
 10
12.200977
 20
-0.956886
 11
17.799023
 21
-0.956886
  0
LINE
  8
0
  6
CONTINUOUS
 62
2
 10
-19.875000
 20
-0.656886
 11
-16.093538
 21
-0.656886
  0
LINE
  8
0
  6
CONTINUOUS
 62
2
 10
-13.906462
 20
-0.656886
 11
-10.125000
 21
-0.656886
  0
LINE
  8
0
  6
CONTINUOUS
 62
2
 10
-6.706086
 20
-0.656886
 11
-2.627655
 21
-0.656886
  0
LINE
  8
0
  6
CONTINUOUS
 62
2
 10
0.900000
 20
-0.656886
 11
3.590344
 21
-0.656886
  0
LINE
  8
0
  6
CONTINUOUS
 62
2
 10
6.900000
 20
-0.656886
 11
9.525000
 21
-0.656886
  0
LINE
  8
0
  6
CONTINUOUS
 62
2
 10
13.038947
 20
-0.656886
 11
16.961053
 21
-0.656886
  0
LINE
  8
0
  6
CONTINUOUS
 62
2
 10
-19.875000
 20
1.743114
 11
19.875000
 21
1.743114
  0
LINE
  8
0
  6
CONTINUOUS
 62
2
 10
-19.875000
 20
2.043114
 11
19.875000
 21
2.043114
  0
LINE
  8
0
  6
CONTINUOUS
 62
2
 10
-19.875000
 20
2.343114
 11
19.875000
 21
2.343114
  0
LINE
  8
0
  6
CONTINUOUS
 62
2
 10
-19.875000
 20
2.643114
 11
19.875000
 21
2.643114
  0
LINE
  8
0
  6
CONTINUOUS
 62
2
 10
-19.875000
 20
2.943114
 11
19.875000
 21
2.943114
  0
LINE
  8
0
  6
CONTINUOUS
 62
2
 10
-19.875000
 20
3.243114
 11
19.875000
 21
3.243114
  0
LINE
  8
0
  6
CONTINUOUS
 62
2
 10
-19.875000
 20
3.543114
 11
19.875000
 21
3.543114
  0
LINE
  8
0
  6
CONTINUOUS
 62
2
 10
-19.875000
 20
5.943114
 11
19.875000
 21
5.943114
  0
LINE
  8
0
  6
CONTINUOUS
 62
2
 10
-19.875000
 20
6.243114
 11
19.875000
 21
6.243114
  0
LINE
  8
0
  6
CONTINUOUS
 62
2
 10
-19.875000
 20
6.543114
 11
19.875000
 21
6.543114
  0
LINE
  8
0
  6
CONTINUOUS
 62
2
 10
-19.875000
 20
6.843114
 11
19.875000
 21
6.843114
  0
LINE
  8
0
  6
CONTINUOUS
 62
2
 10
-19.875000
 20
7.143114
 11
19.875000
 21
7.143114
  0
LINE
  8
0
  6
CONTINUOUS
 62
2
 10
-19.875000
 20
9.843114
 11
19.875000
 21
9.843114
  0
LINE
  8
0
  6
CONTINUOUS
 62
2
 10
-19.875000
 20
10.143114
 11
19.875000
 21
10.143114
  0
LINE
  8
0
  6
CONTINUOUS
 62
2
 10
-19.875000
 20
10.443114
 11
19.875000
 21
10.443114
  0
LINE
  8
0
  6
CONTINUOUS
 62
2
 10
-19.875000
 20
13.143114
 11
19.875000
 21
13.143114
  0
LINE
  8
0
  6
CONTINUOUS
 62
2
 10
-19.875000
 20
13.443114
 11
19.875000
 21
13.443114
  0
LINE
  8
0
  6
CONTINUOUS
 62
2
 10
-19.875000
 20
16.143114
 11
19.875000
 21
16.143114
  0
ENDBLK
  0
BLOCK
  2
*D1
  8
0
 70
1
 10
0.0
 20
0.0
  0
LINE
  8
0
  6
CONTINUOUS
 62
1
 10
3507.003621
 20
1602.721908
 11
3193.528889
 21
1602.721908
  0
LINE
  8
0
  6
CONTINUOUS
 62
1
 10
3223.528889
 20
1602.721908
 11
3223.528889
 21
4719.332144
  0
LINE
  8
0
  6
CONTINUOUS
 62
1
 10
3223.528889
 20
1602.721908
 11
3228.528889
 21
1637.721908
  0
LINE
  8
0
  6
CONTINUOUS
 62
1
 10
3228.528889
 20
1637.721908
 11
3221.028889
 21
1637.721908
  0
LINE
  8
0
  6
CONTINUOUS
 62
1
 10
3221.028889
 20
1637.721908
 11
3223.528889
 21
1617.721908
  0
LINE
  8
0
  6
CONTINUOUS
 62
1
 10
3223.528889
 20
1617.721908
 11
3226.028889
 21
1637.721908
  0
LINE
  8
0
  6
CONTINUOUS
 62
1
 10
3226.028889
 20
1637.721908
 11
3218.528889
 21
1637.721908
  0
LINE
  8
0
  6
CONTINUOUS
 62
1
 10
3218.528889
 20
1637.721908
 11
3223.528889
 21
1602.721908
  0
LINE
  8
0
  6
CONTINUOUS
 62
1
 10
3223.528889
 20
4719.332144
 11
3218.528889
 21
4684.332144
  0
LINE
  8
0
  6
CONTINUOUS
 62
1
 10
3218.528889
 20
4684.332144
 11
3226.028889
 21
4684.332144
  0
LINE
  8
0
  6
CONTINUOUS
 62
1
 10
3226.028889
 20
4684.332144
 11
3223.528889
 21
4704.332144
  0
LINE
  8
0
  6
CONTINUOUS
 62
1
 10
3223.528889
 20
4704.332144
 11
3221.028889
 21
4684.332144
  0
LINE
  8
0
  6
CONTINUOUS
 62
1
 10
3221.028889
 20
4684.332144
 11
3228.528889
 21
4684.332144
  0
LINE
  8
0
  6
CONTINUOUS
 62
1
 10
3228.528889
 20
4684.332144
 11
3223.528889
 21
4719.332144
  0
LINE
  8
0
  6
CONTINUOUS
 62
1
 10
3193.528889
 20
4719.332144
 11
3560.526531
 21
4719.332144
  0
TEXT
  8
0
  6
CONTINUOUS
 62
1
 10
3206.028889
 20
3082.277026
 40
35.000000
  1
3116.6
 50
90.000000
 41
1.000000
 51
0.000000
  7
STANDARD
  0
ENDBLK
  0
BLOCK
  2
*D2
  8
0
 70
1
 10
0.0
 20
0.0
  0
LINE
  8
0
  6
CONTINUOUS
 62
1
 10
3590.526531
 20
4749.332144
 11
3590.526531
 21
4931.428432
  0
LINE
  8
0
  6
CONTINUOUS
 62
1
 10
3590.526531
 20
4901.428432
 11
4240.526531
 21
4901.428432
  0
LINE
  8
0
  6
CONTINUOUS
 62
1
 10
3590.526531
 20
4901.428432
 11
3625.526531
 21
4896.428432
  0
LINE
  8
0
  6
CONTINUOUS
 62
1
 10
3625.526531
 20
4896.428432
 11
3625.526531
 21
4903.928432
  0
LINE
  8
0
  6
CONTINUOUS
 62
1
 10
3625.526531
 20
4903.928432
 11
3605.526531
 21
4901.428432
  0
LINE
  8
0
  6
CONTINUOUS
 62
1
 10
3605.526531
 20
4901.428432
 11
3625.526531
 21
4898.928432
  0
LINE
  8
0
  6
CONTINUOUS
 62
1
 10
3625.526531
 20
4898.928432
 11
3625.526531
 21
4906.428432
  0
LINE
  8
0
  6
CONTINUOUS
 62
1
 10
3625.526531
 20
4906.428432
 11
3590.526531
 21
4901.428432
  0
LINE
  8
0
  6
CONTINUOUS
 62
1
 10
4240.526531
 20
4901.428432
 11
4205.526531
 21
4906.428432
  0
LINE
  8
0
  6
CONTINUOUS
 62
1
 10
4205.526531
 20
4906.428432
 11
4205.526531
 21
4898.928432
  0
LINE
  8
0
  6
CONTINUOUS
 62
1
 10
4205.526531
 20
4898.928432
 11
4225.526531
 21
4901.428432
  0
LINE
  8
0
  6
CONTINUOUS
 62
1
 10
4225.526531
 20
4901.428432
 11
4205.526531
 21
4903.928432
  0
LINE
  8
0
  6
CONTINUOUS
 62
1
 10
4205.526531
 20
4903.928432
 11
4205.526531
 21
4896.428432
  0
LINE
  8
0
  6
CONTINUOUS
 62
1
 10
4205.526531
 20
4896.428432
 11
4240.526531
 21
4901.428432
  0
LINE
  8
0
  6
CONTINUOUS
 62
1
 10
4240.526531
 20
4931.428432
 11
4240.526531
 21
4749.332144
  0
TEXT
  8
0
  6
CONTINUOUS
 62
1
 10
3850.776531
 20
4918.928432
 40
35.000000
  1
650.0
 50
0.000000
 41
1.000000
 51
0.000000
  7
STANDARD
  0
ENDBLK
  0
ENDSEC
  0
SECTION
  2
ENTITIES
  0
LINE
  8
0
  6
CONTINUOUS
 62
3
 10
3590.526531
 20
3719.332144
 11
4240.526531
 21
3719.332144
  0
LINE
  8
0
  6
CONTINUOUS
 62
3
 10
4240.526531
 20
3719.332144
 11
4240.526531
 21
4719.332144
  0
LINE
  8
0
  6
CONTINUOUS
 62
3
 10
4240.526531
 20
4719.332144
 11
3590.526531
 21
4719.332144
  0
LINE
  8
0
  6
CONTINUOUS
 62
3
 10
3590.526531
 20
4719.332144
 11
3590.526531
 21
3719.332144
  0
LINE
  8
0
  6
CONTINUOUS
 62
3
 10
3920.526531
 20
4119.332144
 11
4170.526531
 21
4119.332144
  0
LINE
  8
0
  6
CONTINUOUS
 62
3
 10
4170.526531
 20
4439.332144
 11
4170.526531
 21
4049.332144
  0
LINE
  8
0
  6
CONTINUOUS
 62
3
 10
3920.526531
 20
4049.332144
 11
3920.526531
 21
4439.332144
  0
LINE
  8
0
  6
CONTINUOUS
 62
3
 10
4170.526531
 20
4369.332144
 11
3920.526531
 21
4369.332144
  0
LINE
  8
0
  6
CONTINUOUS
 62
3
 10
3920.526531
 20
4439.332144
 11
4170.526531
 21
4439.332144
  0
LINE
  8
0
  6
CONTINUOUS
 62
3
 10
4170.526531
 20
4049.332144
 11
3920.526531
 21
4049.332144
  0
LINE
  8
0
  6
CONTINUOUS
 62
3
 10
3590.526531
 20
4469.332144
 11
4240.526531
 21
4469.332144
  0
LINE
  8
0
  6
CONTINUOUS
 62
3
 10
4240.526531
 20
3969.332144
 11
3590.526531
 21
3969.332144
  0
LINE
  8
0
  6
CONTINUOUS
 62
3
 10
3615.526531
 20
3719.332144
 11
3615.526531
 21
3969.332144
  0
LINE
  8
0
  6
CONTINUOUS
 62
3
 10
4215.526531
 20
4719.332144
 11
4215.526531
 21
4469.332144
  0
LINE
  8
0
  6
CONTINUOUS
 62
3
 10
3615.526531
 20
4469.332144
 11
3615.526531
 21
4719.332144
  0
LINE
  8
0
  6
CONTINUOUS
 62
3
 10
4215.526531
 20
3969.332144
 11
4215.526531
 21
3719.332144
  0
LINE
  8
0
  6
CONTINUOUS
 62
3
 10
3930.526531
 20
3569.332144
 11
3765.526531
 21
3569.332144
  0
LINE
  8
0
  6
CONTINUOUS
 62
3
 10
3765.526531
 20
3569.332144
 11
3765.526531
 21
3719.332144
  0
LINE
  8
0
  6
CONTINUOUS
 62
3
 10
4165.526531
 20
3644.332144
 11
4165.526531
 21
2970.633258
  0
LINE
  8
0
  6
CONTINUOUS
 62
3
 10
3930.526531
 20
2484.332144
 11
3930.526531
 21
2885.626205
  0
LINE
  8
0
  6
CONTINUOUS
 62
3
 10
4190.526531
 20
3569.332144
 11
4190.526531
 21
3719.332144
  0
LINE
  8
0
  6
CONTINUOUS
 62
3
 10
3905.526531
 20
3719.332144
 11
3905.526531
 21
3644.332144
  0
LINE
  8
0
  6
CONTINUOUS
 62
3
 10
4190.526531
 20
3569.332144
 11
4165.526531
 21
3569.332144
  0
LINE
  8
0
  6
CONTINUOUS
 62
3
 10
4048.026531
 20
2359.332144
 11
4165.526531
 21
2359.332144
  0
LINE
  8
0
  6
CONTINUOUS
 62
3
 10
4048.026531
 20
2359.332144
 11
4048.026531
 21
2599.332144
  0
LINE
  8
0
  6
CONTINUOUS
 62
3
 10
4048.026531
 20
2484.332144
 11
3930.526531
 21
2484.332144
  0
LINE
  8
0
  6
CONTINUOUS
 62
3
 10
4153.526531
 20
2599.332144
 11
3942.526531
 21
2599.332144
  0
LINE
  8
0
  6
CONTINUOUS
 62
3
 10
3942.526531
 20
3644.332144
 11
3942.526531
 21
2961.005499
  0
LINE
  8
0
  6
CONTINUOUS
 62
3
 10
4153.526531
 20
2359.332144
 11
4153.526531
 21
2817.448263
  0
LINE
  8
0
  6
CONTINUOUS
 62
3
 10
3905.526531
 20
3644.332144
 11
4190.526531
 21
3644.332144
  0
LINE
  8
0
  6
CONTINUOUS
 62
3
 10
3590.526531
 20
1619.332144
 11
4240.526531
 21
1619.332144
  0
LINE
  8
0
  6
CONTINUOUS
 62
3
 10
4242.003621
 20
1749.721908
 11
4242.003621
 21
2459.846438
  0
LINE
  8
0
  6
CONTINUOUS
 62
3
 10
4242.003621
 20
3699.721908
 11
4190.526531
 21
3699.721908
  0
LINE
  8
0
  6
CONTINUOUS
 62
3
 10
3592.003621
 20
3699.721908
 11
3592.003621
 21
2556.989589
  0
LINE
  8
0
  6
CONTINUOUS
 62
3
 10
4202.003621
 20
2277.721908
 11
4202.003621
 21
2247.721908
  0
LINE
  8
0
  6
CONTINUOUS
 62
3
 10
4217.003621
 20
2262.721908
 11
4187.003621
 21
2262.721908
  0
CIRCLE
  8
0
  6
CONTINUOUS
 62
3
 10
4202.003621
 20
2262.721908
 40
10.000000
  0
LINE
  8
0
  6
CONTINUOUS
 62
3
 10
3592.003621
 20
3619.721908
 11
3765.526531
 21
3619.721908
  0
LINE
  8
0
  6
DASHED
 62
3
 10
3537.003621
 20
1602.721908
 11
4187.003621
 21
1602.721908
  0
LINE
  8
0
  6
DASHED
 62
3
 10
4187.003621
 20
1602.721908
 11
4187.003621
 21
2682.721908
  0
LINE
  8
0
  6
DASHED
 62
3
 10
4187.003621
 20
2682.721908
 11
3537.003621
 21
2682.721908
  0
LINE
  8
0
  6
DASHED
 62
3
 10
3537.003621
 20
2682.721908
 11
3537.003621
 21
1602.721908
  0
LINE
  8
0
  6
DASHED
 62
3
 10
3754.087526
 20
2684.691458
 11
4184.087526
 21
2684.691458
  0
LINE
  8
0
  6
DASHED
 62
3
 10
4184.087526
 20
2929.691458
 11
4184.087526
 21
2997.691458
  0
LINE
  8
0
  6
DASHED
 62
3
 10
4184.087526
 20
3509.691458
 11
4159.087526
 21
3509.691458
  0
LINE
  8
0
  6
DASHED
 62
3
 10
3754.087526
 20
3509.691458
 11
3754.087526
 21
3279.691458
  0
LINE
  8
0
  6
DASHED
 62
3
 10
3754.087526
 20
2684.691458
 11
3754.087526
 21
1602.721908
  0
CIRCLE
  8
0
  6
DASHED
 62
3
 10
4202.003621
 20
2277.721908
 40
10.000000
  0
LINE
  8
0
  6
DASHED
 62
3
 10
4202.003621
 20
2292.721908
 11
4202.003621
 21
2262.721908
  0
LINE
  8
0
  6
DASHED
 62
3
 10
4217.003621
 20
2277.721908
 11
4187.003621
 21
2277.721908
  0
CIRCLE
  8
0
  6
DASHED
 62
3
 10
4202.003621
 20
2277.721908
 40
10.000000
  0
ARC
  8
0
  6
DASHED
 62
3
 10
4202.003621
 20
2277.721908
 40
25.000000
 50
316.990459
 51
47.466925
  0
LINE
  8
0
  6
DASHED
 62
3
 10
4187.003621
 20
2325.409308
 11
4218.904014
 21
2296.144088
  0
LINE
  8
0
  6
DASHED
 62
3
 10
4187.003621
 20
2224.991311
 11
4220.284624
 21
2260.668904
  0
LINE
  8
0
  6
DASHED
 62
3
 10
3779.087526
 20
3469.691458
 11
4159.087526
 21
3469.691458
  0
LINE
  8
0
  6
DASHED
 62
3
 10
4159.087526
 20
3509.691458
 11
4159.087526
 21
3279.691458
  0
LINE
  8
0
  6
DASHED
 62
3
 10
3779.087526
 20
2684.691458
 11
3779.087526
 21
2779.691458
  0
LINE
  8
0
  6
DASHED
 62
3
 10
3754.087526
 20
3279.691458
 11
3779.087526
 21
3279.691458
  0
LINE
  8
0
  6
DASHED
 62
3
 10
4184.087526
 20
2997.691458
 11
4159.087526
 21
2997.691458
  0
LINE
  8
0
  6
DASHED
 62
3
 10
4184.087526
 20
3279.691458
 11
4184.087526
 21
3383.235295
  0
LINE
  8
0
  6
DASHED
 62
3
 10
3754.087526
 20
2997.691458
 11
3754.087526
 21
2929.691458
  0
LINE
  8
0
  6
DASHED
 62
3
 10
3779.087526
 20
3509.691458
 11
3754.087526
 21
3509.691458
  0
LINE
  8
0
  6
DASHED
 62
3
 10
4159.087526
 20
3279.691458
 11
4184.087526
 21
3279.691458
  0
LINE
  8
0
  6
DASHED
 62
3
 10
3779.087526
 20
2997.691458
 11
3754.087526
 21
2997.691458
  0
LINE
  8
0
  6
DASHED
 62
3
 10
4184.087526
 20
2779.691458
 11
3754.087526
 21
2779.691458
  0
LINE
  8
0
  6
DASHED
 62
3
 10
3754.087526
 20
2929.691458
 11
4184.087526
 21
2929.691458
  0
LINE
  8
0
  6
DASHED
 62
3
 10
3754.087526
 20
2779.691458
 11
3754.087526
 21
2929.691458
  0
LINE
  8
0
  6
DASHED
 62
3
 10
4184.087526
 20
2779.691458
 11
4184.087526
 21
2929.691458
  0
LINE
  8
0
  6
DASHED
 62
3
 10
4159.087526
 20
2779.691458
 11
4159.087526
 21
2684.691458
  0
LINE
  8
0
  6
DASHED
 62
3
 10
3779.087526
 20
2929.691458
 11
3779.087526
 21
3509.691458
  0
LINE
  8
0
  6
DASHED
 62
3
 10
3849.087526
 20
2929.691458
 11
3849.087526
 21
2779.691458
  0
LINE
  8
0
  6
DASHED
 62
3
 10
4099.087526
 20
2779.691458
 11
4099.087526
 21
2929.691458
  0
LINE
  8
0
  6
DASHED
 62
3
 10
3779.087526
 20
3369.691458
 11
4159.087526
 21
3369.691458
  0
LINE
  8
0
  6
DASHED
 62
3
 10
4159.087526
 20
3329.691458
 11
3779.087526
 21
3329.691458
  0
LINE
  8
0
  6
CONTINUOUS
 62
3
 10
3368.714008
 20
1826.642174
 11
3990.312100
 21
1636.600566
  0
LINE
  8
0
  6
CONTINUOUS
 62
3
 10
3990.312100
 20
1636.600566
 11
4306.073541
 21
2669.409702
  0
LINE
  8
0
  6
CONTINUOUS
 62
3
 10
4306.073541
 20
2669.409702
 11
3684.475450
 21
2859.451311
  0
LINE
  8
0
  6
CONTINUOUS
 62
3
 10
3684.475450
 20
2859.451311
 11
3368.714008
 21
1826.642174
  0
LINE
  8
0
  6
CONTINUOUS
 62
3
 10
3892.649661
 20
2797.865609
 11
4303.860706
 21
2672.145776
  0
LINE
  8
0
  6
CONTINUOUS
 62
3
 10
4375.491774
 20
2906.440441
 11
4395.373050
 21
2971.469165
  0
LINE
  8
0
  6
CONTINUOUS
 62
3
 10
4545.067362
 20
3461.097200
 11
4521.159743
 21
3468.406492
  0
LINE
  8
0
  6
CONTINUOUS
 62
3
 10
3892.649661
 20
2797.865609
 11
3576.312379
 21
1763.172983
  0
CIRCLE
  8
0
  6
CONTINUOUS
 62
3
 10
4202.007572
 20
2277.720701
 40
10.000000
  0
LINE
  8
0
  6
CONTINUOUS
 62
3
 10
4206.393147
 20
2292.065272
 11
4197.621996
 21
2263.376129
  0
LINE
  8
0
  6
CONTINUOUS
 62
3
 10
4216.352143
 20
2273.335125
 11
4187.663001
 21
2282.106276
  0
CIRCLE
  8
0
  6
CONTINUOUS
 62
3
 10
4202.007572
 20
2277.720701
 40
10.000000
  0
ARC
  8
0
  6
CONTINUOUS
 62
3
 10
4202.007572
 20
2277.720701
 40
25.000000
 50
299.990459
 51
30.466925
  0
LINE
  8
0
  6
CONTINUOUS
 62
3
 10
4201.605447
 20
2327.709964
 11
4223.555622
 21
2290.396723
  0
LINE
  8
0
  6
CONTINUOUS
 62
3
 10
4172.246066
 20
2231.679756
 11
4214.503966
 21
2256.067984
  0
LINE
  8
0
  6
CONTINUOUS
 62
3
 10
4165.526531
 20
3535.306807
 11
4509.464875
 21
3430.154302
  0
LINE
  8
0
  6
CONTINUOUS
 62
3
 10
4521.159743
 20
3468.406492
 11
4351.584155
 21
2913.749734
  0
LINE
  8
0
  6
CONTINUOUS
 62
3
 10
3916.557280
 20
2790.556317
 11
3930.751899
 21
2836.984824
  0
LINE
  8
0
  6
CONTINUOUS
 62
3
 10
4395.373050
 20
2971.469165
 11
4371.465431
 21
2978.778457
  0
LINE
  8
0
  6
CONTINUOUS
 62
3
 10
4477.821870
 20
3241.147106
 11
4545.067362
 21
3461.097200
  0
LINE
  8
0
  6
CONTINUOUS
 62
3
 10
3984.162005
 20
3097.188998
 11
3964.280729
 21
3032.160274
  0
LINE
  8
0
  6
CONTINUOUS
 62
3
 10
4453.914251
 20
3248.456399
 11
4477.821870
 21
3241.147106
  0
LINE
  8
0
  6
CONTINUOUS
 62
3
 10
4008.069623
 20
3089.879705
 11
3984.162005
 21
3097.188998
  0
LINE
  8
0
  6
CONTINUOUS
 62
3
 10
4331.636018
 20
2762.994728
 11
3920.424973
 21
2888.714561
  0
LINE
  8
0
  6
CONTINUOUS
 62
3
 10
3964.280729
 20
3032.160274
 11
4375.491774
 21
2906.440441
  0
LINE
  8
0
  6
CONTINUOUS
 62
3
 10
3920.424973
 20
2888.714561
 11
3964.280729
 21
3032.160274
  0
LINE
  8
0
  6
CONTINUOUS
 62
3
 10
4331.636018
 20
2762.994728
 11
4375.491774
 21
2906.440441
  0
LINE
  8
0
  6
CONTINUOUS
 62
3
 10
4307.728399
 20
2770.304021
 11
4279.953087
 21
2679.455069
  0
LINE
  8
0
  6
CONTINUOUS
 62
3
 10
3988.188347
 20
3024.850982
 11
4008.069623
 21
3089.879705
  0
LINE
  8
0
  6
CONTINUOUS
 62
3
 10
4055.129680
 20
3004.384962
 11
4011.273925
 21
2860.939249
  0
LINE
  8
0
  6
CONTINUOUS
 62
3
 10
4250.350114
 20
2787.846323
 11
4294.205869
 21
2931.292036
  0
LINE
  8
0
  6
CONTINUOUS
 62
3
 10
4026.083540
 20
2888.857495
 11
4032.808089
 21
2910.852505
  0
LINE
  8
0
  6
CONTINUOUS
 62
3
 10
4027.996149
 20
2888.272752
 11
4034.720698
 21
2910.267761
  0
LINE
  8
0
  6
CONTINUOUS
 62
3
 10
4029.908759
 20
2887.688009
 11
4044.527344
 21
2935.503246
  0
LINE
  8
0
  6
CONTINUOUS
 62
3
 10
4031.821368
 20
2887.103265
 11
4046.439953
 21
2934.918503
  0
LINE
  8
0
  6
CONTINUOUS
 62
3
 10
4033.733978
 20
2886.518522
 11
4040.458527
 21
2908.513531
  0
LINE
  8
0
  6
CONTINUOUS
 62
3
 10
4035.646587
 20
2885.933778
 11
4042.371136
 21
2907.928788
  0
LINE
  8
0
  6
CONTINUOUS
 62
3
 10
4032.808089
 20
2910.852505
 11
4042.371136
 21
2907.928788
  0
LINE
  8
0
  6
CONTINUOUS
 62
3
 10
4033.977576
 20
2914.677724
 11
4043.540623
 21
2911.754007
  0
LINE
  8
0
  6
CONTINUOUS
 62
3
 10
4033.977576
 20
2914.677724
 11
4040.702125
 21
2936.672733
  0
LINE
  8
0
  6
CONTINUOUS
 62
3
 10
4043.540623
 20
2911.754007
 11
4050.265173
 21
2933.749016
  0
LINE
  8
0
  6
CONTINUOUS
 62
3
 10
4041.628014
 20
2912.338750
 11
4048.352563
 21
2934.333760
  0
LINE
  8
0
  6
CONTINUOUS
 62
3
 10
4035.890185
 20
2914.092980
 11
4042.614734
 21
2936.087990
  0
LINE
  8
0
  6
CONTINUOUS
 62
3
 10
4037.109462
 20
2885.333213
 11
4043.834011
 21
2907.328223
  0
LINE
  8
0
  6
CONTINUOUS
 62
3
 10
4039.022071
 20
2884.748470
 11
4045.746621
 21
2906.743479
  0
LINE
  8
0
  6
CONTINUOUS
 62
3
 10
4040.934681
 20
2884.163726
 11
4055.553266
 21
2931.978964
  0
LINE
  8
0
  6
CONTINUOUS
 62
3
 10
4042.847290
 20
2883.578983
 11
4057.465876
 21
2931.394221
  0
LINE
  8
0
  6
CONTINUOUS
 62
3
 10
4044.759900
 20
2882.994239
 11
4051.484449
 21
2904.989249
  0
LINE
  8
0
  6
CONTINUOUS
 62
3
 10
4046.672509
 20
2882.409496
 11
4053.397059
 21
2904.404505
  0
LINE
  8
0
  6
CONTINUOUS
 62
3
 10
4043.834011
 20
2907.328223
 11
4053.397059
 21
2904.404505
  0
LINE
  8
0
  6
CONTINUOUS
 62
3
 10
4045.003498
 20
2911.153442
 11
4054.566545
 21
2908.229724
  0
LINE
  8
0
  6
CONTINUOUS
 62
3
 10
4045.003498
 20
2911.153442
 11
4051.728047
 21
2933.148451
  0
LINE
  8
0
  6
CONTINUOUS
 62
3
 10
4054.566545
 20
2908.229724
 11
4061.291095
 21
2930.224734
  0
LINE
  8
0
  6
CONTINUOUS
 62
3
 10
4052.653936
 20
2908.814468
 11
4059.378485
 21
2930.809477
  0
LINE
  8
0
  6
CONTINUOUS
 62
3
 10
4046.916107
 20
2910.568698
 11
4053.640657
 21
2932.563708
  0
LINE
  8
0
  6
CONTINUOUS
 62
3
 10
4048.135384
 20
2881.808931
 11
4054.859933
 21
2903.803940
  0
LINE
  8
0
  6
CONTINUOUS
 62
3
 10
4050.047993
 20
2881.224187
 11
4056.772543
 21
2903.219197
  0
LINE
  8
0
  6
CONTINUOUS
 62
3
 10
4051.960603
 20
2880.639444
 11
4066.579188
 21
2928.454682
  0
LINE
  8
0
  6
CONTINUOUS
 62
3
 10
4053.873212
 20
2880.054701
 11
4068.491798
 21
2927.869938
  0
LINE
  8
0
  6
CONTINUOUS
 62
3
 10
4055.785822
 20
2879.469957
 11
4062.510371
 21
2901.464967
  0
LINE
  8
0
  6
CONTINUOUS
 62
3
 10
4057.698432
 20
2878.885214
 11
4064.422981
 21
2900.880223
  0
LINE
  8
0
  6
CONTINUOUS
 62
3
 10
4054.859933
 20
2903.803940
 11
4064.422981
 21
2900.880223
  0
LINE
  8
0
  6
CONTINUOUS
 62
3
 10
4056.029420
 20
2907.629159
 11
4065.592468
 21
2904.705442
  0
LINE
  8
0
  6
CONTINUOUS
 62
3
 10
4056.029420
 20
2907.629159
 11
4062.753969
 21
2929.624169
  0
LINE
  8
0
  6
CONTINUOUS
 62
3
 10
4065.592468
 20
2904.705442
 11
4072.317017
 21
2926.700452
  0
LINE
  8
0
  6
CONTINUOUS
 62
3
 10
4063.679858
 20
2905.290186
 11
4070.404407
 21
2927.285195
  0
LINE
  8
0
  6
CONTINUOUS
 62
3
 10
4057.942029
 20
2907.044416
 11
4064.666579
 21
2929.039425
  0
LINE
  8
0
  6
CONTINUOUS
 62
3
 10
4059.161306
 20
2878.284649
 11
4065.885855
 21
2900.279658
  0
LINE
  8
0
  6
CONTINUOUS
 62
3
 10
4061.073916
 20
2877.699905
 11
4067.798465
 21
2899.694915
  0
LINE
  8
0
  6
CONTINUOUS
 62
3
 10
4062.986525
 20
2877.115162
 11
4077.605110
 21
2924.930400
  0
LINE
  8
0
  6
CONTINUOUS
 62
3
 10
4064.899135
 20
2876.530418
 11
4079.517720
 21
2924.345656
  0
LINE
  8
0
  6
CONTINUOUS
 62
3
 10
4066.811744
 20
2875.945675
 11
4073.536293
 21
2897.940684
  0
LINE
  8
0
  6
CONTINUOUS
 62
3
 10
4068.724354
 20
2875.360932
 11
4075.448903
 21
2897.355941
  0
LINE
  8
0
  6
CONTINUOUS
 62
3
 10
4065.885855
 20
2900.279658
 11
4075.448903
 21
2897.355941
  0
LINE
  8
0
  6
CONTINUOUS
 62
3
 10
4067.055342
 20
2904.104877
 11
4076.618390
 21
2901.181160
  0
LINE
  8
0
  6
CONTINUOUS
 62
3
 10
4067.055342
 20
2904.104877
 11
4073.779891
 21
2926.099886
  0
LINE
  8
0
  6
CONTINUOUS
 62
3
 10
4076.618390
 20
2901.181160
 11
4083.342939
 21
2923.176169
  0
LINE
  8
0
  6
CONTINUOUS
 62
3
 10
4074.705780
 20
2901.765903
 11
4081.430329
 21
2923.760913
  0
LINE
  8
0
  6
CONTINUOUS
 62
3
 10
4068.967952
 20
2903.520134
 11
4075.692501
 21
2925.515143
  0
LINE
  8
0
  6
CONTINUOUS
 62
3
 10
4070.187228
 20
2874.760366
 11
4076.911777
 21
2896.755376
  0
LINE
  8
0
  6
CONTINUOUS
 62
3
 10
4072.099838
 20
2874.175623
 11
4078.824387
 21
2896.170632
  0
LINE
  8
0
  6
CONTINUOUS
 62
3
 10
4074.012447
 20
2873.590879
 11
4088.631032
 21
2921.406117
  0
LINE
  8
0
  6
CONTINUOUS
 62
3
 10
4075.925057
 20
2873.006136
 11
4090.543642
 21
2920.821374
  0
LINE
  8
0
  6
CONTINUOUS
 62
3
 10
4077.837666
 20
2872.421393
 11
4084.562215
 21
2894.416402
  0
LINE
  8
0
  6
CONTINUOUS
 62
3
 10
4079.750276
 20
2871.836649
 11
4086.474825
 21
2893.831659
  0
LINE
  8
0
  6
CONTINUOUS
 62
3
 10
4076.911777
 20
2896.755376
 11
4086.474825
 21
2893.831659
  0
LINE
  8
0
  6
CONTINUOUS
 62
3
 10
4078.081264
 20
2900.580595
 11
4087.644312
 21
2897.656878
  0
LINE
  8
0
  6
CONTINUOUS
 62
3
 10
4078.081264
 20
2900.580595
 11
4084.805813
 21
2922.575604
  0
LINE
  8
0
  6
CONTINUOUS
 62
3
 10
4087.644312
 20
2897.656878
 11
4094.368861
 21
2919.651887
  0
LINE
  8
0
  6
CONTINUOUS
 62
3
 10
4085.731702
 20
2898.241621
 11
4092.456251
 21
2920.236630
  0
LINE
  8
0
  6
CONTINUOUS
 62
3
 10
4079.993874
 20
2899.995851
 11
4086.718423
 21
2921.990861
  0
LINE
  8
0
  6
CONTINUOUS
 62
3
 10
4081.213150
 20
2871.236084
 11
4087.937700
 21
2893.231093
  0
LINE
  8
0
  6
CONTINUOUS
 62
3
 10
4083.125760
 20
2870.651341
 11
4089.850309
 21
2892.646350
  0
LINE
  8
0
  6
CONTINUOUS
 62
3
 10
4085.038369
 20
2870.066597
 11
4099.656955
 21
2917.881835
  0
LINE
  8
0
  6
CONTINUOUS
 62
3
 10
4086.950979
 20
2869.481854
 11
4101.569564
 21
2917.297092
  0
LINE
  8
0
  6
CONTINUOUS
 62
3
 10
4088.863588
 20
2868.897110
 11
4095.588138
 21
2890.892120
  0
LINE
  8
0
  6
CONTINUOUS
 62
3
 10
4090.776198
 20
2868.312367
 11
4097.500747
 21
2890.307376
  0
LINE
  8
0
  6
CONTINUOUS
 62
3
 10
4087.937700
 20
2893.231093
 11
4097.500747
 21
2890.307376
  0
LINE
  8
0
  6
CONTINUOUS
 62
3
 10
4089.107186
 20
2897.056312
 11
4098.670234
 21
2894.132595
  0
LINE
  8
0
  6
CONTINUOUS
 62
3
 10
4089.107186
 20
2897.056312
 11
4095.831736
 21
2919.051322
  0
LINE
  8
0
  6
CONTINUOUS
 62
3
 10
4098.670234
 20
2894.132595
 11
4105.394783
 21
2916.127605
  0
LINE
  8
0
  6
CONTINUOUS
 62
3
 10
4096.757624
 20
2894.717339
 11
4103.482174
 21
2916.712348
  0
LINE
  8
0
  6
CONTINUOUS
 62
3
 10
4091.019796
 20
2896.471569
 11
4097.744345
 21
2918.466578
  0
LINE
  8
0
  6
CONTINUOUS
 62
3
 10
4092.271550
 20
2867.853313
 11
4098.996099
 21
2889.848323
  0
LINE
  8
0
  6
CONTINUOUS
 62
3
 10
4094.184160
 20
2867.268570
 11
4100.908709
 21
2889.263579
  0
LINE
  8
0
  6
CONTINUOUS
 62
3
 10
4096.096769
 20
2866.683827
 11
4110.715354
 21
2914.499064
  0
LINE
  8
0
  6
CONTINUOUS
 62
3
 10
4098.009379
 20
2866.099083
 11
4112.627964
 21
2913.914321
  0
LINE
  8
0
  6
CONTINUOUS
 62
3
 10
4099.921988
 20
2865.514340
 11
4106.646537
 21
2887.509349
  0
LINE
  8
0
  6
CONTINUOUS
 62
3
 10
4101.834598
 20
2864.929596
 11
4108.559147
 21
2886.924606
  0
LINE
  8
0
  6
CONTINUOUS
 62
3
 10
4098.996099
 20
2889.848323
 11
4108.559147
 21
2886.924606
  0
LINE
  8
0
  6
CONTINUOUS
 62
3
 10
4100.165586
 20
2893.673542
 11
4109.728634
 21
2890.749825
  0
LINE
  8
0
  6
CONTINUOUS
 62
3
 10
4100.165586
 20
2893.673542
 11
4106.890135
 21
2915.668551
  0
LINE
  8
0
  6
CONTINUOUS
 62
3
 10
4109.728634
 20
2890.749825
 11
4116.453183
 21
2912.744834
  0
LINE
  8
0
  6
CONTINUOUS
 62
3
 10
4107.816024
 20
2891.334568
 11
4114.540573
 21
2913.329578
  0
LINE
  8
0
  6
CONTINUOUS
 62
3
 10
4102.078196
 20
2893.088798
 11
4108.802745
 21
2915.083808
  0
LINE
  8
0
  6
CONTINUOUS
 62
3
 10
4103.297472
 20
2864.329031
 11
4110.022021
 21
2886.324040
  0
LINE
  8
0
  6
CONTINUOUS
 62
3
 10
4105.210082
 20
2863.744288
 11
4111.934631
 21
2885.739297
  0
LINE
  8
0
  6
CONTINUOUS
 62
3
 10
4107.122691
 20
2863.159544
 11
4121.741276
 21
2910.974782
  0
LINE
  8
0
  6
CONTINUOUS
 62
3
 10
4109.035301
 20
2862.574801
 11
4123.653886
 21
2910.390039
  0
LINE
  8
0
  6
CONTINUOUS
 62
3
 10
4110.947910
 20
2861.990057
 11
4117.672459
 21
2883.985067
  0
LINE
  8
0
  6
CONTINUOUS
 62
3
 10
4112.860520
 20
2861.405314
 11
4119.585069
 21
2883.400323
  0
LINE
  8
0
  6
CONTINUOUS
 62
3
 10
4110.022021
 20
2886.324040
 11
4119.585069
 21
2883.400323
  0
LINE
  8
0
  6
CONTINUOUS
 62
3
 10
4111.191508
 20
2890.149259
 11
4120.754556
 21
2887.225542
  0
LINE
  8
0
  6
CONTINUOUS
 62
3
 10
4111.191508
 20
2890.149259
 11
4117.916057
 21
2912.144269
  0
LINE
  8
0
  6
CONTINUOUS
 62
3
 10
4120.754556
 20
2887.225542
 11
4127.479105
 21
2909.220552
  0
LINE
  8
0
  6
CONTINUOUS
 62
3
 10
4118.841946
 20
2887.810286
 11
4125.566496
 21
2909.805295
  0
LINE
  8
0
  6
CONTINUOUS
 62
3
 10
4113.104118
 20
2889.564516
 11
4119.828667
 21
2911.559525
  0
LINE
  8
0
  6
CONTINUOUS
 62
3
 10
4114.323394
 20
2860.804749
 11
4121.047944
 21
2882.799758
  0
LINE
  8
0
  6
CONTINUOUS
 62
3
 10
4116.236004
 20
2860.220005
 11
4122.960553
 21
2882.215015
  0
LINE
  8
0
  6
CONTINUOUS
 62
3
 10
4118.148613
 20
2859.635262
 11
4132.767199
 21
2907.450500
  0
LINE
  8
0
  6
CONTINUOUS
 62
3
 10
4120.061223
 20
2859.050519
 11
4134.679808
 21
2906.865756
  0
LINE
  8
0
  6
CONTINUOUS
 62
3
 10
4121.973832
 20
2858.465775
 11
4128.698382
 21
2880.460785
  0
LINE
  8
0
  6
CONTINUOUS
 62
3
 10
4123.886442
 20
2857.881032
 11
4130.610991
 21
2879.876041
  0
LINE
  8
0
  6
CONTINUOUS
 62
3
 10
4121.047944
 20
2882.799758
 11
4130.610991
 21
2879.876041
  0
LINE
  8
0
  6
CONTINUOUS
 62
3
 10
4122.217430
 20
2886.624977
 11
4131.780478
 21
2883.701260
  0
LINE
  8
0
  6
CONTINUOUS
 62
3
 10
4122.217430
 20
2886.624977
 11
4128.941980
 21
2908.619987
  0
LINE
  8
0
  6
CONTINUOUS
 62
3
 10
4131.780478
 20
2883.701260
 11
4138.505027
 21
2905.696270
  0
LINE
  8
0
  6
CONTINUOUS
 62
3
 10
4129.867868
 20
2884.286004
 11
4136.592418
 21
2906.281013
  0
LINE
  8
0
  6
CONTINUOUS
 62
3
 10
4124.130040
 20
2886.040234
 11
4130.854589
 21
2908.035243
  0
LINE
  8
0
  6
CONTINUOUS
 62
3
 10
4125.349316
 20
2857.280467
 11
4132.073866
 21
2879.275476
  0
LINE
  8
0
  6
CONTINUOUS
 62
3
 10
4127.261926
 20
2856.695723
 11
4133.986475
 21
2878.690732
  0
LINE
  8
0
  6
CONTINUOUS
 62
3
 10
4129.174536
 20
2856.110980
 11
4143.793121
 21
2903.926217
  0
LINE
  8
0
  6
CONTINUOUS
 62
3
 10
4131.087145
 20
2855.526236
 11
4145.705730
 21
2903.341474
  0
LINE
  8
0
  6
CONTINUOUS
 62
3
 10
4132.999755
 20
2854.941493
 11
4139.724304
 21
2876.936502
  0
LINE
  8
0
  6
CONTINUOUS
 62
3
 10
4134.912364
 20
2854.356749
 11
4141.636913
 21
2876.351759
  0
LINE
  8
0
  6
CONTINUOUS
 62
3
 10
4132.073866
 20
2879.275476
 11
4141.636913
 21
2876.351759
  0
LINE
  8
0
  6
CONTINUOUS
 62
3
 10
4133.243353
 20
2883.100695
 11
4142.806400
 21
2880.176978
  0
LINE
  8
0
  6
CONTINUOUS
 62
3
 10
4133.243353
 20
2883.100695
 11
4139.967902
 21
2905.095704
  0
LINE
  8
0
  6
CONTINUOUS
 62
3
 10
4142.806400
 20
2880.176978
 11
4149.530949
 21
2902.171987
  0
LINE
  8
0
  6
CONTINUOUS
 62
3
 10
4140.893791
 20
2880.761721
 11
4147.618340
 21
2902.756731
  0
LINE
  8
0
  6
CONTINUOUS
 62
3
 10
4135.155962
 20
2882.515952
 11
4141.880511
 21
2904.510961
  0
LINE
  8
0
  6
CONTINUOUS
 62
3
 10
4136.375239
 20
2853.756184
 11
4143.099788
 21
2875.751194
  0
LINE
  8
0
  6
CONTINUOUS
 62
3
 10
4138.287848
 20
2853.171441
 11
4145.012397
 21
2875.166450
  0
LINE
  8
0
  6
CONTINUOUS
 62
3
 10
4140.200458
 20
2852.586697
 11
4154.819043
 21
2900.401935
  0
LINE
  8
0
  6
CONTINUOUS
 62
3
 10
4142.113067
 20
2852.001954
 11
4156.731652
 21
2899.817192
  0
LINE
  8
0
  6
CONTINUOUS
 62
3
 10
4144.025677
 20
2851.417211
 11
4150.750226
 21
2873.412220
  0
LINE
  8
0
  6
CONTINUOUS
 62
3
 10
4145.938286
 20
2850.832467
 11
4152.662835
 21
2872.827477
  0
LINE
  8
0
  6
CONTINUOUS
 62
3
 10
4143.099788
 20
2875.751194
 11
4152.662835
 21
2872.827477
  0
LINE
  8
0
  6
CONTINUOUS
 62
3
 10
4144.269275
 20
2879.576413
 11
4153.832322
 21
2876.652696
  0
LINE
  8
0
  6
CONTINUOUS
 62
3
 10
4144.269275
 20
2879.576413
 11
4150.993824
 21
2901.571422
  0
LINE
  8
0
  6
CONTINUOUS
 62
3
 10
4153.832322
 20
2876.652696
 11
4160.556871
 21
2898.647705
  0
LINE
  8
0
  6
CONTINUOUS
 62
3
 10
4151.919713
 20
2877.237439
 11
4158.644262
 21
2899.232448
  0
LINE
  8
0
  6
CONTINUOUS
 62
3
 10
4146.181884
 20
2878.991669
 11
4152.906433
 21
2900.986679
  0
LINE
  8
0
  6
CONTINUOUS
 62
3
 10
4147.401161
 20
2850.231902
 11
4154.125710
 21
2872.226911
  0
LINE
  8
0
  6
CONTINUOUS
 62
3
 10
4149.313770
 20
2849.647159
 11
4156.038319
 21
2871.642168
  0
LINE
  8
0
  6
CONTINUOUS
 62
3
 10
4151.226380
 20
2849.062415
 11
4165.844965
 21
2896.877653
  0
LINE
  8
0
  6
CONTINUOUS
 62
3
 10
4153.138989
 20
2848.477672
 11
4167.757575
 21
2896.292910
  0
LINE
  8
0
  6
CONTINUOUS
 62
3
 10
4155.051599
 20
2847.892928
 11
4161.776148
 21
2869.887938
  0
LINE
  8
0
  6
CONTINUOUS
 62
3
 10
4156.964208
 20
2847.308185
 11
4163.688758
 21
2869.303194
  0
LINE
  8
0
  6
CONTINUOUS
 62
3
 10
4154.125710
 20
2872.226911
 11
4163.688758
 21
2869.303194
  0
LINE
  8
0
  6
CONTINUOUS
 62
3
 10
4155.295197
 20
2876.052130
 11
4164.858244
 21
2873.128413
  0
LINE
  8
0
  6
CONTINUOUS
 62
3
 10
4155.295197
 20
2876.052130
 11
4162.019746
 21
2898.047140
  0
LINE
  8
0
  6
CONTINUOUS
 62
3
 10
4164.858244
 20
2873.128413
 11
4171.582794
 21
2895.123423
  0
LINE
  8
0
  6
CONTINUOUS
 62
3
 10
4162.945635
 20
2873.713157
 11
4169.670184
 21
2895.708166
  0
LINE
  8
0
  6
CONTINUOUS
 62
3
 10
4157.207806
 20
2875.467387
 11
4163.932355
 21
2897.462396
  0
LINE
  8
0
  6
CONTINUOUS
 62
3
 10
4158.674424
 20
2847.551918
 11
4165.398973
 21
2869.546927
  0
LINE
  8
0
  6
CONTINUOUS
 62
3
 10
4160.587033
 20
2846.967174
 11
4167.311583
 21
2868.962183
  0
LINE
  8
0
  6
CONTINUOUS
 62
3
 10
4162.499643
 20
2846.382431
 11
4177.118228
 21
2894.197668
  0
LINE
  8
0
  6
CONTINUOUS
 62
3
 10
4164.412252
 20
2845.797687
 11
4179.030838
 21
2893.612925
  0
LINE
  8
0
  6
CONTINUOUS
 62
3
 10
4166.324862
 20
2845.212944
 11
4173.049411
 21
2867.207953
  0
LINE
  8
0
  6
CONTINUOUS
 62
3
 10
4168.237471
 20
2844.628200
 11
4174.962021
 21
2866.623210
  0
LINE
  8
0
  6
CONTINUOUS
 62
3
 10
4165.398973
 20
2869.546927
 11
4174.962021
 21
2866.623210
  0
LINE
  8
0
  6
CONTINUOUS
 62
3
 10
4166.568460
 20
2873.372146
 11
4176.131507
 21
2870.448429
  0
LINE
  8
0
  6
CONTINUOUS
 62
3
 10
4166.568460
 20
2873.372146
 11
4173.293009
 21
2895.367155
  0
LINE
  8
0
  6
CONTINUOUS
 62
3
 10
4176.131507
 20
2870.448429
 11
4182.856057
 21
2892.443438
  0
LINE
  8
0
  6
CONTINUOUS
 62
3
 10
4174.218898
 20
2871.033172
 11
4180.943447
 21
2893.028182
  0
LINE
  8
0
  6
CONTINUOUS
 62
3
 10
4168.481069
 20
2872.787403
 11
4175.205619
 21
2894.782412
  0
LINE
  8
0
  6
CONTINUOUS
 62
3
 10
4169.700346
 20
2844.027635
 11
4176.424895
 21
2866.022645
  0
LINE
  8
0
  6
CONTINUOUS
 62
3
 10
4171.612955
 20
2843.442892
 11
4178.337505
 21
2865.437901
  0
LINE
  8
0
  6
CONTINUOUS
 62
3
 10
4173.525565
 20
2842.858148
 11
4188.144150
 21
2890.673386
  0
LINE
  8
0
  6
CONTINUOUS
 62
3
 10
4175.438174
 20
2842.273405
 11
4190.056760
 21
2890.088643
  0
LINE
  8
0
  6
CONTINUOUS
 62
3
 10
4177.350784
 20
2841.688662
 11
4184.075333
 21
2863.683671
  0
LINE
  8
0
  6
CONTINUOUS
 62
3
 10
4179.263394
 20
2841.103918
 11
4185.987943
 21
2863.098928
  0
LINE
  8
0
  6
CONTINUOUS
 62
3
 10
4176.424895
 20
2866.022645
 11
4185.987943
 21
2863.098928
  0
LINE
  8
0
  6
CONTINUOUS
 62
3
 10
4177.594382
 20
2869.847864
 11
4187.157430
 21
2866.924147
  0
LINE
  8
0
  6
CONTINUOUS
 62
3
 10
4177.594382
 20
2869.847864
 11
4184.318931
 21
2891.842873
  0
LINE
  8
0
  6
CONTINUOUS
 62
3
 10
4187.157430
 20
2866.924147
 11
4193.881979
 21
2888.919156
  0
LINE
  8
0
  6
CONTINUOUS
 62
3
 10
4185.244820
 20
2867.508890
 11
4191.969369
 21
2889.503899
  0
LINE
  8
0
  6
CONTINUOUS
 62
3
 10
4179.506991
 20
2869.263120
 11
4186.231541
 21
2891.258130
  0
LINE
  8
0
  6
CONTINUOUS
 62
3
 10
4180.726268
 20
2840.503353
 11
4187.450817
 21
2862.498362
  0
LINE
  8
0
  6
CONTINUOUS
 62
3
 10
4182.638878
 20
2839.918610
 11
4189.363427
 21
2861.913619
  0
LINE
  8
0
  6
CONTINUOUS
 62
3
 10
4184.551487
 20
2839.333866
 11
4199.170072
 21
2887.149104
  0
LINE
  8
0
  6
CONTINUOUS
 62
3
 10
4186.464097
 20
2838.749123
 11
4201.082682
 21
2886.564361
  0
LINE
  8
0
  6
CONTINUOUS
 62
3
 10
4188.376706
 20
2838.164379
 11
4195.101255
 21
2860.159389
  0
LINE
  8
0
  6
CONTINUOUS
 62
3
 10
4190.289316
 20
2837.579636
 11
4197.013865
 21
2859.574645
  0
LINE
  8
0
  6
CONTINUOUS
 62
3
 10
4187.450817
 20
2862.498362
 11
4197.013865
 21
2859.574645
  0
LINE
  8
0
  6
CONTINUOUS
 62
3
 10
4188.620304
 20
2866.323581
 11
4198.183352
 21
2863.399864
  0
LINE
  8
0
  6
CONTINUOUS
 62
3
 10
4188.620304
 20
2866.323581
 11
4195.344853
 21
2888.318591
  0
LINE
  8
0
  6
CONTINUOUS
 62
3
 10
4198.183352
 20
2863.399864
 11
4204.907901
 21
2885.394874
  0
LINE
  8
0
  6
CONTINUOUS
 62
3
 10
4196.270742
 20
2863.984608
 11
4202.995291
 21
2885.979617
  0
LINE
  8
0
  6
CONTINUOUS
 62
3
 10
4190.532914
 20
2865.738838
 11
4197.257463
 21
2887.733847
  0
LINE
  8
0
  6
CONTINUOUS
 62
3
 10
4191.752190
 20
2836.979071
 11
4198.476739
 21
2858.974080
  0
LINE
  8
0
  6
CONTINUOUS
 62
3
 10
4193.664800
 20
2836.394327
 11
4200.389349
 21
2858.389337
  0
LINE
  8
0
  6
CONTINUOUS
 62
3
 10
4195.577409
 20
2835.809584
 11
4210.195994
 21
2883.624822
  0
LINE
  8
0
  6
CONTINUOUS
 62
3
 10
4197.490019
 20
2835.224840
 11
4212.108604
 21
2883.040078
  0
LINE
  8
0
  6
CONTINUOUS
 62
3
 10
4199.402628
 20
2834.640097
 11
4206.127177
 21
2856.635106
  0
LINE
  8
0
  6
CONTINUOUS
 62
3
 10
4201.315238
 20
2834.055354
 11
4208.039787
 21
2856.050363
  0
LINE
  8
0
  6
CONTINUOUS
 62
3
 10
4198.476739
 20
2858.974080
 11
4208.039787
 21
2856.050363
  0
LINE
  8
0
  6
CONTINUOUS
 62
3
 10
4199.646226
 20
2862.799299
 11
4209.209274
 21
2859.875582
  0
LINE
  8
0
  6
CONTINUOUS
 62
3
 10
4199.646226
 20
2862.799299
 11
4206.370775
 21
2884.794308
  0
LINE
  8
0
  6
CONTINUOUS
 62
3
 10
4209.209274
 20
2859.875582
 11
4215.933823
 21
2881.870591
  0
LINE
  8
0
  6
CONTINUOUS
 62
3
 10
4207.296664
 20
2860.460325
 11
4214.021213
 21
2882.455335
  0
LINE
  8
0
  6
CONTINUOUS
 62
3
 10
4201.558836
 20
2862.214556
 11
4208.283385
 21
2884.209565
  0
LINE
  8
0
  6
CONTINUOUS
 62
3
 10
4202.778112
 20
2833.454788
 11
4209.502662
 21
2855.449798
  0
LINE
  8
0
  6
CONTINUOUS
 62
3
 10
4204.690722
 20
2832.870045
 11
4211.415271
 21
2854.865054
  0
LINE
  8
0
  6
CONTINUOUS
 62
3
 10
4206.603331
 20
2832.285302
 11
4221.221917
 21
2880.100539
  0
LINE
  8
0
  6
CONTINUOUS
 62
3
 10
4208.515941
 20
2831.700558
 11
4223.134526
 21
2879.515796
  0
LINE
  8
0
  6
CONTINUOUS
 62
3
 10
4210.428550
 20
2831.115815
 11
4217.153100
 21
2853.110824
  0
LINE
  8
0
  6
CONTINUOUS
 62
3
 10
4212.341160
 20
2830.531071
 11
4219.065709
 21
2852.526081
  0
LINE
  8
0
  6
CONTINUOUS
 62
3
 10
4209.502662
 20
2855.449798
 11
4219.065709
 21
2852.526081
  0
LINE
  8
0
  6
CONTINUOUS
 62
3
 10
4210.672148
 20
2859.275017
 11
4220.235196
 21
2856.351300
  0
LINE
  8
0
  6
CONTINUOUS
 62
3
 10
4210.672148
 20
2859.275017
 11
4217.396698
 21
2881.270026
  0
LINE
  8
0
  6
CONTINUOUS
 62
3
 10
4220.235196
 20
2856.351300
 11
4226.959745
 21
2878.346309
  0
LINE
  8
0
  6
CONTINUOUS
 62
3
 10
4218.322586
 20
2856.936043
 11
4225.047136
 21
2878.931053
  0
LINE
  8
0
  6
CONTINUOUS
 62
3
 10
4212.584758
 20
2858.690273
 11
4219.309307
 21
2880.685283
  0
LINE
  8
0
  6
CONTINUOUS
 62
3
 10
4213.804034
 20
2829.930506
 11
4220.528584
 21
2851.925516
  0
LINE
  8
0
  6
CONTINUOUS
 62
3
 10
4215.716644
 20
2829.345763
 11
4222.441193
 21
2851.340772
  0
LINE
  8
0
  6
CONTINUOUS
 62
3
 10
4217.629253
 20
2828.761019
 11
4232.247839
 21
2876.576257
  0
LINE
  8
0
  6
CONTINUOUS
 62
3
 10
4219.541863
 20
2828.176276
 11
4234.160448
 21
2875.991514
  0
LINE
  8
0
  6
CONTINUOUS
 62
3
 10
4221.454473
 20
2827.591532
 11
4228.179022
 21
2849.586542
  0
LINE
  8
0
  6
CONTINUOUS
 62
3
 10
4223.367082
 20
2827.006789
 11
4230.091631
 21
2849.001798
  0
LINE
  8
0
  6
CONTINUOUS
 62
3
 10
4220.528584
 20
2851.925516
 11
4230.091631
 21
2849.001798
  0
LINE
  8
0
  6
CONTINUOUS
 62
3
 10
4221.698070
 20
2855.750735
 11
4231.261118
 21
2852.827017
  0
LINE
  8
0
  6
CONTINUOUS
 62
3
 10
4221.698070
 20
2855.750735
 11
4228.422620
 21
2877.745744
  0
LINE
  8
0
  6
CONTINUOUS
 62
3
 10
4231.261118
 20
2852.827017
 11
4237.985667
 21
2874.822027
  0
LINE
  8
0
  6
CONTINUOUS
 62
3
 10
4229.348509
 20
2853.411761
 11
4236.073058
 21
2875.406770
  0
LINE
  8
0
  6
CONTINUOUS
 62
3
 10
4223.610680
 20
2855.165991
 11
4230.335229
 21
2877.161001
  0
LINE
  8
0
  6
CONTINUOUS
 62
3
 10
4225.077298
 20
2827.250522
 11
4231.801847
 21
2849.245531
  0
LINE
  8
0
  6
CONTINUOUS
 62
3
 10
4226.989907
 20
2826.665778
 11
4233.714456
 21
2848.660788
  0
LINE
  8
0
  6
CONTINUOUS
 62
3
 10
4228.902517
 20
2826.081035
 11
4243.521102
 21
2873.896273
  0
LINE
  8
0
  6
CONTINUOUS
 62
3
 10
4230.815126
 20
2825.496291
 11
4245.433711
 21
2873.311529
  0
LINE
  8
0
  6
CONTINUOUS
 62
3
 10
4232.727736
 20
2824.911548
 11
4239.452285
 21
2846.906557
  0
LINE
  8
0
  6
CONTINUOUS
 62
3
 10
4234.640345
 20
2824.326805
 11
4241.364894
 21
2846.321814
  0
LINE
  8
0
  6
CONTINUOUS
 62
3
 10
4231.801847
 20
2849.245531
 11
4241.364894
 21
2846.321814
  0
LINE
  8
0
  6
CONTINUOUS
 62
3
 10
4232.971334
 20
2853.070750
 11
4242.534381
 21
2850.147033
  0
LINE
  8
0
  6
CONTINUOUS
 62
3
 10
4232.971334
 20
2853.070750
 11
4239.695883
 21
2875.065759
  0
LINE
  8
0
  6
CONTINUOUS
 62
3
 10
4242.534381
 20
2850.147033
 11
4249.258930
 21
2872.142042
  0
LINE
  8
0
  6
CONTINUOUS
 62
3
 10
4240.621772
 20
2850.731776
 11
4247.346321
 21
2872.726786
  0
LINE
  8
0
  6
CONTINUOUS
 62
3
 10
4234.883943
 20
2852.486007
 11
4241.608492
 21
2874.481016
  0
LINE
  8
0
  6
CONTINUOUS
 62
3
 10
4236.103220
 20
2823.726239
 11
4242.827769
 21
2845.721249
  0
LINE
  8
0
  6
CONTINUOUS
 62
3
 10
4238.015829
 20
2823.141496
 11
4244.740378
 21
2845.136505
  0
LINE
  8
0
  6
CONTINUOUS
 62
3
 10
4239.928439
 20
2822.556753
 11
4254.547024
 21
2870.371990
  0
LINE
  8
0
  6
CONTINUOUS
 62
3
 10
4241.841048
 20
2821.972009
 11
4256.459633
 21
2869.787247
  0
LINE
  8
0
  6
CONTINUOUS
 62
3
 10
4243.753658
 20
2821.387266
 11
4250.478207
 21
2843.382275
  0
LINE
  8
0
  6
CONTINUOUS
 62
3
 10
4245.666267
 20
2820.802522
 11
4252.390816
 21
2842.797532
  0
LINE
  8
0
  6
CONTINUOUS
 62
3
 10
4242.827769
 20
2845.721249
 11
4252.390816
 21
2842.797532
  0
LINE
  8
0
  6
CONTINUOUS
 62
3
 10
4243.997256
 20
2849.546468
 11
4253.560303
 21
2846.622751
  0
LINE
  8
0
  6
CONTINUOUS
 62
3
 10
4243.997256
 20
2849.546468
 11
4250.721805
 21
2871.541477
  0
LINE
  8
0
  6
CONTINUOUS
 62
3
 10
4253.560303
 20
2846.622751
 11
4260.284852
 21
2868.617760
  0
LINE
  8
0
  6
CONTINUOUS
 62
3
 10
4251.647694
 20
2847.207494
 11
4258.372243
 21
2869.202504
  0
LINE
  8
0
  6
CONTINUOUS
 62
3
 10
4245.909865
 20
2848.961724
 11
4252.634414
 21
2870.956734
  0
LINE
  8
0
  6
CONTINUOUS
 62
3
 10
4247.129142
 20
2820.201957
 11
4253.853691
 21
2842.196967
  0
LINE
  8
0
  6
CONTINUOUS
 62
3
 10
4249.041751
 20
2819.617214
 11
4255.766301
 21
2841.612223
  0
LINE
  8
0
  6
CONTINUOUS
 62
3
 10
4250.954361
 20
2819.032470
 11
4265.572946
 21
2866.847708
  0
LINE
  8
0
  6
CONTINUOUS
 62
3
 10
4252.866970
 20
2818.447727
 11
4267.485556
 21
2866.262965
  0
LINE
  8
0
  6
CONTINUOUS
 62
3
 10
4254.779580
 20
2817.862983
 11
4261.504129
 21
2839.857993
  0
LINE
  8
0
  6
CONTINUOUS
 62
3
 10
4256.692189
 20
2817.278240
 11
4263.416739
 21
2839.273249
  0
LINE
  8
0
  6
CONTINUOUS
 62
3
 10
4253.853691
 20
2842.196967
 11
4263.416739
 21
2839.273249
  0
LINE
  8
0
  6
CONTINUOUS
 62
3
 10
4255.023178
 20
2846.022186
 11
4264.586225
 21
2843.098468
  0
LINE
  8
0
  6
CONTINUOUS
 62
3
 10
4255.023178
 20
2846.022186
 11
4261.747727
 21
2868.017195
  0
LINE
  8
0
  6
CONTINUOUS
 62
3
 10
4264.586225
 20
2843.098468
 11
4271.310775
 21
2865.093478
  0
LINE
  8
0
  6
CONTINUOUS
 62
3
 10
4262.673616
 20
2843.683212
 11
4269.398165
 21
2865.678221
  0
LINE
  8
0
  6
CONTINUOUS
 62
3
 10
4256.935787
 20
2845.437442
 11
4263.660337
 21
2867.432452
  0
LINE
  8
0
  6
CONTINUOUS
 62
3
 10
4165.526531
 20
3430.737631
 11
4480.227705
 21
3334.523827
  0
LINE
  8
0
  6
CONTINUOUS
 62
3
 10
4468.532837
 20
3296.271636
 11
4165.526531
 21
3388.909961
  0
LINE
  8
0
  6
CONTINUOUS
 62
3
 10
4242.003621
 20
3511.925414
 11
4242.003621
 21
3699.721908
  0
LINE
  8
0
  6
CONTINUOUS
 62
3
 10
4242.003621
 20
3365.528568
 11
4242.003621
 21
3407.356238
  0
LINE
  8
0
  6
DASHED
 62
3
 10
4159.087526
 20
2997.691458
 11
4159.087526
 21
2929.691458
  0
LINE
  8
0
  6
CONTINUOUS
 62
3
 10
4162.003621
 20
2198.178228
 11
4162.003621
 21
1749.721908
  0
LINE
  8
0
  6
CONTINUOUS
 62
3
 10
3672.003621
 20
2818.657798
 11
3672.003621
 21
3699.721908
  0
LINE
  8
0
  6
CONTINUOUS
 62
3
 10
4024.896765
 20
1749.721908
 11
4242.003621
 21
1749.721908
  0
LINE
  8
0
  6
CONTINUOUS
 62
3
 10
3942.526531
 20
2881.957437
 11
3942.526531
 21
2484.332144
  0
LINE
  8
0
  6
CONTINUOUS
 62
3
 10
3930.526531
 20
2921.755267
 11
3930.526531
 21
3644.332144
  0
LINE
  8
0
  6
DASHED
 62
3
 10
4184.087526
 20
3425.062965
 11
4184.087526
 21
3509.691458
  0
LINE
  8
0
  6
CONTINUOUS
 62
3
 10
4153.526531
 20
2974.302026
 11
4153.526531
 21
3644.332144
  0
LINE
  8
0
  6
CONTINUOUS
 62
3
 10
4165.526531
 20
2813.779495
 11
4165.526531
 21
2359.332144
  0
LINE
  8
0
  6
CONTINUOUS
 62
3
 10
3942.526531
 20
2875.497908
 11
3944.332592
 21
2881.405268
  0
LINE
  8
0
  6
CONTINUOUS
 62
3
 10
3930.526531
 20
3619.721908
 11
3942.526531
 21
3619.721908
  0
LINE
  8
0
  6
CONTINUOUS
 62
3
 10
4153.526531
 20
3619.721908
 11
4165.526531
 21
3619.721908
  0
LINE
  8
0
  6
CONTINUOUS
 62
3
 10
4190.526531
 20
3619.721908
 11
4242.003621
 21
3619.721908
  0
LINE
  8
0
  6
CONTINUOUS
 62
3
 10
3765.526531
 20
3699.721908
 11
3592.003621
 21
3699.721908
  0
DIMENSION
  8
0
 62
1
  2
*D1
 70
0
  1
<>
 10
3223.528889
 20
3161.027026
 11
3223.528889
 21
3161.027026
 13
3537.003621
 23
1602.721908
 14
3590.526531
 24
4719.332144
 50
90.000000
  0
DIMENSION
  8
0
 62
1
  2
*D2
 70
0
  1
<>
 10
3915.526531
 20
4901.428432
 11
3915.526531
 21
4901.428432
 13
3590.526531
 23
4719.332144
 14
4240.526531
 24
4719.332144
 50
0.000000
  0
INSERT
  2
A1-SHEET
  8
BORDER
 10
100.000000
 20
100.000000
 41
10.000000
 42
10.000000
 50
0.000000
  0
ENDSEC
  0
EOF
